<?xml version="1.0" standalone="no"?>
<!DOCTYPE svg PUBLIC "-//W3C//DTD SVG 1.1//EN" "http://www.w3.org/Graphics/SVG/1.1/DTD/svg11.dtd" >
<svg xmlns="http://www.w3.org/2000/svg">
<metadata>
Copyright   : Copyright 2014 Luc(as) de Groot. All rights reserved. Published by LucasFonts.com
Designer    : Luc(as) de Groot
Foundry     : LucasFonts
Foundry URL : http://lucasfonts.com
</metadata>
<defs>
<font id="TheSerif_800_" horiz-adv-x="1126" >
<font-face units-per-em="2048" ascent="1516" descent="-532" />
<missing-glyph horiz-adv-x="446" />
<glyph unicode="fi" horiz-adv-x="1432" d="M786 0v202q32 9 66.5 15.5t69.5 9.5v550h-383v-550q35 -3 69.5 -9.5t66.5 -15.5v-202h-626v202q40 9 86 15.5t92 9.5v550h-193v241h193v31q0 133 45 222.5t123.5 143.5t183.5 77t226 23q92 0 185 -10.5t176 -30.5l-57 -258q-33 9 -70 16.5t-75 12.5t-75.5 8t-69.5 3 q-80 0 -134 -13.5t-86.5 -39t-46 -62.5t-13.5 -83v-40h695v-791q43 -3 84.5 -9.5t77.5 -15.5v-202h-610z" />
<glyph unicode="fl" horiz-adv-x="1432" d="M786 0v202q32 9 66.5 15.5t69.5 9.5v1024q-34 6 -72.5 8t-69.5 2q-65 0 -111 -13t-75 -37.5t-42 -61t-13 -82.5v-49h215v-241h-215v-550q35 -3 69.5 -9.5t66.5 -15.5v-202h-626v202q40 9 86 15.5t92 9.5v550h-193v241h193v53q0 112 32 195.5t103 138.5t185.5 82.5 t277.5 27.5q92 0 198 -10t211 -26v-1252q44 -3 85 -9.5t77 -15.5v-202h-610z" />
<glyph unicode="fb" horiz-adv-x="1944" d="M539 227q32 -3 74 -9.5t83 -14.5v-203h-647v203q45 8 90.5 14.5t87.5 9.5v551h-192v240h192v53q0 114 32.5 196.5t103 137t184.5 81.5t278 27q92 0 200 -9t208 -25v-385q0 -24 -1 -51.5t-3 -55t-5 -52.5t-7 -44l4 -2q18 35 45.5 62.5t64.5 47.5t81.5 30.5t94.5 10.5 q91 0 161 -32.5t117 -94.5t71 -150.5t24 -199.5q0 -126 -36.5 -233t-107.5 -186.5t-175.5 -123t-235.5 -43.5q-64 0 -118.5 3.5t-102 10t-91 16t-91.5 22.5v1222q-20 2 -41 4t-41 3.5t-39 2.5t-35 1q-117 0 -172 -45.5t-55 -143.5v-55h194v-240h-194v-551zM1552 532 q0 64 -8.5 110.5t-26 77t-44 45.5t-62.5 15q-26 0 -49 -9.5t-43 -27.5t-36 -43.5t-27 -57.5t-17 -69t-6 -77v-256q22 -7 46.5 -10t59.5 -3q47 0 85.5 16.5t67 52t44.5 94.5t16 142z" />
<glyph unicode="fh" horiz-adv-x="2038" d="M1531 0v648q0 30 -5 54t-16 41t-29.5 26t-45.5 9q-41 0 -77.5 -23.5t-64 -63t-43.5 -91t-16 -108.5v-265q35 -3 71 -8t69 -13v-206h-588v202q32 9 66.5 15.5t69.5 9.5v1024q-34 6 -72.5 8t-69.5 2q-65 0 -111 -13t-75 -37.5t-42 -61t-13 -82.5v-49h215v-241h-215v-550 q35 -3 69.5 -9.5t66.5 -15.5v-202h-626v202q40 9 86 15.5t92 9.5v550h-193v241h193v53q0 112 32 195.5t103 138.5t185.5 81.5t277.5 26.5q92 0 199 -9t210 -25v-392q0 -22 -1 -48.5t-3.5 -54t-6 -55t-7.5 -51.5h2q22 36 54 66t72.5 51t89.5 33.5t105 12.5q86 0 144 -25.5 t93 -70t50.5 -103t15.5 -124.5v-491q40 -3 83.5 -9.5t78.5 -15.5v-202h-473z" />
<glyph unicode="fj" horiz-adv-x="1356" d="M1233 -52q0 -104 -22 -186.5t-71.5 -140.5t-131 -89t-199.5 -31q-36 0 -76 5.5t-72 14.5l17 263q29 -11 61 -16.5t57 -5.5q34 0 58.5 8t39 27t21 48t6.5 69v863h-382v-550q35 -3 77 -9.5t80 -15.5v-202h-647v202q40 9 86 15.5t92 9.5v550h-193v241h193v31q0 133 45 222.5 t123.5 143.5t183.5 76t226 22q91 0 184.5 -9.5t175.5 -29.5l-57 -258q-34 9 -70.5 16.5t-74.5 12.5t-75 8t-69 3q-80 0 -134 -13.5t-86.5 -39t-46 -62.5t-13.5 -83v-40h694v-1070v0z" />
<glyph unicode="fk" horiz-adv-x="2003" d="M1596 0l-363 506v-279q33 -3 61.5 -8t51.5 -13v-206h-560v202q32 9 66.5 15.5t69.5 9.5v1024q-34 6 -72.5 8t-69.5 2q-65 0 -111 -13t-75 -37.5t-42 -61t-13 -82.5v-49h215v-241h-215v-550q35 -3 69.5 -9.5t66.5 -15.5v-202h-626v202q40 9 86 15.5t92 9.5v550h-193v241 h193v53q0 112 32 195.5t103 138.5t185.5 81.5t277.5 26.5q92 0 199 -9t209 -25v-919l193 237q-24 3 -44 6.5t-35 8.5v206h590v-206q-28 -7 -62.5 -12t-66.5 -7l-225 -246l246 -319q31 -4 65 -9t68 -12v-207h-366z" />
<glyph unicode=" "  horiz-adv-x="446" />
<glyph unicode="&#x09;" horiz-adv-x="446" />
<glyph unicode="&#xa0;" horiz-adv-x="446" />
<glyph unicode="!" horiz-adv-x="662" d="M485 410h-272l-49 1046h366zM529 152q0 -37 -14.5 -69.5t-39 -56.5t-58.5 -38t-73 -14q-38 0 -72 14t-58.5 38t-39 56.5t-14.5 69.5q0 38 14.5 70.5t39 56.5t58.5 37.5t72 13.5q39 0 73 -13.5t58.5 -37.5t39 -56.5t14.5 -70.5z" />
<glyph unicode="&#x22;" horiz-adv-x="881" d="M765 889h-234l-37 554h309zM350 889h-235l-36 554h308z" />
<glyph unicode="#" horiz-adv-x="1440" d="M1063 342l-36 -342h-273l35 342h-218l-36 -342h-271l35 342h-248v229h273l28 261h-240v229h264l33 321h271l-33 -321h219l32 321h273l-32 -321h249v-229h-274l-27 -261h241v-229h-265zM841 832h-218l-28 -261h219z" />
<glyph unicode="$" horiz-adv-x="1036" d="M133 419h214q5 -27 8.5 -56t6.5 -59q14 -2 30 -3.5t30 -1.5q43 0 80 7t64 22t42 38t15 55q0 37 -23.5 62t-61.5 44t-86.5 35.5t-100 37t-100.5 48t-87 68.5t-61.5 99t-23.5 139q0 69 24.5 130t68 110t103.5 84t131 51v204h221v-186q62 -3 123.5 -11.5t123.5 -21.5v-340 h-211q-8 29 -12 57.5t-6 54.5q-14 4 -29.5 5t-29.5 1q-47 0 -80.5 -8.5t-56 -23t-33.5 -34t-11 -43.5q0 -33 23.5 -56t62.5 -42t88 -36t100.5 -38.5t100.5 -50.5t88 -71t62.5 -100t23.5 -138q0 -71 -24.5 -134t-70 -115t-109 -90.5t-141.5 -58.5v-239h-220v222 q-66 2 -126.5 9t-129.5 22v352z" />
<glyph unicode="%" horiz-adv-x="1702" d="M767 1090q0 -88 -29.5 -158t-79.5 -119.5t-116 -75.5t-137 -26q-78 0 -140.5 23.5t-107 68.5t-68.5 110.5t-24 150.5q0 87 29.5 156t78.5 116.5t114 73t136 25.5q72 0 135 -20t109.5 -61.5t73 -107t26.5 -156.5zM511 1075q0 44 -6 72t-17.5 44.5t-29 23.5t-39.5 7 q-20 0 -37 -9.5t-30.5 -28.5t-20.5 -46.5t-7 -64.5q0 -43 6.5 -72t18.5 -45.5t28.5 -24t37.5 -7.5q20 0 37.5 9.5t30.5 28.5t20.5 47.5t7.5 65.5zM447 -58l-225 163l1007 1336l225 -164zM1616 326q0 -88 -29.5 -158t-80 -119t-116 -75t-137.5 -26q-78 0 -140.5 23t-106.5 68 t-68 110.5t-24 150.5q0 87 29.5 156t78.5 116.5t113 73t135 25.5q72 0 135 -20t110 -61.5t74 -107t27 -156.5zM1359 311q0 44 -6 72t-17.5 44.5t-29 23.5t-40.5 7q-19 0 -36.5 -9.5t-30 -28.5t-20 -46.5t-7.5 -64.5q0 -43 6.5 -72t18 -45.5t28.5 -24t37 -7.5t38 9.5t31 28.5 t20.5 47.5t7.5 65.5z" />
<glyph unicode="&#x26;" horiz-adv-x="1698" d="M1283 0q-54 38 -107 76.5t-90 67.5q-48 -36 -106 -67t-124 -54t-140 -36t-155 -13q-126 0 -216 34t-147.5 91t-84.5 131.5t-27 155.5q0 64 17 120t49 106.5t76 96.5t99 89q-41 51 -72 96t-51 88.5t-30 86.5t-10 89q0 72 28.5 136.5t84 113.5t136.5 78t186 29 q95 0 167.5 -22.5t122.5 -64t75 -100t25 -131.5q0 -54 -14.5 -104t-44.5 -98t-74 -95t-104 -94q33 -31 70.5 -64.5t78.5 -67.5t84.5 -69t86.5 -67v-2q13 20 24.5 42.5t21.5 47t17.5 51t11.5 55.5q-26 3 -49.5 7t-45.5 9v207h551v-207q-33 -7 -69.5 -12t-69.5 -9 q-18 -99 -57.5 -190.5t-96.5 -170.5q45 -33 97 -70.5t99 -70.5q30 -3 59.5 -7.5t57.5 -11.5v-206h-340zM681 1178q0 20 -6 39t-18.5 33.5t-32 23t-45.5 8.5q-23 0 -42 -8t-33.5 -22.5t-22.5 -34t-8 -43.5q0 -19 5 -40t16 -45t29 -50.5t45 -55.5q26 22 46.5 45t35.5 47.5 t23 49.5t8 53zM854 316q-46 36 -93.5 75.5t-92 78.5t-84 75.5t-70.5 65.5q-28 -25 -47 -49t-32 -47.5t-19 -46t-6 -45.5q0 -34 13.5 -67t39 -58t63 -41t85.5 -16q35 0 68.5 6t64 16t58.5 23.5t52 29.5z" />
<glyph unicode="'" horiz-adv-x="465" d="M350 889h-235l-36 554h308z" />
<glyph unicode="(" horiz-adv-x="631" d="M387 -448q-82 130 -140 258.5t-94.5 257.5t-53.5 258t-17 259q0 126 17.5 256t54 259.5t94.5 259.5t141 259l231 -103q-111 -202 -170.5 -434.5t-59.5 -487.5q0 -130 15.5 -253t45.5 -240t74 -228t102 -214z" />
<glyph unicode=")" horiz-adv-x="631" d="M550 588q0 -128 -17 -257t-54.5 -259.5t-95.5 -260.5t-141 -259l-231 103q112 202 171.5 435.5t59.5 488.5q0 257 -60 492.5t-173 441.5l239 106q81 -129 138.5 -258t94 -257.5t53 -257.5t16.5 -258z" />
<glyph unicode="*" horiz-adv-x="801" d="M635 895l-166 142l40 -216h-220l40 216l-169 -141l-107 187l207 75l-207 74l109 189l167 -143l-39 217h218l-38 -217l166 143l109 -189l-207 -74l207 -75z" />
<glyph unicode="+" d="M712 480v-363h-298v363h-337v260h337v360h298v-360h338v-260h-338z" />
<glyph unicode="," horiz-adv-x="567" d="M282 352q56 0 100 -28.5t68 -80t26 -121t-27.5 -151.5t-93.5 -171t-170 -180l-127 114q55 58 84.5 104.5t38.5 84.5t-2 72t-40 67q-22 25 -32 56.5t-8.5 64t14.5 63t36.5 54t56.5 38t76 14.5z" />
<glyph unicode="-" horiz-adv-x="690" d="M87 430v250h516v-250h-516z" />
<glyph unicode="&#xad;" horiz-adv-x="690" d="M87 430v250h516v-250h-516z" />
<glyph unicode="." horiz-adv-x="567" d="M477 168q0 -39 -15 -74.5t-42 -62t-62.5 -41.5t-74.5 -15t-74 15t-62 41.5t-42 62t-15 74.5t15 74.5t42 62.5t62 42t74 15t74.5 -15t62.5 -42t42 -62.5t15 -74.5z" />
<glyph unicode="/" horiz-adv-x="983" d="M270 -330h-311l719 1880h309z" />
<glyph unicode="0" horiz-adv-x="1249" d="M1178 545q0 -137 -47 -244t-125.5 -179.5t-182 -111t-216.5 -38.5q-107 0 -204 28t-170.5 92.5t-117 170t-43.5 260.5q0 133 45.5 238.5t123.5 179.5t182 113t220 39q103 0 183 -22t139.5 -60t100 -90.5t65.5 -113t36 -127.5t11 -135zM866 535q0 65 -15 118t-45.5 90.5 t-74.5 58.5t-102 21q-49 0 -93.5 -18.5t-78 -55.5t-53.5 -91t-20 -125q0 -65 14 -119t44 -91.5t75 -59t106 -21.5q49 0 93 19t77 55.5t53 91.5t20 127z" />
<glyph unicode="1" horiz-adv-x="786" d="M49 0v203q53 9 104.5 15t106.5 9v559l-194 -81l-48 245l322 121h238v-844q37 -3 81 -9.5t86 -14.5v-203h-696z" />
<glyph unicode="2" horiz-adv-x="985" d="M67 0v254l171 130q84 58 139.5 106.5t88 88.5t45.5 73.5t13 63.5q0 28 -8 51t-24.5 39.5t-41.5 26t-59 9.5q-24 0 -47.5 -5t-44.5 -13q-2 -27 -6.5 -62.5t-10.5 -67.5h-199v333q75 29 166 47.5t192 18.5q103 0 183.5 -24.5t135.5 -68t83.5 -105t28.5 -136.5 q0 -58 -17.5 -112.5t-51 -105.5t-81 -98t-106.5 -90l-107 -83l-1 -5q44 4 90.5 6t96 3t102 1h110.5v-275h-840z" />
<glyph unicode="3" horiz-adv-x="950" d="M415 1093q113 0 195.5 -27t136 -74.5t79.5 -113t26 -141.5q0 -53 -16 -101t-45 -88.5t-70.5 -73.5t-92.5 -55v-3q64 -15 111.5 -45t79 -71t47.5 -91t16 -107q0 -100 -40 -187t-116.5 -151.5t-188.5 -101.5t-256 -37q-53 0 -113.5 6.5t-109.5 18.5l25 277q44 -16 96 -23.5 t107 -7.5q58 0 105 11.5t79.5 34t50.5 56t18 77.5q0 55 -30 90t-84 52.5t-129.5 20t-167.5 -8.5v250q105 0 179.5 15t122 42.5t70 66.5t22.5 86q0 66 -35 105t-104 39q-20 0 -43 -4t-41 -10q-3 -27 -7 -59.5t-11 -67.5h-199v336q75 29 158 47t175 18z" />
<glyph unicode="4" horiz-adv-x="1161" d="M920 0v-143q45 -3 86 -10t77 -16v-192h-652v192q40 9 85.5 16t92.5 10v143h-533l-50 253l498 812h396v-785h195v-280h-195zM615 764h-2l-288 -487q17 1 41 1.5t52 1t56.5 0.5h140.5v484z" />
<glyph unicode="5" horiz-adv-x="965" d="M903 140q0 -76 -23 -143.5t-65.5 -125t-101.5 -103.5t-131.5 -78t-155.5 -49.5t-173 -17.5q-50 0 -96.5 4t-85.5 11l29 276q32 -6 75.5 -10t90.5 -4q72 0 126.5 15.5t91.5 42t55.5 63t18.5 78.5q0 44 -19 78.5t-57 59t-95 37t-131 12.5q-16 0 -35 -0.5t-38.5 -1.5 t-37.5 -2.5t-32 -3.5v787h726v-307l-433 3v-223q117 0 209 -28t156 -79.5t98 -125.5t34 -165z" />
<glyph unicode="6" horiz-adv-x="1190" d="M1125 476q0 -109 -39.5 -201.5t-111 -159.5t-171.5 -104t-219 -37q-112 0 -203.5 37.5t-157 111.5t-101.5 183.5t-36 255.5q0 203 54.5 365t154.5 274.5t243 173t320 60.5q13 0 30 -0.5t35 -1.5t36 -1.5t32 -1.5v-277q-38 5 -77 8.5t-74 3.5q-78 0 -142.5 -19t-115 -55.5 t-87 -89.5t-58.5 -120q-5 -13 -9 -27t-8 -30l2 -2q43 44 114.5 69.5t158.5 25.5q99 0 179 -31t136 -88.5t85.5 -139t29.5 -182.5zM797 445q0 50 -12.5 88t-36 64t-56.5 39t-74 13q-45 0 -79.5 -15.5t-57.5 -41t-35 -59.5t-12 -70q0 -48 11.5 -87.5t33.5 -68.5t55 -46t78 -17 t79.5 15t58 42t35.5 64t12 80z" />
<glyph unicode="7" horiz-adv-x="971" d="M927 803q-50 -122 -100.5 -259.5t-97.5 -285t-89.5 -304t-75.5 -315.5h-347q32 142 72.5 289t87 293t99 289.5t107.5 281.5h-32.5t-45.5 -0.5t-52.5 -0.5h-53h-48h-37.5q-4 -39 -9 -77.5t-14 -79.5h-251v431h887v-262v0z" />
<glyph unicode="8" horiz-adv-x="1147" d="M1075 396q0 -103 -41.5 -182t-113 -133t-167.5 -81.5t-204 -27.5q-112 0 -200 27.5t-149.5 77.5t-94.5 120.5t-33 157.5q0 68 21 122.5t55 97t74.5 75.5t79.5 59l-2 2q-48 29 -87.5 64.5t-67 77t-42 90t-14.5 104.5q0 92 37 167t103 127.5t156 80.5t197 28 q108 0 195.5 -25t148.5 -71t93.5 -112t32.5 -147q0 -55 -14.5 -102t-43 -88t-69.5 -78t-93 -72q45 -28 89 -62.5t78 -78t55 -97.5t21 -121zM730 1067q0 26 -10 48.5t-29.5 40t-49 28t-68.5 10.5q-37 0 -66.5 -10t-49.5 -28t-30.5 -42.5t-10.5 -53.5q0 -28 12 -52t34 -46 t53.5 -42.5t70.5 -42.5l2 -1q34 23 60 45.5t44.5 45t28 47.5t9.5 53zM744 378q0 33 -14 62t-39.5 54t-61 46.5t-77.5 42.5h-2q-30 -19 -57 -40.5t-47.5 -45.5t-32.5 -51.5t-12 -57.5q0 -35 12 -62.5t35 -47.5t54.5 -31t71.5 -11q38 0 69.5 10.5t54 29.5t34.5 45t12 57z" />
<glyph unicode="9" horiz-adv-x="1190" d="M1102 493q0 -195 -46.5 -354.5t-142 -274t-241 -177t-344.5 -62.5q-40 0 -80 3.5t-77 11.5v283q36 -12 83 -18.5t90 -6.5q76 0 139 17.5t113.5 52.5t86 86.5t56.5 120.5q2 6 4 14t4 17t4 17t5 16l-2 1q-21 -21 -49.5 -38t-64 -29.5t-76 -19t-84.5 -6.5q-96 0 -173 31.5 t-131 88.5t-83 137t-29 177q0 112 39 205.5t109 161.5t167 106.5t213 38.5q112 0 205.5 -35.5t161 -108.5t105.5 -186.5t38 -269.5zM750 619q0 43 -11 80.5t-33 65t-55.5 43t-77.5 15.5q-42 0 -75.5 -15t-57.5 -42t-36.5 -63.5t-12.5 -77.5q0 -98 43.5 -151t134.5 -53 q44 0 78 15.5t57 42.5t34.5 63t11.5 77z" />
<glyph unicode=":" horiz-adv-x="627" d="M527 735q0 -39 -15.5 -74.5t-42 -62t-61.5 -42t-75 -15.5q-39 0 -74.5 15.5t-61.5 42t-41.5 62t-15.5 74.5q0 40 15.5 74.5t41.5 61t61.5 42t74.5 15.5q40 0 75 -15.5t61.5 -42t42 -61t15.5 -74.5zM527 169q0 -40 -15.5 -75t-42 -62t-61.5 -42.5t-75 -15.5 q-39 0 -74.5 15.5t-61.5 42.5t-41.5 62t-15.5 75q0 39 15.5 74t41.5 61.5t61.5 42t74.5 15.5q40 0 75 -15.5t61.5 -42t42 -61.5t15.5 -74z" />
<glyph unicode=";" horiz-adv-x="627" d="M527 735q0 -39 -15.5 -74.5t-42 -62t-61.5 -42t-75 -15.5q-39 0 -74.5 15.5t-61.5 42t-41.5 62t-15.5 74.5q0 40 15.5 74.5t41.5 61t61.5 42t74.5 15.5q40 0 75 -15.5t61.5 -42t42 -61t15.5 -74.5zM333 353q55 0 99 -29t68.5 -80.5t26 -121t-27.5 -151.5t-93 -171 t-170 -180l-127 114q55 58 84.5 104.5t38.5 84.5t-2.5 72t-39.5 67q-22 25 -32 56.5t-8.5 64t14.5 63t36.5 54t56.5 38.5t76 15z" />
<glyph unicode="&#x3c;" d="M775 -6l-657 619l654 617l207 -206l-458 -409l459 -409z" />
<glyph unicode="=" d="M106 692v250h914v-250h-914zM106 273v251h914v-251h-914z" />
<glyph unicode="&#x3e;" d="M354 -6l-206 207l458 409l-459 409l204 211l657 -618z" />
<glyph unicode="?" horiz-adv-x="932" d="M853 1044q0 -64 -17 -114t-44 -89t-60 -71.5t-66 -62t-62.5 -58.5t-48 -64t-23 -77t11.5 -98h-304q-25 71 -26.5 126.5t13 100.5t41 81t58 66t64.5 57t60 53t44 55t17 62q0 43 -26.5 76t-77.5 56t-124.5 36t-167.5 15l38 284q186 -4 318.5 -41.5t217.5 -97.5 t124.5 -136.5t39.5 -158.5zM581 152q0 -37 -14.5 -69.5t-39 -56.5t-58.5 -38t-72 -14q-39 0 -72.5 14t-58.5 38t-39 56.5t-14 69.5q0 38 14 70.5t39 56.5t58.5 37.5t72.5 13.5q38 0 72 -13.5t58.5 -37.5t39 -56.5t14.5 -70.5z" />
<glyph unicode="@" horiz-adv-x="1977" d="M1800 856q0 -146 -38 -257t-106.5 -185t-162.5 -111t-206 -37q-51 0 -90.5 13t-66.5 37t-40.5 57t-13.5 73h-8q-19 -33 -46.5 -65.5t-62.5 -58t-77.5 -41t-90.5 -15.5t-87 18.5t-67 56.5t-43 95.5t-15 136.5q0 113 28.5 212t89 172.5t153 116t218.5 42.5q36 0 71.5 -4 t68.5 -10.5t61.5 -15t50.5 -17.5l-68 -386q-9 -48 -9 -81.5t8 -54.5t25.5 -30t44.5 -9q41 0 77.5 18t64 58t43.5 103t16 154q0 82 -24.5 158t-80 134.5t-145.5 93t-220 34.5q-86 0 -164 -21t-146.5 -61t-124.5 -98t-96 -131t-61.5 -161t-21.5 -188q0 -120 31 -214.5t98 -160 t170.5 -100t249.5 -34.5q89 0 182.5 17t182.5 46l47 -239q-53 -19 -112 -33.5t-118 -24.5t-115.5 -14.5t-105.5 -4.5q-197 0 -345 51.5t-247.5 147t-149.5 231.5t-50 304q0 136 32 258.5t90.5 227t141 188.5t184 143t219 91t245.5 32q120 0 221.5 -23t183 -65.5t143 -101.5 t102.5 -132t61.5 -158t20.5 -177zM1063 901q-16 7 -33.5 9t-36.5 2q-28 0 -52.5 -13t-44.5 -35.5t-35.5 -51.5t-26 -61.5t-16 -66.5t-5.5 -65q0 -62 12 -88t39 -26q23 0 48.5 18t50 56t46.5 98t40 146z" />
<glyph unicode="A" horiz-adv-x="1436" d="M838 0v202q31 6 65 11.5t66 8.5l-46 142h-445l-46 -142q32 -3 68.5 -8.5t67.5 -11.5v-202h-550v203q24 7 50 12t50 7l386 1160h419l395 -1160q24 -2 49.5 -7t50.5 -12v-203h-580zM765 874q-17 58 -33.5 114.5t-30.5 115.5h-3q-13 -61 -27 -116.5t-33 -114.5l-87 -262h300 z" />
<glyph unicode="B" horiz-adv-x="1294" d="M1230 433q0 -56 -14 -110t-43 -102.5t-74.5 -89.5t-109 -71.5t-145.5 -47t-183 -16.5q-28 0 -66.5 0.5t-92.5 1.5t-124.5 1.5t-159.5 0.5h-178v202q40 9 85.5 15.5t92.5 9.5v928q-47 3 -92.5 10t-85.5 16v201h170q44 0 103 1.5t124.5 3.5t134 3t133.5 1q112 0 200 -22 t149 -65.5t94 -109t33 -151.5q0 -49 -11.5 -94.5t-34.5 -84t-57 -69.5t-79 -51v-6q54 -14 96.5 -44.5t72.5 -71.5t46 -89.5t16 -99.5zM842 993q0 33 -11.5 59t-34.5 44.5t-58.5 28t-84.5 9.5q-19 0 -34 -0.5t-28.5 -1t-26.5 -1t-28 -1.5v-302q21 -2 44 -2h52q58 0 98 11.5 t65 33.5t36 52.5t11 69.5zM886 428q0 40 -16.5 70t-48 51t-76.5 31t-101 10h-20.5h-30.5t-32 -0.5t-25 -1.5v-327q21 -2 57 -4t72 -2q54 0 95 12.5t69 34.5t42.5 54t14.5 72z" />
<glyph unicode="C" horiz-adv-x="1184" d="M1133 43q-44 -15 -91.5 -26.5t-97.5 -20t-99.5 -12.5t-108.5 -4q-180 -1 -303.5 46.5t-204.5 134.5t-121.5 210.5t-40.5 276.5q0 169 45.5 306t135 236.5t220 154t302.5 54.5q82 0 166 -10t162 -26v-436h-247q-9 46 -13.5 85.5t-9.5 78.5q-25 6 -53 8.5t-53 2.5 q-73 0 -124 -26.5t-92.5 -79t-63.5 -128.5t-22 -173t19 -175t63 -133.5t114.5 -85t176.5 -28.5q63 0 98 3.5t70.5 12t69 16.5t61.5 21l42 -283v0z" />
<glyph unicode="D" horiz-adv-x="1446" d="M1381 719q0 -177 -54.5 -313t-153.5 -228t-238.5 -139.5t-307.5 -47.5q-55 0 -117.5 1.5t-120 3t-103.5 3t-68 1.5h-178v202q40 9 85.5 15.5t92.5 9.5v928q-47 3 -92.5 10t-85.5 16v201h170q41 0 95 1.5t116 3t130 3t137 1.5q156 0 283.5 -36t218.5 -116t141 -208 t50 -312zM1038 694q0 98 -17.5 177t-60 134.5t-113.5 86t-179 30.5h-38t-35 -0.5t-31.5 -1.5t-27.5 -2v-845q10 -2 23 -3.5t28.5 -2.5t32.5 -1.5t35 -0.5q83 0 153 25.5t121 78t80 133.5t29 192z" />
<glyph unicode="E" horiz-adv-x="1106" d="M40 0v202q40 9 85.5 15.5t92.5 9.5v928q-47 3 -92.5 10t-85.5 16v201h974v-356h-242q-7 33 -11 57t-7 50h-217v-312h177q4 24 8.5 47.5t10.5 46.5h207v-415h-206q-7 22 -11.5 47.5t-8.5 48.5h-177v-340h218q5 34 8.5 55t10.5 56h246v-367h-980z" />
<glyph unicode="F" horiz-adv-x="1065" d="M768 1018q-6 28 -10.5 51.5t-7.5 57.5h-214v-326h184q3 25 7.5 48.5t11.5 46.5h207v-430h-207q-7 22 -11.5 46t-7.5 48h-184v-333q46 -3 92 -9.5t86 -15.5v-202h-674v202q40 9 85.5 15.5t92.5 9.5v928q-47 3 -92.5 10t-85.5 16v201h970v-364h-242z" />
<glyph unicode="G" horiz-adv-x="1395" d="M1355 531q-25 -6 -50.5 -10t-50.5 -8v-444q-51 -22 -109 -39t-120 -29t-128 -18t-131 -6q-169 0 -299.5 47.5t-219.5 135.5t-135.5 214t-46.5 282q0 169 54.5 306.5t155 235.5t245 152t325.5 54q99 0 196.5 -13.5t197.5 -37.5v-402h-252q-8 42 -13 79t-9 76 q-32 8 -66.5 11.5t-68.5 3.5q-98 0 -176 -29.5t-132 -86t-83 -138t-29 -185.5q0 -97 25 -173.5t74.5 -130.5t123 -82.5t171.5 -28.5q37 0 69.5 4.5t61.5 13.5v225q-47 3 -92 10t-81 16v201h593v-206v0z" />
<glyph unicode="H" horiz-adv-x="1579" d="M903 0v207q30 7 65.5 12t75.5 8v348h-507v-348q39 -3 74 -8t65 -12v-207h-637v203q45 8 90.5 14.5t87.5 9.5v928q-43 3 -89 9.5t-89 15.5v202h637v-206q-30 -8 -64.5 -12.5t-74.5 -8.5v-303h507v303q-41 3 -76 8t-65 13v206h637v-202q-43 -9 -89 -15.5t-89 -9.5v-928 q42 -3 87.5 -9.5t90.5 -14.5v-203h-637z" />
<glyph unicode="I" horiz-adv-x="754" d="M39 0v203q45 8 90.5 14.5t87.5 9.5v928q-43 3 -89 9.5t-89 15.5v202h676v-202q-43 -9 -89 -15.5t-89 -9.5v-928q42 -3 87.5 -9.5t90.5 -14.5v-203h-676z" />
<glyph unicode="J" horiz-adv-x="758" d="M719 1176q-69 -16 -121 -21v-752q0 -58 -8.5 -111t-27 -100.5t-49 -87t-74 -68.5t-102.5 -45t-132 -16q-24 0 -48 1.5t-47 4t-44.5 6t-40.5 7.5v258q23 -6 55 -10t61 -4q34 0 59.5 8.5t43 28t26.5 51t9 77.5v752q-44 3 -89.5 9.5t-89.5 15.5v202h619v-206z" />
<glyph unicode="K" horiz-adv-x="1464" d="M809 0v207q18 4 40 7t46 7l-358 455v-449q34 -3 64.5 -8t57.5 -12v-207h-620v203q45 8 90.5 14.5t87.5 9.5v928q-43 3 -89 9.5t-89 15.5v202h620v-206q-26 -8 -56.5 -13t-65.5 -8v-416l356 422q-20 2 -44 6t-42 9v206h592v-204q-25 -6 -54 -10.5t-63 -8.5l-389 -438 l420 -498q33 -4 62.5 -8.5t54.5 -9.5v-205h-621z" />
<glyph unicode="L" horiz-adv-x="1065" d="M39 0v203q45 8 90.5 14.5t87.5 9.5v928q-43 3 -89 9.5t-89 15.5v202h676v-202q-43 -9 -89 -15.5t-89 -9.5v-891h227q3 42 12.5 92t24.5 95h233v-451h-995z" />
<glyph unicode="M" horiz-adv-x="1989" d="M1389 0v203q28 5 63.5 10.5t67.5 8.5l-62 474q-10 87 -18 168t-13 168h-4q-13 -80 -28.5 -157t-34.5 -146l-225 -729h-299l-219 716q-26 85 -42.5 165t-29.5 151h-2q-2 -43 -4.5 -88.5t-6 -90.5t-7.5 -87t-9 -76l-59 -467q32 -3 65.5 -9t61.5 -11v-203h-559v203 q11 3 26 6t25.5 5t31 4t33.5 3l148 934q-45 3 -83 10t-79 15v202h602l195 -596q11 -34 20.5 -71t19.5 -76t18.5 -79.5t17.5 -81.5h4q16 82 33.5 157t42.5 152l190 595h590v-201q-41 -9 -78.5 -16t-83.5 -10l149 -934q25 -2 60 -7t57 -11v-203h-575z" />
<glyph unicode="N" horiz-adv-x="1585" d="M1546 1176q-28 -7 -58.5 -12.5t-62.5 -8.5v-1155h-430l-336 645q-21 40 -42 83.5t-39.5 84.5t-38.5 86t-37 88q6 -72 10.5 -150t7 -168.5t3.5 -198t1 -243.5q34 -3 69.5 -8t68.5 -12v-207h-623v203q41 8 86.5 14.5t91.5 9.5v928q-47 3 -92.5 9.5t-85.5 15.5v202h610 l334 -643q22 -43 43.5 -87t41.5 -87.5t39 -87t34 -82.5q-6 79 -11.5 172.5t-7.5 166.5t-3 183.5t-1 237.5q-33 3 -65 8t-61 13v206h554v-206v0z" />
<glyph unicode="O" horiz-adv-x="1438" d="M1379 716q0 -172 -53.5 -309.5t-146.5 -233.5t-218.5 -147.5t-266.5 -51.5q-160 0 -279.5 48t-199 138t-119 218.5t-39.5 288.5q0 171 54 308.5t147.5 233.5t218 148t266.5 52q159 0 279.5 -48.5t199.5 -138.5t118 -218.5t39 -287.5zM1041 682q0 101 -19 182t-58.5 138 t-100 86.5t-142.5 29.5q-71 0 -131.5 -27t-103.5 -80t-67 -130.5t-24 -179.5q0 -101 20 -182t59.5 -137.5t100 -87t142.5 -30.5q72 0 132 27.5t102.5 80.5t66 131t23.5 179z" />
<glyph unicode="P" horiz-adv-x="1223" d="M1190 940q0 -109 -37 -201.5t-110 -162t-181 -108t-246 -38.5q-26 0 -43 0.5t-36 3.5v-207q42 -3 87.5 -9.5t90.5 -14.5v-203h-676v203q45 8 90.5 14.5t87.5 9.5v928q-43 3 -89 9.5t-89 15.5v202h178q20 0 70.5 2t110.5 4t120.5 3.5t116.5 1.5q137 0 241.5 -30.5 t174 -89.5t104.5 -142.5t35 -190.5zM862 907q0 48 -13 88t-41 70.5t-75 47.5t-112 17q-29 0 -49 -0.5t-35 -1.5v-428q19 -3 44 -5.5t52 -2.5q52 0 94.5 15t72.5 43t46 68t16 89z" />
<glyph unicode="Q" horiz-adv-x="1438" d="M1434 -135q-90 -15 -157 -12t-120.5 15t-98 30t-89.5 35t-95.5 29t-116.5 12h-63q-160 0 -279.5 48t-199 138t-119 218.5t-39.5 288.5q0 171 54 308.5t147.5 233.5t218.5 147.5t267 51.5q159 0 278.5 -48t199.5 -138t119.5 -218.5t39.5 -287.5q0 -100 -18 -186.5 t-52 -157.5t-81 -124.5t-103 -85.5q25 -1 46.5 -5t43.5 -8.5t44 -10t47.5 -8t56.5 -3t69 5.5v-268zM1043 682q0 101 -19.5 182t-59.5 138t-100.5 87t-142.5 30q-71 0 -131.5 -27.5t-103.5 -80.5t-67 -130.5t-24 -179.5q0 -101 20 -182t59.5 -137.5t100 -86.5t142.5 -30 q72 0 132 27t103 80t67 131t24 179z" />
<glyph unicode="R" horiz-adv-x="1313" d="M901 0l-282 545h-83v-318q25 -3 52.5 -8t56.5 -13v-206h-605v202q40 9 85.5 15.5t92.5 9.5v928q-47 3 -92.5 10t-85.5 16v201h162q12 0 40.5 1t66 2t83 2t93 2l95 2t89.5 1q124 0 222.5 -22.5t166.5 -72t104 -127.5t36 -189q0 -64 -18 -119.5t-52 -101t-84 -81 t-114 -56.5q16 -21 30 -42.5t27 -42.5l174 -312q25 -3 54.5 -8t59.5 -10v-208h-374zM863 964q0 42 -12.5 75t-39 56t-68 35t-99.5 12q-11 0 -26.5 -0.5t-31.5 -1t-29.5 -1.5t-20.5 -2v-359h108q51 0 91.5 12.5t68.5 36.5t43.5 58.5t15.5 78.5z" />
<glyph unicode="S" horiz-adv-x="1067" d="M686 997q-6 33 -11 76t-7 74q-22 4 -48.5 6t-46.5 2q-80 0 -125 -35t-45 -94q0 -43 26.5 -73t69 -54.5t97.5 -46t112.5 -46.5t112.5 -57.5t97.5 -78.5t69 -109.5t26.5 -150.5q0 -98 -36.5 -178t-106.5 -138t-170.5 -89.5t-227.5 -31.5q-73 0 -142 5.5t-127.5 14 t-115.5 19.5v396h250q5 -29 10.5 -73t7.5 -83q20 -4 42 -7.5t48.5 -6t55.5 -2.5q83 0 126.5 37t43.5 102q0 43 -26 73.5t-68.5 55t-97 46t-111.5 46.5t-111.5 57.5t-97 78.5t-68.5 109t-26 150q0 94 36 171.5t104.5 132t168 84.5t227.5 30q63 0 121.5 -5.5t108.5 -12 t98 -15.5v-379h-244z" />
<glyph unicode="T" horiz-adv-x="1237" d="M965 963q-9 43 -14.5 81.5t-8.5 75.5h-164v-893q43 -3 87.5 -9t90.5 -15v-203h-675v203q46 9 90.5 15t87.5 9v893h-164q-3 -37 -8.5 -75.5t-14.5 -81.5h-239v419h1171v-419h-239z" />
<glyph unicode="U" horiz-adv-x="1450" d="M1411 1176q-70 -16 -119 -21v-610q0 -140 -38.5 -247t-113 -179.5t-183.5 -109t-248 -36.5q-108 0 -192 19t-144.5 54.5t-102 83.5t-65.5 106.5t-34.5 123.5t-10.5 138v657q-50 5 -121 21v206h577v-206q-31 -8 -65 -13t-72 -8v-639q0 -67 11.5 -118t39.5 -87t76.5 -55.5 t120.5 -19.5q68 0 115.5 16.5t77 51.5t43.5 91t14 137v623q-38 3 -72 8t-65 13v206h571v-206z" />
<glyph unicode="V" horiz-adv-x="1389" d="M1370 1176q-24 -6 -48.5 -10t-49.5 -5l-391 -1161h-373l-393 1161q-24 1 -49 5t-48 10v206h574v-202q-9 -1 -59.5 -10t-75.5 -11l170 -532q23 -73 41.5 -136.5t33.5 -125.5h3q7 32 14.5 64t16.5 65.5t20 70.5t24 80l168 514q-24 2 -71 10.5t-60 10.5v202h553v-206z" />
<glyph unicode="W" horiz-adv-x="1993" d="M1974 1176q-22 -6 -47 -10t-49 -5l-236 -1161h-415l-183 641q-19 73 -35 154t-26 161h-2q-8 -80 -20.5 -161t-28.5 -154l-164 -641h-418l-235 1161q-24 1 -49 5t-48 10v206h557v-202q-9 -1 -57.5 -10t-73.5 -11l103 -504q7 -34 13.5 -72t12 -77.5t10 -79.5t7.5 -76h2 q7 39 13.5 76.5t14.5 76t16 76.5t17 72l193 731h315l209 -739q19 -65 36 -141.5t30 -151.5h2q6 85 13.5 161.5t16.5 139.5l86 508q-25 2 -68 10.5t-56 10.5v202h544v-206z" />
<glyph unicode="X" horiz-adv-x="1450" d="M793 0v207q24 5 50.5 8.5t47.5 5.5l-189 279l-188 -279q21 -2 44.5 -5.5t47.5 -8.5v-207h-586v205q29 6 61 10t58 6l375 473l-369 467q-30 2 -55 6.5t-53 10.5v204h631v-206q-25 -6 -51 -10t-46 -5l170 -262l181 262q-23 2 -46 6t-47 9v206h580v-204q-29 -6 -61 -11.5 t-58 -7.5l-354 -452l385 -486q24 -2 52.5 -6t56.5 -10v-205h-637z" />
<glyph unicode="Y" horiz-adv-x="1276" d="M1257 1176q-22 -6 -47 -9.5t-50 -6.5l-366 -700v-233q47 -3 92.5 -9.5t85.5 -15.5v-202h-674v202q40 9 85.5 15.5t92.5 9.5v231l-361 702q-21 3 -48 6.5t-49 9.5v206h554v-206q-25 -7 -50 -10.5t-51 -5.5l98 -215q9 -22 19.5 -46t21.5 -49.5t21 -50t18 -45.5h2 q8 22 17.5 47.5t19.5 51.5t20.5 50t19.5 43l100 214q-29 2 -55 5.5t-51 10.5v206h535v-206v0z" />
<glyph unicode="Z" horiz-adv-x="1112" d="M79 0v249l499 766q18 28 35 54.5t38 51.5q-28 -2 -65 -2h-89h-141q-3 -33 -8 -69t-14 -71h-246v403h942v-260l-526 -775l-24 -38t-28 -40q10 2 26.5 2.5t38 0.5h47.5h58h154q4 34 10 72.5t16 79.5h238v-424h-961z" />
<glyph unicode="[" horiz-adv-x="678" d="M126 -427v2026h482v-250h-188v-1524h188v-252h-482z" />
<glyph unicode="\" horiz-adv-x="1032" d="M725 -330l-717 1880h311l718 -1880h-312z" />
<glyph unicode="]" horiz-adv-x="678" d="M71 -427v252h187v1524h-187v250h482v-2026h-482z" />
<glyph unicode="^" d="M796 682l-250 481l-239 -481l-206 108l333 592h236l348 -589z" />
<glyph unicode="_" d="M0 -501v253h1126v-253h-1126z" />
<glyph unicode="`" horiz-adv-x="717" d="M568 1132l-413 215l135 210l387 -254z" />
<glyph unicode="a" horiz-adv-x="1122" d="M1096 14q-50 -6 -101.5 -9.5t-110 -5.5t-117 -2.5t-113.5 1.5q0 38 1.5 77.5t7.5 77.5h-2q-18 -39 -49.5 -71.5t-72 -56t-89 -36t-101.5 -12.5q-72 0 -127.5 21t-93 58.5t-56.5 90t-19 114.5q0 97 44 166t121.5 114t182 67t225.5 24v48q0 32 -8 57.5t-26 42.5t-48.5 26 t-75.5 9q-32 0 -64.5 -6t-57.5 -14q-3 -25 -7.5 -55.5t-10.5 -58.5h-199v309q84 24 175 39t182 15q133 0 221 -24t140 -70.5t73 -114.5t21 -156v-441q37 -7 77 -12.5t78 -8.5v-203zM626 437q-67 0 -118.5 -7t-87 -22t-54 -40.5t-18.5 -62.5q0 -20 7 -37t20 -29.5t32 -20 t43 -7.5q39 0 71.5 16.5t55.5 44t36 62.5t13 72v31z" />
<glyph unicode="b" horiz-adv-x="1149" d="M1086 564q0 -125 -36.5 -232.5t-108 -186t-176.5 -123.5t-242 -45q-57 0 -109 3.5t-101 10t-95.5 16.5t-91.5 23v1228q-37 7 -81.5 12.5t-89.5 8.5v200q56 7 114 11t118 6t123 2t128 -1v-403q0 -24 -1 -51t-3.5 -54.5t-5 -52.5t-5.5 -46h2q18 34 46 62t65.5 47.5t81.5 30 t94 10.5q93 0 163 -33t116.5 -94.5t70.5 -149.5t24 -199zM758 532q0 64 -8.5 111t-26.5 77.5t-44.5 45.5t-62.5 15q-26 0 -49.5 -10t-43 -28t-35.5 -43.5t-27.5 -57.5t-17 -69t-5.5 -78v-254q21 -7 46.5 -10.5t60.5 -3.5q45 0 84 15.5t67.5 51.5t45 94t16.5 144z" />
<glyph unicode="c" horiz-adv-x="915" d="M868 24q-37 -10 -73.5 -19t-76 -15.5t-77.5 -9.5t-79 -3q-82 0 -149 14.5t-123 43t-99 70.5t-72 97.5t-43.5 124t-14.5 151.5q0 115 31 217.5t98 180t170.5 120.5t245.5 44q58 0 119 -8.5t117 -25.5v-361h-201q-6 32 -11 65t-8 60q-12 3 -24.5 4.5t-30.5 1.5 q-40 -1 -73.5 -18.5t-57.5 -50t-37.5 -81t-13.5 -111.5q0 -65 13.5 -114.5t40.5 -82.5t72 -51.5t114 -18.5q48 0 104 10t105 27l34 -261v0z" />
<glyph unicode="d" horiz-adv-x="1204" d="M1184 16q-49 -7 -105 -11t-114 -6t-116 -2.5t-113 1.5v35t1 36.5t3 37.5t5 38h-4q-20 -37 -50 -68t-68.5 -53.5t-86 -35t-103.5 -12.5q-93 0 -162.5 33.5t-115.5 96t-69.5 150.5t-23.5 197q0 125 36.5 232.5t106.5 186t172 123t232 44.5q26 0 51.5 -1.5t49.5 -4.5v225 q-37 7 -85 12.5t-93 8.5v200q56 7 115 11t121 6t125.5 2t128.5 -1v-1260q37 -7 81.5 -12.5t80.5 -8.5v-200zM710 778q-26 7 -52.5 10t-54.5 3q-45 0 -83.5 -16t-67.5 -52t-45 -94t-16 -144q0 -63 8 -110.5t26 -78t44 -45.5t63 -15q26 0 49.5 9.5t43 28t35.5 45t27.5 59 t17 70t5.5 80.5v250z" />
<glyph unicode="e" horiz-adv-x="1063" d="M993 599q0 -18 -0.5 -39.5t-2 -44.5t-4 -45t-5.5 -41h-604q1 -51 15 -90t44 -66t77.5 -41t115.5 -14q73 0 148.5 15.5t149.5 46.5l31 -235q-88 -31 -187 -49.5t-193 -18.5q-124 0 -220.5 31t-162.5 95t-100.5 162.5t-34.5 232.5q0 115 34 214t98.5 172t157 114.5 t209.5 41.5q114 0 196 -33.5t135 -93t78 -140t25 -174.5zM687 635q1 44 -8.5 77t-28.5 55t-46 33.5t-61 11.5t-63 -12.5t-50.5 -36t-35 -56.5t-16.5 -72h309z" />
<glyph unicode="f" horiz-adv-x="788" d="M808 1243q-34 9 -65 13t-56 4q-72 0 -110 -35.5t-38 -116.5v-90h215v-241h-215v-550q46 -3 92 -9.5t86 -15.5v-202h-668v202q40 9 86 15.5t92 9.5v550h-193v241h193v88q0 102 25.5 178.5t77.5 127.5t132.5 77t191.5 26q42 0 84 -4.5t91 -13.5z" />
<glyph unicode="g" horiz-adv-x="1122" d="M1068 -90q0 -83 -40 -159t-114 -134t-176.5 -92t-234.5 -34q-104 0 -186 19t-142 57t-90 95t-30 133q0 36 12 72t32.5 67.5t50 57t59.5 40.5q-46 22 -72 63t-26 95q0 31 9.5 60.5t26 54.5t39.5 44t49 30q-69 37 -110.5 106t-41.5 169q0 77 28.5 147.5t86 124t144 85 t198.5 31.5q54 0 92 -6.5t82 -17.5h346v-245h-119q15 -16 22 -39.5t7 -50.5q0 -83 -27.5 -150.5t-82 -115t-134.5 -73.5t-190 -26q-16 0 -27.5 1t-28.5 3q-19 -9 -29 -23t-10 -27q0 -16 6.5 -26t23.5 -15.5t45.5 -8.5t72.5 -4l131 -5q82 -3 147 -22t109.5 -56t68 -92.5 t23.5 -132.5zM676 670q0 67 -35.5 107t-111.5 40q-33 0 -61 -11t-47.5 -30t-30 -45t-10.5 -58q0 -67 39 -106.5t112 -39.5q36 0 64 10t47 28.5t26.5 45t7.5 59.5zM762 -131q0 21 -7 40t-22.5 33t-37 23t-56.5 10l-162 5h-20.5t-18.5 1q-33 -27 -51.5 -59.5t-18.5 -66.5 q0 -29 12 -52t35 -39.5t57 -26t77 -9.5q54 0 92 11t65.5 30t41.5 45t14 55z" />
<glyph unicode="h" horiz-adv-x="1292" d="M799 0v647q0 32 -5 56t-16 40.5t-29 25.5t-44 9q-41 0 -78 -23t-65 -63.5t-44 -92.5t-16 -107v-265q42 -4 78 -10t51 -10v-207h-600v203q41 9 80.5 15t78.5 9v1030q-37 7 -82.5 12.5t-87.5 8.5v201q55 6 113 10.5t119 7t124 2.5t126 -2v-410q0 -24 -1 -50t-3 -54 t-5 -54.5t-8 -49.5h2q23 36 55 66t72.5 51t89.5 32.5t105 11.5q82 0 140.5 -25t93.5 -69t51 -102t16 -127v-490q37 -3 76.5 -9t79.5 -15v-203h-467z" />
<glyph unicode="i" horiz-adv-x="707" d="M557 1321q0 -38 -15 -71.5t-41 -59t-61 -39.5t-73 -14q-39 0 -74.5 14t-62 39.5t-41.5 59t-15 71.5q0 37 15 70.5t41.5 59t62 40t74.5 14.5q38 0 73 -14t61 -39.5t41 -59t15 -71.5zM47 0v203q20 5 65.5 12.5t96.5 11.5v553q-41 7 -84.5 12.5t-77.5 8.5v200 q57 7 113.5 11.5t115.5 7t120.5 2.5t125.5 -2v-793q38 -3 76 -9t80 -15v-203h-631z" />
<glyph unicode="j" horiz-adv-x="614" d="M526 1321q0 -38 -15 -71.5t-41 -59t-61 -39.5t-73 -14q-39 0 -73.5 14t-61 39.5t-41.5 59t-15 71.5q0 37 15 70.5t41.5 59t61 40t73.5 14.5q38 0 73 -14t61 -39.5t41 -59t15 -71.5zM494 -51q0 -107 -24 -189.5t-75.5 -140.5t-135 -88.5t-200.5 -30.5q-33 0 -73.5 4 t-67.5 9l19 266q26 -8 56 -12.5t54 -4.5q35 0 60.5 8.5t42 26.5t24.5 47t8 70v866q-44 7 -85.5 12.5t-78.5 8.5v200q55 6 112 11t116.5 7.5t121.5 2.5t126 -2v-1071z" />
<glyph unicode="k" horiz-adv-x="1272" d="M860 0l-358 506v-279q36 -3 64 -8t48 -12v-207h-583v203q37 8 78.5 14.5t80.5 9.5v1030q-37 7 -82.5 12.5t-87.5 8.5v201q55 6 113 10.5t119 7t124 2.5t126 -2v-956l217 258q-25 1 -52 6.5t-46 11.5v201h585v-207q-33 -7 -66.5 -12t-62.5 -6l-227 -242l244 -324 q37 -4 71.5 -8.5t65.5 -11.5v-207h-371z" />
<glyph unicode="l" horiz-adv-x="688" d="M31 0v203q38 8 78.5 14.5t80.5 9.5v1030q-37 7 -82.5 12.5t-87.5 8.5v201q57 6 115 10.5t118.5 7t123 2.5t125.5 -2v-1270q40 -3 76.5 -9t80.5 -15v-203h-628z" />
<glyph unicode="m" horiz-adv-x="1907" d="M1413 0v645q0 32 -4.5 56.5t-15 41.5t-29 26t-45.5 9q-37 0 -72.5 -21.5t-64 -61t-45.5 -93t-17 -113.5v-262q44 -4 79 -10t50 -10v-207h-436v647q0 30 -4 53.5t-14.5 41t-28.5 27t-45 9.5q-37 0 -73 -22.5t-64.5 -62.5t-45 -93t-16.5 -111v-262q43 -4 77.5 -10t49.5 -10 v-207h-602v203q20 5 65.5 12.5t96.5 11.5v553q-41 7 -84.5 12.5t-77.5 8.5v200q56 6 113 11t114 7.5t114.5 2.5t113.5 -2q0 -17 -0.5 -36.5t-2 -41.5t-4 -44.5t-6.5 -41.5h3q24 42 57.5 76t76 58t91.5 37t102 13q38 0 71.5 -6t61.5 -17.5t51 -28t41 -37t31 -44.5t21 -51 q20 38 51 71.5t72.5 59t92 39.5t107.5 14q81 0 139.5 -23.5t95 -67.5t53.5 -105t17 -137v-480q54 -5 96.5 -12.5t59.5 -11.5v-203h-467z" />
<glyph unicode="n" horiz-adv-x="1311" d="M817 0v645q0 33 -4.5 57t-15.5 41t-29 26t-45 9q-39 0 -75.5 -22.5t-65 -62.5t-44.5 -92.5t-16 -111.5v-262q43 -4 77.5 -10t49.5 -10v-207h-602v203q20 5 65.5 12.5t96.5 11.5v553q-41 7 -84.5 12.5t-77.5 8.5v200q56 6 113 11t114 7.5t114.5 2.5t113.5 -2 q0 -17 -0.5 -37.5t-2 -43t-4 -44.5t-6.5 -39h3q24 41 57 74.5t74.5 58t91.5 38t108 13.5q84 0 143.5 -25t95.5 -70t52 -105t16 -133v-480q54 -5 96.5 -12.5t59.5 -11.5v-203h-469z" />
<glyph unicode="o" horiz-adv-x="1143" d="M1085 537q0 -120 -35.5 -222.5t-104.5 -178.5t-169 -117.5t-225 -41.5q-114 0 -204.5 30t-155 92.5t-98.5 158t-34 223.5q0 120 36 222.5t105 178t169 117t225 41.5q113 0 203.5 -30t154.5 -92t98.5 -157.5t34.5 -223.5zM762 508q0 65 -12.5 114.5t-36.5 83.5t-59.5 51 t-80.5 17q-44 0 -79 -17t-60 -50t-38 -83t-13 -114q0 -65 12.5 -114.5t36.5 -82.5t58.5 -50t78.5 -17t79 16t61 48.5t39.5 82t13.5 115.5z" />
<glyph unicode="p" horiz-adv-x="1204" d="M1142 565q0 -130 -33.5 -237.5t-101 -184t-170 -118t-239.5 -41.5q-15 0 -28.5 0.5t-26 1t-25 2t-24.5 4.5v-251q46 -3 92 -9.5t86 -15.5v-202h-651v202q41 9 77.5 15.5t83.5 9.5v1040q-37 6 -77.5 12t-83.5 9v200q53 6 109 10.5t112.5 6.5t114 2t113.5 -1 q0 -16 -0.5 -34t-1.5 -37t-3 -38l-4 -38h4q21 40 51 71t68 52.5t84.5 32.5t103.5 11q90 0 159.5 -32.5t116 -94t70.5 -149.5t24 -199zM813 532q0 64 -8.5 111t-25.5 78t-44 46t-62 15q-27 0 -50.5 -9.5t-43 -28t-35.5 -45t-27 -59t-17 -70.5t-6 -80v-249q23 -7 49.5 -10.5 t57.5 -3.5q45 0 83.5 15.5t67 51.5t45 94t16.5 144z" />
<glyph unicode="q" horiz-adv-x="1145" d="M532 -485v200q42 10 88 17t91 10v188q0 24 1 50t2.5 52.5t4 53.5t6.5 51l-4 2q-19 -38 -47.5 -68.5t-64.5 -52t-78.5 -32.5t-88.5 -11q-92 0 -162.5 30.5t-119 90.5t-73 149.5t-24.5 205.5q0 126 36.5 233.5t108.5 187.5t179 124t244 44q57 0 109.5 -2.5t100.5 -6.5 t92 -10t91 -13v-1266q44 -3 84.5 -10t73.5 -17v-200h-650zM711 780q-27 5 -52 8t-55 3q-47 0 -85.5 -16.5t-67 -52.5t-44.5 -95t-16 -142q0 -64 8.5 -111t25.5 -77.5t43.5 -45.5t61.5 -15q26 0 50 10t44.5 28.5t36.5 45t27 59.5t17 72.5t6 83.5v245z" />
<glyph unicode="r" horiz-adv-x="864" d="M821 734q-70 15 -126.5 4.5t-98.5 -55t-58 -124t-16 -138.5v-194q46 -3 85 -9.5t79 -15.5v-202h-639v202q40 9 77.5 15.5t83.5 9.5v554q-37 6 -76.5 11t-84.5 10v200q56 6 106 10.5t110 6.5t119.5 2t118.5 -1q0 -35 -4.5 -89.5t-11.5 -103.5h2q20 50 44.5 92.5t65.5 76.5 t99 43t133 -1z" />
<glyph unicode="s" horiz-adv-x="915" d="M600 711q-3 13 -8.5 43.5t-9.5 66.5q-4 1 -15 2.5t-30 3.5t-41 2q-60 0 -92.5 -20t-32.5 -57q0 -28 20 -49t52 -36t94 -37.5t97.5 -36.5t78 -38t77 -58t54.5 -82t20 -110q0 -74 -28.5 -134t-86 -103.5t-146 -67t-206.5 -23.5q-59 0 -116.5 4t-101.5 9.5t-69 9.5t-34 6 v313h205q3 -14 8.5 -45t9.5 -67q6 -2 21 -5t42 -6t58 -3q61 0 94 22t33 59q0 28 -19.5 49.5t-51.5 37t-94.5 38.5t-96.5 37t-76 38t-76 58t-54 81.5t-20 109.5q0 70 29 128.5t86.5 100.5t144 65t199.5 23q48 0 97.5 -4t89.5 -10t63.5 -10t32.5 -6v-299h-201z" />
<glyph unicode="t" horiz-adv-x="772" d="M713 8q-52 -13 -114.5 -21.5t-118.5 -8.5q-88 0 -147 15.5t-95.5 54t-51.5 101.5t-15 156v472h-156v241h156v301l311 84v-385h222v-241h-222v-399q0 -40 5.5 -66.5t18 -43t32.5 -23t49 -6.5t55 3t51 10l20 -244v0z" />
<glyph unicode="u" horiz-adv-x="1290" d="M1264 14q-49 -6 -106.5 -9.5t-115 -5.5t-115 -2.5t-112.5 1.5q0 17 0.5 36.5t2 41t3.5 43.5t5 42h-4q-26 -40 -59 -73.5t-75 -58t-93.5 -38.5t-112.5 -14q-85 0 -143 26t-93.5 70t-49 103t-13.5 124v481q-37 6 -77.5 12t-77.5 9v202q50 6 101.5 9.5t111 5.5t124 2 t130.5 -1v-649q0 -31 4.5 -55t14 -41t27.5 -26t45 -9q41 0 77.5 24t64.5 63t45.5 90.5t17.5 106.5v259q-30 5 -66 9.5t-72 7.5v206q51 5 103.5 9t109 5.5t116 1t119.5 -1.5v-783q38 -7 83 -12.5t80 -8.5v-202v0z" />
<glyph unicode="v" horiz-adv-x="1180" d="M1161 815q-23 -7 -48.5 -11.5t-51.5 -8.5l-250 -795h-442l-248 795q-30 5 -53 9t-50 11v203h519v-207q-22 -5 -40.5 -8.5t-41.5 -5.5l106 -359q14 -47 21.5 -77.5t19.5 -86.5h3q10 50 18.5 84.5t19.5 78.5l98 360q-23 2 -41 5.5t-41 8.5v207h502v-203v0z" />
<glyph unicode="w" horiz-adv-x="1724" d="M1706 812q-23 -7 -47.5 -10.5t-49.5 -5.5l-240 -796h-342l-111 355q-17 55 -31.5 113.5t-28.5 129.5h-2q-15 -72 -31.5 -132.5t-35.5 -123.5l-102 -342h-336l-234 796q-25 2 -49.5 5.5t-47.5 10.5v206h500v-206q-19 -5 -38 -8t-40 -5l51 -189q16 -58 31.5 -116.5 t29.5 -120.5h3q14 83 33 151.5t38 133.5l113 360h275l110 -360q11 -39 21 -74t19 -69.5t17.5 -69.5t17.5 -72h3q6 29 12 56.5t12.5 54.5t13.5 53t14 53l60 209q-19 2 -39 5t-39 8v206h470v-206v0z" />
<glyph unicode="x" horiz-adv-x="1106" d="M686 0l-147 308l-148 -308h-371v207q35 7 72 12.5t72 8.5l183 288l-170 274q-35 3 -71.5 8.5t-72.5 12.5v207h379l151 -302l150 302h360v-207q-35 -7 -71.5 -12.5t-71.5 -8.5l-159 -274l172 -288q35 -3 71.5 -8.5t71.5 -12.5v-207h-400z" />
<glyph unicode="y" horiz-adv-x="1165" d="M1147 812q-23 -7 -47.5 -10.5t-49.5 -5.5l-299 -899q-39 -116 -85 -194t-104.5 -124t-130 -65.5t-160.5 -19.5q-18 0 -39.5 1.5t-44 4t-44.5 5.5t-42 8l16 266q43 -13 78.5 -18.5t74.5 -5.5q25 0 50 7.5t47 25.5t41.5 48t34.5 75l29 89h-93l-264 796q-25 2 -50.5 5.5 t-46.5 10.5v206h506v-206q-21 -5 -41 -8t-42 -5l68 -195q23 -65 43 -134.5t38 -147.5h4q7 35 16 72t20 75.5t22 76.5t23 75l59 178q-22 2 -41.5 5t-40.5 8v206h495v-206v0z" />
<glyph unicode="z" horiz-adv-x="948" d="M70 0v232l442 560q-10 -1 -27 -1.5t-35.5 -1t-38.5 -1t-36 -0.5h-75q-4 -28 -8 -54t-11 -56h-207v340h789v-233l-432 -542q13 1 29.5 1.5t34.5 0.5h36.5h35.5h84q3 27 7 54t10 57h208v-356h-806z" />
<glyph unicode="{" horiz-adv-x="770" d="M657 -427q-108 0 -185 28t-126.5 87.5t-72.5 153t-23 225.5v222q0 67 -13.5 110t-39 69.5t-62.5 38t-83 13.5v233q47 1 84 11t62.5 34.5t38.5 66.5t13 109v136q0 127 23 219.5t71.5 152.5t126 88.5t186.5 28.5h48v-250q-48 0 -80 -8.5t-50.5 -34t-26 -72t-7.5 -123.5 v-135q0 -90 -14 -151t-39 -100.5t-59.5 -59.5t-75.5 -26v-4q41 -6 75 -28t59.5 -63t39.5 -104t14 -153v-221q0 -75 7.5 -122.5t26 -73.5t50.5 -35.5t80 -9.5v-252h-48z" />
<glyph unicode="|" horiz-adv-x="594" d="M167 -486v2048h248v-2048h-248z" />
<glyph unicode="}" horiz-adv-x="766" d="M721 520q-47 -2 -83.5 -13.5t-62 -38t-39 -69.5t-13.5 -110v-222q0 -132 -23 -225.5t-72.5 -153t-126.5 -87.5t-184 -28h-49v252q47 0 79 9.5t51 35.5t26.5 73.5t7.5 122.5v221q0 90 14.5 153t39.5 104t59 63t75 28v4q-41 5 -75.5 25t-59.5 59.5t-39 100.5t-14 150v137 q0 77 -7.5 123.5t-26.5 72t-51 34t-79 8.5v250h49q108 0 185.5 -28.5t126 -88.5t71.5 -152.5t23 -219.5v-134q0 -68 13.5 -110.5t39 -67t62 -34.5t83.5 -11v-233v0z" />
<glyph unicode="~" d="M1057 1161q0 -79 -23.5 -142.5t-66 -108.5t-103.5 -69.5t-138 -24.5q-60 0 -101.5 15t-71.5 38t-51 49.5t-40 49.5t-38 38t-43 15q-21 0 -36 -9t-24.5 -27.5t-13.5 -48t-5 -69.5h-232v48q0 79 23 142.5t66.5 108.5t104.5 70t138 25q59 0 100.5 -15.5t71.5 -38.5 t51.5 -49.5t40 -49.5t37.5 -38.5t43 -15.5q21 0 35.5 9t24.5 28t14.5 48.5t4.5 69.5h232v-48v0z" />
<glyph unicode="&#xa1;" horiz-adv-x="662" d="M500 866q0 -38 -14.5 -70.5t-39 -56.5t-58 -37.5t-72.5 -13.5t-72.5 13.5t-58.5 37.5t-39 56.5t-14 70.5q0 37 14 69t39 56.5t58.5 38.5t72.5 14t72.5 -14t58 -38.5t39 -56.5t14.5 -69zM131 -438l45 1045h271l50 -1045h-366z" />
<glyph unicode="&#xa2;" horiz-adv-x="989" d="M674 1208q47 -1 99.5 -10t107.5 -22v-353h-203q-3 10 -9 41.5t-10 83.5q-14 4 -30.5 6t-34.5 2q-40 0 -75 -16t-61.5 -48t-41.5 -79.5t-15 -107.5q0 -55 14.5 -99.5t45 -76.5t76.5 -49t108 -17q56 0 112.5 10t108.5 29l33 -256q-49 -18 -110.5 -30t-114.5 -17v-246h-232 v254q-95 17 -164.5 58.5t-113.5 104t-65 142.5t-21 176t24.5 180t71.5 150t115 111t153 65v223h232v-209z" />
<glyph unicode="&#xa3;" horiz-adv-x="1092" d="M77 0v242q44 21 79.5 43.5t60 51t38 63t13.5 84.5q0 14 -1.5 36t-9.5 77h-193v227h168q-2 21 -6 43.5t-7 47.5t-5 50t-2 47q0 103 26 178t79 123.5t133 72.5t189 24q28 0 63.5 -2.5t72 -6.5t71.5 -10t62 -14v-343h-201q-7 32 -11 59.5t-9 57.5q-9 2 -19 2h-19 q-28 0 -50.5 -9t-38 -27t-24 -45.5t-19.5 -65.5q0 -19 1.5 -40.5t4 -45t6 -47t6.5 -49.5h260v-227h-236q3 -23 4.5 -33.5t1.5 -38.5q0 -43 -8.5 -77.5t-23.5 -68t-37.5 -63t-51.5 -57.5q23 3 56 4.5t60 1.5h199q1 17 4 37.5t5.5 40.5t5.5 39.5t6 36.5h219v-419h-922z" />
<glyph unicode="&#xa4;" d="M829 79l-152 205q-31 -11 -65 -16.5t-69 -5.5q-26 0 -49.5 3t-45.5 8l-138 -191l-245 171l134 169q-30 46 -46 105.5t-16 138.5q0 73 18.5 135t53.5 111l-143 184l242 169l142 -193q32 10 65.5 14.5t69.5 4.5q27 0 55 -3t54 -11l137 191l241 -175l-134 -172 q24 -43 38 -99.5t14 -131.5q0 -71 -19 -131.5t-52 -110.5l153 -194zM720 684q0 45 -9.5 79t-28.5 57t-48.5 34.5t-70.5 11.5q-30 0 -58 -11t-50 -34.5t-35.5 -59t-13.5 -84.5q0 -42 9.5 -76.5t28.5 -60t48 -40t69 -14.5q30 0 58.5 10.5t51 34t36 61.5t13.5 92z" />
<glyph unicode="&#xa5;" horiz-adv-x="1260" d="M1240 1176q-22 -6 -46.5 -9.5t-49.5 -6.5l-260 -445h222v-166h-321v-103h321v-169h-321v-71q47 -3 92.5 -10.5t86.5 -15.5v-180h-673v180q41 8 86.5 15.5t92.5 10.5v71h-320v169h320v103h-320v166h221l-255 445q-21 3 -48 6.5t-48 9.5v206h540v-206q-24 -7 -51.5 -10.5 t-54.5 -5.5l89 -172q26 -47 49 -88t40 -78h5q19 41 46.5 88t52.5 91l86 159q-28 2 -54.5 5.5t-51.5 10.5v206h524v-206v0z" />
<glyph unicode="&#xa6;" horiz-adv-x="594" d="M167 808v754h248v-754h-248zM167 -486v774h248v-774h-248z" />
<glyph unicode="&#xa7;" horiz-adv-x="1098" d="M971 522q0 -47 -12 -90t-33 -81.5t-49.5 -71t-62.5 -57.5q34 -41 55 -94t21 -122q0 -63 -26.5 -126t-87 -113t-158 -81.5t-239.5 -31.5q-18 0 -40.5 1.5t-46.5 4t-46.5 6t-41.5 7.5l19 262q19 -7 38.5 -11t40 -7t40.5 -4.5t39 -1.5q45 0 78 8t53.5 22.5t30 33t9.5 40.5 q0 31 -19 59t-50.5 56t-72 57.5t-82 63t-82 73t-72 87.5t-50.5 107t-19 131q0 46 10.5 89t31 81.5t49 71.5t64.5 58q-38 45 -56.5 94.5t-18.5 117.5q0 69 25 133.5t81 113t145.5 78t219.5 29.5q43 0 89.5 -4t86.5 -12l-15 -259q-36 11 -72.5 15.5t-74.5 4.5 q-80 0 -114.5 -23.5t-34.5 -69.5q0 -29 19 -57t50.5 -57t72.5 -59.5t83 -66.5t82.5 -77t72 -90.5t51 -108.5t19.5 -129zM691 480q0 45 -19 81.5t-53 72t-80.5 74t-101.5 89.5q-25 -20 -38 -49t-13 -60q0 -38 13 -70t43.5 -67.5t79 -77.5t119.5 -99q26 20 38 48.5t12 57.5z " />
<glyph unicode="&#xa8;" horiz-adv-x="973" d="M862 1321q0 -33 -12.5 -62.5t-35.5 -52t-52.5 -35t-61.5 -12.5q-33 0 -62.5 12.5t-51.5 35t-34.5 52t-12.5 62.5q0 32 12.5 62t34.5 52.5t51.5 35t62.5 12.5q32 0 61.5 -12.5t52.5 -35.5t35.5 -52.5t12.5 -61.5zM434 1321q0 -33 -12.5 -62.5t-35.5 -52t-52.5 -35 t-61.5 -12.5q-33 0 -62.5 12.5t-51.5 35t-34.5 52t-12.5 62.5q0 32 12.5 62t34.5 52.5t51.5 35t62.5 12.5q32 0 61.5 -12.5t52.5 -35.5t35.5 -52.5t12.5 -61.5z" />
<glyph unicode="&#xa9;" horiz-adv-x="1568" d="M1492 682q0 -97 -25.5 -188t-72 -169.5t-111 -143t-143 -111t-169.5 -71.5t-189 -25t-189 25t-169.5 71t-143 110.5t-110.5 143t-71 169.5t-25 188q0 98 25 188.5t70.5 169.5t109.5 143.5t144 111t171 71.5t188 25q98 0 189 -21t170.5 -61t148 -107.5t115 -153.5 t67 -176.5t20.5 -188.5zM1260 681q0 66 -17 127t-48 114.5t-75 97t-97 74.5t-114 48.5t-127 17.5q-98 0 -185 -37.5t-152 -102t-102 -152t-37 -186.5q0 -98 37 -185.5t102 -153t152 -103t185 -37.5q66 0 127 17t114 48t97 75t75 97t48 114t17 127zM1002 356 q-51 -19 -103 -27t-108 -8q-94 0 -160.5 24.5t-110 70t-63.5 109.5t-20 142q0 75 21 144.5t67 122.5t118 84.5t175 31.5q40 0 81.5 -5.5t84.5 -16.5v-263h-153q-4 23 -7.5 43.5t-6.5 41.5q-7 1 -15.5 1h-17.5q-27 0 -47 -10.5t-33 -30.5t-19 -50.5t-6 -69.5q0 -46 8.5 -78 t27.5 -52t48.5 -29t72.5 -9q33 0 66.5 5t68.5 21z" />
<glyph unicode="&#xaa;" horiz-adv-x="905" d="M876 656q-39 -5 -84.5 -8.5t-92.5 -5t-94.5 -2t-92.5 0.5q0 23 1 50t7 55h-3q-14 -26 -36.5 -48t-52 -38t-64.5 -25t-72 -9q-59 0 -101.5 15.5t-70.5 43t-41.5 64.5t-13.5 82q0 72 33 123.5t90.5 85t135 50t167.5 17.5v30q0 19 -5 34.5t-18 26.5t-36 17t-59 6 q-24 0 -43.5 -2.5t-36.5 -8.5q-2 -19 -5 -39.5t-8 -39.5h-159v233q29 8 61.5 16t67 13.5t71 9t72.5 3.5q103 0 170 -18.5t107 -53.5t56.5 -85t16.5 -114v-284l31.5 -4.5t35.5 -5t35.5 -4t30.5 -2.5v-179zM107 312v241h712v-241h-712zM491 956q-44 0 -79.5 -4t-60 -14 t-38 -28t-13.5 -45q0 -25 18 -41.5t51 -16.5q29 0 52 12t38.5 31t23.5 41t8 42v23z" />
<glyph unicode="&#xab;" d="M785 193l-237 404l242 409l237 -108l-180 -300l185 -295zM283 181l-214 416l219 421l244 -104l-165 -316l170 -310z" />
<glyph unicode="&#xac;" d="M734 185v295h-657v260h935v-555h-278z" />
<glyph unicode="&#xae;" horiz-adv-x="1157" d="M1076 1089q0 -103 -38.5 -192.5t-107 -156t-159 -103.5t-193.5 -37t-194 38t-158.5 103.5t-106.5 154.5t-39 193q0 103 39 192t107 155t158.5 103.5t193.5 37.5t195 -37t158.5 -102t105.5 -153.5t39 -195.5zM894 1088q0 65 -19.5 121.5t-64.5 105t-105.5 70t-126.5 21.5 q-65 0 -126.5 -22.5t-104.5 -67.5t-63.5 -101.5t-20.5 -124.5t22.5 -126.5t66.5 -102t102.5 -66.5t123.5 -23q66 0 124.5 21t102.5 63t66.5 104.5t22.5 127.5zM640 866l-55 160h-31v-64q8 -1 17 -3.5t19 -6.5v-86h-204v85q12 4 25.5 7t17.5 4v256q-4 3 -17.5 5.5t-25.5 5.5 v86h51q10 0 28.5 0.5t40 1t43.5 1t42 0.5q42 0 76 -8t58 -24.5t37 -42t13 -59.5q0 -40 -19 -72.5t-52 -48.5q7 -9 11.5 -18.5t7.5 -14.5l26 -68q9 -2 18 -4.5t17 -5.5v-86h-144zM636 1171q0 18 -12 29t-39 11h-16.5t-14.5 -2v-82q5 0 12 -1t13 -1q14 0 25 3.5t18 10t10.5 15 t3.5 17.5z" />
<glyph unicode="&#xaf;" horiz-adv-x="797" d="M111 1204v226h575v-226h-575z" />
<glyph unicode="&#xb0;" horiz-adv-x="811" d="M724 1215q0 -76 -28 -133.5t-75.5 -96.5t-108.5 -58.5t-125 -19.5q-74 0 -132.5 20.5t-99 60t-62.5 95.5t-22 127q0 73 29.5 129t76.5 95t106.5 59.5t119.5 20.5q86 0 147 -24t100 -65t56.5 -95t17.5 -115zM498 1216q0 20 -6.5 39t-18.5 34t-29.5 24t-41.5 9 q-23 0 -42 -8t-33 -22.5t-21.5 -35t-7.5 -44.5q0 -53 27.5 -81.5t73.5 -28.5q23 0 41.5 8.5t31 24t19.5 36.5t7 45z" />
<glyph unicode="&#xb1;" d="M712 724v-357h-298v357h-337v258h337v354h298v-354h338v-258h-338zM86 0v260h954v-260h-954z" />
<glyph unicode="&#xb2;" horiz-adv-x="852" d="M68 727v225l174 135q61 45 101.5 78.5t63.5 60.5t32.5 50t9.5 47q0 40 -21.5 65t-75.5 25q-41 0 -71 -12q-4 -26 -8.5 -59t-10.5 -64h-186v307q68 25 156 40t178 15q93 0 160.5 -19t111 -54.5t64 -85.5t20.5 -111q0 -89 -42 -163t-134 -144l-117 -94q50 3 126.5 4.5 t188.5 1.5v-248h-720z" />
<glyph unicode="&#xb3;" horiz-adv-x="829" d="M78 936q48 -11 110 -19t125 -8t102.5 20t39.5 66q0 24 -12 43t-48.5 30t-104.5 11.5t-179 -12.5v184q102 0 166 8t100.5 23t49.5 36.5t13 49.5q0 34 -23 55t-73 21q-17 0 -34 -2.5t-34 -5.5q-2 -23 -6 -50t-10 -47h-186v267q71 15 149.5 24.5t163.5 9.5q92 0 158 -17 t108 -47.5t62 -73.5t20 -95q0 -74 -33.5 -124.5t-93.5 -76.5q37 -8 66.5 -26t50.5 -44t32 -58t11 -66q0 -68 -32 -124t-92 -95.5t-145.5 -61.5t-191.5 -22q-72 0 -139.5 6t-118.5 14z" />
<glyph unicode="&#xb4;" horiz-adv-x="717" d="M244 1128l-133 148l331 301l164 -180z" />
<glyph unicode="&#xb6;" horiz-adv-x="1229" d="M1026 1131v-1328h-398v251h138v1328h386v-251h-126zM604 449q-134 0 -230 38t-157.5 101.5t-91 148.5t-29.5 179q0 109 37.5 195.5t105 147t160.5 92t205 31.5v-933z" />
<glyph unicode="&#xb7;" horiz-adv-x="598" d="M494 610q0 -40 -15.5 -75.5t-42 -62t-61.5 -42t-75 -15.5t-75.5 15.5t-62.5 42t-42.5 62t-15.5 75.5t15.5 75.5t42.5 62t62.5 42t75.5 15.5t75 -15.5t61.5 -42t42 -62t15.5 -75.5z" />
<glyph unicode="&#xb8;" horiz-adv-x="555" d="M379 -80q39 -56 54.5 -110t9 -104.5t-33 -96.5t-71.5 -88h-227q36 43 56 81t22.5 76.5t-13 79.5t-51.5 88z" />
<glyph unicode="&#xb9;" horiz-adv-x="750" d="M63 727v184q36 10 84.5 18t96.5 11v428l-160 -59l-41 223l244 92h260v-684q37 -5 78 -12t82 -17v-184h-644z" />
<glyph unicode="&#xba;" horiz-adv-x="918" d="M851 1025q0 -92 -32 -167t-87.5 -127t-130.5 -80.5t-161 -28.5q-76 0 -143.5 20.5t-118.5 65.5t-80.5 118t-29.5 178q0 96 32 171t87.5 127t129.5 79t157 27q84 0 153.5 -22t119 -69t77 -119.5t27.5 -172.5zM108 312v241h702v-241h-702zM589 1015q0 42 -7 75t-22.5 56.5 t-40.5 35.5t-60 12q-23 0 -46.5 -9.5t-42 -30.5t-30 -55t-11.5 -83q0 -37 6.5 -70t22 -58t39 -39t57.5 -14q26 0 50 9t43.5 30t30.5 55t11 86z" />
<glyph unicode="&#xbb;" d="M839 181l-244 104l165 316l-169 311l253 106l214 -416zM337 193l-236 108l180 300l-185 295l247 110l236 -404z" />
<glyph unicode="&#xbc;" horiz-adv-x="1903" d="M63 727v184q36 10 84.5 18t96.5 11v428l-160 -59l-41 223l244 92h260v-684q37 -5 78 -12t82 -17v-184h-644zM372 -322l-188 132l1352 1855l188 -133zM1729 -4v-67q34 -3 65 -8t56 -13v-143h-545v143q31 8 66.5 13t72.5 8v67h-375l-24 220l309 446h375v-465h127v-201h-127 zM1450 472l-190 -281q18 1 43.5 2t52.5 1.5t52 0.5h42v277z" />
<glyph unicode="&#xbd;" horiz-adv-x="1966" d="M63 727v184q36 10 84.5 18t96.5 11v428l-160 -59l-41 223l244 92h260v-684q37 -5 78 -12t82 -17v-184h-644zM372 -322l-188 132l1352 1855l188 -133zM1182 -235v225l174 135q61 45 101.5 78.5t63.5 60.5t32.5 50t9.5 47q0 40 -21.5 65t-75.5 25q-41 0 -71 -12 q-4 -26 -8.5 -59t-10.5 -64h-186v307q68 25 156 40t178 15q93 0 160.5 -19t111 -54.5t64 -85.5t20.5 -111q0 -89 -42 -163t-134 -144l-117 -94q50 3 126.5 4.5t188.5 1.5v-248h-720z" />
<glyph unicode="&#xbe;" horiz-adv-x="1858" d="M78 936q48 -11 110 -19t125 -8t102.5 20t39.5 66q0 24 -12 43t-48.5 30t-104.5 11.5t-179 -12.5v184q102 0 166 8t100.5 23t49.5 36.5t13 49.5q0 34 -23 55t-73 21q-17 0 -34 -2.5t-34 -5.5q-2 -23 -6 -50t-10 -47h-186v267q71 15 149.5 24.5t163.5 9.5q92 0 158 -17 t108 -47.5t62 -73.5t20 -95q0 -74 -33.5 -124.5t-93.5 -76.5q37 -8 66.5 -26t50.5 -44t32 -58t11 -66q0 -68 -32 -124t-92 -95.5t-145.5 -61.5t-191.5 -22q-72 0 -139.5 6t-118.5 14zM329 -322l-188 132l1352 1855l188 -133zM1686 -4v-67q34 -3 65 -8t56 -13v-143h-545v143 q31 8 66.5 13t72.5 8v67h-375l-24 220l309 446h375v-465h127v-201h-127zM1407 472l-190 -281q18 1 43.5 2t52.5 1.5t52 0.5h42v277z" />
<glyph unicode="&#xbf;" horiz-adv-x="932" d="M718 866q0 -38 -14 -70.5t-39 -56.5t-58.5 -37.5t-72.5 -13.5q-38 0 -72 13.5t-58.5 37.5t-39 56.5t-14.5 70.5q0 37 14.5 69t39 56.5t58.5 38.5t72 14q39 0 72.5 -14t58.5 -38.5t39 -56.5t14 -69zM778 -460q-186 4 -318.5 41.5t-217.5 97.5t-124.5 136.5t-39.5 158.5 q0 64 17 114t44 89t60 71.5t66 62t62.5 58.5t48 64t23 77t-11.5 97h304q25 -71 26.5 -126.5t-13 -100t-41 -80.5t-58.5 -66.5t-64.5 -57t-59.5 -53t-44 -55t-17 -62.5q0 -43 26.5 -75.5t77 -55.5t124.5 -36t168 -16z" />
<glyph unicode="&#xc0;" horiz-adv-x="1436" d="M838 0v202q31 6 65 11.5t66 8.5l-46 142h-445l-46 -142q32 -3 68.5 -8.5t67.5 -11.5v-202h-550v203q24 7 50 12t50 7l386 1160h419l395 -1160q24 -2 49.5 -7t50.5 -12v-203h-580zM765 874q-17 58 -33.5 114.5t-30.5 115.5h-3q-13 -61 -27 -116.5t-33 -114.5l-87 -262h300 zM871 1454l-477 105l65 217l459 -154z" />
<glyph unicode="&#xc1;" horiz-adv-x="1436" d="M838 0v202q31 6 65 11.5t66 8.5l-46 142h-445l-46 -142q32 -3 68.5 -8.5t67.5 -11.5v-202h-550v203q24 7 50 12t50 7l386 1160h419l395 -1160q24 -2 49.5 -7t50.5 -12v-203h-580zM765 874q-17 58 -33.5 114.5t-30.5 115.5h-3q-13 -61 -27 -116.5t-33 -114.5l-87 -262h300 zM572 1454l-47 168l458 154l66 -217z" />
<glyph unicode="&#xc2;" horiz-adv-x="1436" d="M838 0v202q31 6 65 11.5t66 8.5l-46 142h-445l-46 -142q32 -3 68.5 -8.5t67.5 -11.5v-202h-550v203q24 7 50 12t50 7l386 1160h419l395 -1160q24 -2 49.5 -7t50.5 -12v-203h-580zM765 874q-17 58 -33.5 114.5t-30.5 115.5h-3q-13 -61 -27 -116.5t-33 -114.5l-87 -262h300 zM995 1454l-280 107l-283 -107l-65 154l354 174l344 -170z" />
<glyph unicode="&#xc3;" horiz-adv-x="1436" d="M838 0v202q31 6 65 11.5t66 8.5l-46 142h-445l-46 -142q32 -3 68.5 -8.5t67.5 -11.5v-202h-550v203q24 7 50 12t50 7l386 1160h419l395 -1160q24 -2 49.5 -7t50.5 -12v-203h-580zM765 874q-17 58 -33.5 114.5t-30.5 115.5h-3q-13 -61 -27 -116.5t-33 -114.5l-87 -262h300 zM1102 1661q-49 -89 -118 -134.5t-156 -45.5q-48 0 -83.5 12t-76 37t-56 33t-40.5 8q-35 0 -61 -20.5t-52 -63.5l-151 102q49 89 118 134.5t156 45.5q48 0 83.5 -12t76.5 -37t56 -33t40 -8q35 0 61 20.5t52 63.5z" />
<glyph unicode="&#xc4;" horiz-adv-x="1436" d="M838 0v202q31 6 65 11.5t66 8.5l-46 142h-445l-46 -142q32 -3 68.5 -8.5t67.5 -11.5v-202h-550v203q24 7 50 12t50 7l386 1160h419l395 -1160q24 -2 49.5 -7t50.5 -12v-203h-580zM765 874q-17 58 -33.5 114.5t-30.5 115.5h-3q-13 -61 -27 -116.5t-33 -114.5l-87 -262h300 zM1086 1620q0 -32 -12.5 -61.5t-35 -52.5t-52 -35.5t-62.5 -12.5q-32 0 -61.5 12.5t-52.5 35.5t-35.5 52.5t-12.5 61.5q0 33 12.5 62.5t35.5 52t52.5 35t61.5 12.5q33 0 62.5 -12.5t52 -35t35 -52t12.5 -62.5zM643 1620q0 -32 -12.5 -61.5t-35.5 -52.5t-52.5 -35.5 t-61.5 -12.5q-33 0 -62.5 12.5t-51.5 35t-34.5 52.5t-12.5 62q0 33 12.5 62.5t34.5 52t51.5 35t62.5 12.5q32 0 61.5 -12.5t52.5 -35t35.5 -52t12.5 -62.5z" />
<glyph unicode="&#xc5;" horiz-adv-x="1436" d="M838 0v202q31 6 65 11.5t66 8.5l-46 142h-445l-46 -142q32 -3 68.5 -8.5t67.5 -11.5v-202h-550v203q24 7 50 12t50 7l386 1160h419l395 -1160q24 -2 49.5 -7t50.5 -12v-203h-580zM765 874q-17 58 -33.5 114.5t-30.5 115.5h-3q-13 -61 -27 -116.5t-33 -114.5l-87 -262h300 zM1015 1704q0 -58 -23 -106t-64.5 -82t-97.5 -52t-122 -18q-67 0 -119.5 14.5t-88.5 44t-55 74t-19 104.5q0 59 22.5 107t64 82t97.5 52t121 18q68 0 120.5 -14.5t89 -43.5t55.5 -74t19 -106zM813 1694q0 27 -5.5 46.5t-17 31.5t-28.5 18t-39 6q-21 0 -38.5 -6.5t-30 -19.5 t-19.5 -32t-7 -42q0 -28 5.5 -47.5t17 -32.5t28.5 -19t39 -6q21 0 38.5 7t30 20t19.5 32.5t7 43.5z" />
<glyph unicode="&#xc6;" horiz-adv-x="1686" d="M659 0v206q30 7 66.5 12.5t68.5 8.5v121h-380l-62 -126q12 -1 26 -3t28.5 -5t28 -6t24.5 -6v-202h-521v203q24 7 49.5 12t50.5 7l476 933q-46 3 -92 10t-86 16v201h1252v-369h-242q-6 33 -10.5 63t-8.5 56h-216v-311h179q3 24 7.5 48t10.5 47h208v-415h-208 q-6 22 -10.5 46.5t-7.5 47.5h-179v-340h222q4 34 8.5 64.5t11.5 65.5h245v-385h-939zM794 1129h-9q-16 -39 -33 -77.5t-34 -77.5t-35 -77l-36 -76l-116 -225h263v533z" />
<glyph unicode="&#xc7;" horiz-adv-x="1184" d="M1133 43q-44 -15 -91.5 -26.5t-97.5 -20t-99.5 -12.5t-108.5 -4q-180 -1 -303.5 46.5t-204.5 134.5t-121.5 210.5t-40.5 276.5q0 169 45.5 306t135 236.5t220 154t302.5 54.5q82 0 166 -10t162 -26v-436h-247q-9 46 -13.5 85.5t-9.5 78.5q-25 6 -53 8.5t-53 2.5 q-73 0 -124 -26.5t-92.5 -79t-63.5 -128.5t-22 -173t19 -175t63 -133.5t114.5 -85t176.5 -28.5q63 0 98 3.5t70.5 12t69 16.5t61.5 21l42 -283v0zM770 -80q39 -56 54.5 -110t9 -104.5t-33 -96.5t-71.5 -88h-227q36 43 56 81t22.5 76.5t-13 79.5t-51.5 88z" />
<glyph unicode="&#xc8;" horiz-adv-x="1106" d="M40 0v202q40 9 85.5 15.5t92.5 9.5v928q-47 3 -92.5 10t-85.5 16v201h974v-356h-242q-7 33 -11 57t-7 50h-217v-312h177q4 24 8.5 47.5t10.5 46.5h207v-415h-206q-7 22 -11.5 47.5t-8.5 48.5h-177v-340h218q5 34 8.5 55t10.5 56h246v-367h-980zM690 1454l-477 105l65 217 l459 -154z" />
<glyph unicode="&#xc9;" horiz-adv-x="1106" d="M40 0v202q40 9 85.5 15.5t92.5 9.5v928q-47 3 -92.5 10t-85.5 16v201h974v-356h-242q-7 33 -11 57t-7 50h-217v-312h177q4 24 8.5 47.5t10.5 46.5h207v-415h-206q-7 22 -11.5 47.5t-8.5 48.5h-177v-340h218q5 34 8.5 55t10.5 56h246v-367h-980zM443 1454l-47 168l458 154 l66 -217z" />
<glyph unicode="&#xca;" horiz-adv-x="1106" d="M40 0v202q40 9 85.5 15.5t92.5 9.5v928q-47 3 -92.5 10t-85.5 16v201h974v-356h-242q-7 33 -11 57t-7 50h-217v-312h177q4 24 8.5 47.5t10.5 46.5h207v-415h-206q-7 22 -11.5 47.5t-8.5 48.5h-177v-340h218q5 34 8.5 55t10.5 56h246v-367h-980zM854 1454l-280 107 l-283 -107l-65 154l354 174l344 -170z" />
<glyph unicode="&#xcb;" horiz-adv-x="1106" d="M40 0v202q40 9 85.5 15.5t92.5 9.5v928q-47 3 -92.5 10t-85.5 16v201h974v-356h-242q-7 33 -11 57t-7 50h-217v-312h177q4 24 8.5 47.5t10.5 46.5h207v-415h-206q-7 22 -11.5 47.5t-8.5 48.5h-177v-340h218q5 34 8.5 55t10.5 56h246v-367h-980zM951 1620 q0 -32 -12.5 -61.5t-35 -52.5t-52 -35.5t-62.5 -12.5q-32 0 -61.5 12.5t-52.5 35.5t-35.5 52.5t-12.5 61.5q0 33 12.5 62.5t35.5 52t52.5 35t61.5 12.5q33 0 62.5 -12.5t52 -35t35 -52t12.5 -62.5zM508 1620q0 -32 -12.5 -61.5t-35.5 -52.5t-52.5 -35.5t-61.5 -12.5 q-33 0 -62.5 12.5t-51.5 35t-34.5 52.5t-12.5 62q0 33 12.5 62.5t34.5 52t51.5 35t62.5 12.5q32 0 61.5 -12.5t52.5 -35t35.5 -52t12.5 -62.5z" />
<glyph unicode="&#xcc;" horiz-adv-x="754" d="M39 0v203q45 8 90.5 14.5t87.5 9.5v928q-43 3 -89 9.5t-89 15.5v202h676v-202q-43 -9 -89 -15.5t-89 -9.5v-928q42 -3 87.5 -9.5t90.5 -14.5v-203h-676zM517 1454l-477 105l65 217l459 -154z" />
<glyph unicode="&#xcd;" horiz-adv-x="754" d="M39 0v203q45 8 90.5 14.5t87.5 9.5v928q-43 3 -89 9.5t-89 15.5v202h676v-202q-43 -9 -89 -15.5t-89 -9.5v-928q42 -3 87.5 -9.5t90.5 -14.5v-203h-676zM185 1454l-47 168l458 154l66 -217z" />
<glyph unicode="&#xce;" horiz-adv-x="754" d="M39 0v203q45 8 90.5 14.5t87.5 9.5v928q-43 3 -89 9.5t-89 15.5v202h676v-202q-43 -9 -89 -15.5t-89 -9.5v-928q42 -3 87.5 -9.5t90.5 -14.5v-203h-676zM656 1454l-280 107l-283 -107l-65 154l354 174l344 -170z" />
<glyph unicode="&#xcf;" horiz-adv-x="754" d="M39 0v203q45 8 90.5 14.5t87.5 9.5v928q-43 3 -89 9.5t-89 15.5v202h676v-202q-43 -9 -89 -15.5t-89 -9.5v-928q42 -3 87.5 -9.5t90.5 -14.5v-203h-676zM761 1620q0 -32 -12.5 -61.5t-35 -52.5t-52 -35.5t-62.5 -12.5q-32 0 -61.5 12.5t-52.5 35.5t-35.5 52.5t-12.5 61.5 q0 33 12.5 62.5t35.5 52t52.5 35t61.5 12.5q33 0 62.5 -12.5t52 -35t35 -52t12.5 -62.5zM318 1620q0 -32 -12.5 -61.5t-35.5 -52.5t-52.5 -35.5t-61.5 -12.5q-33 0 -62.5 12.5t-51.5 35t-34.5 52.5t-12.5 62q0 33 12.5 62.5t34.5 52t51.5 35t62.5 12.5q32 0 61.5 -12.5 t52.5 -35t35.5 -52t12.5 -62.5z" />
<glyph unicode="&#xd0;" horiz-adv-x="1464" d="M1400 719q0 -177 -54 -313t-153 -228t-238 -139.5t-308 -47.5q-109 0 -209.5 4.5t-199.5 4.5h-178v202q40 9 86 15.5t92 9.5v351h-132v240h132v337q-46 3 -92 10t-86 16v201h170q43 0 97.5 1.5t116 3t129.5 3t137 1.5q104 0 196 -15.5t168.5 -49.5t137 -86.5 t102.5 -127.5t64 -172.5t22 -220.5zM1061 694q0 98 -17.5 177t-60 134.5t-113.5 86t-179 30.5h-38t-35 -0.5t-32 -1.5t-29 -2v-300h222v-240h-222v-305q11 -2 24 -3.5t28.5 -2.5t32.5 -1.5t35 -0.5q83 0 153 25.5t121.5 78t80.5 133.5t29 192z" />
<glyph unicode="&#xd1;" horiz-adv-x="1585" d="M1546 1176q-28 -7 -58.5 -12.5t-62.5 -8.5v-1155h-430l-336 645q-21 40 -42 83.5t-39.5 84.5t-38.5 86t-37 88q6 -72 10.5 -150t7 -168.5t3.5 -198t1 -243.5q34 -3 69.5 -8t68.5 -12v-207h-623v203q41 8 86.5 14.5t91.5 9.5v928q-47 3 -92.5 9.5t-85.5 15.5v202h610 l334 -643q22 -43 43.5 -87t41.5 -87.5t39 -87t34 -82.5q-6 79 -11.5 172.5t-7.5 166.5t-3 183.5t-1 237.5q-33 3 -65 8t-61 13v206h554v-206v0zM1206 1661q-49 -89 -118 -134.5t-156 -45.5q-48 0 -83.5 12t-76 37t-56 33t-40.5 8q-35 0 -61 -20.5t-52 -63.5l-151 102 q49 89 118 134.5t156 45.5q48 0 83.5 -12t76.5 -37t56 -33t40 -8q35 0 61 20.5t52 63.5z" />
<glyph unicode="&#xd2;" horiz-adv-x="1438" d="M1379 716q0 -172 -53.5 -309.5t-146.5 -233.5t-218.5 -147.5t-266.5 -51.5q-160 0 -279.5 48t-199 138t-119 218.5t-39.5 288.5q0 171 54 308.5t147.5 233.5t218 148t266.5 52q159 0 279.5 -48.5t199.5 -138.5t118 -218.5t39 -287.5zM1041 682q0 101 -19 182t-58.5 138 t-100 86.5t-142.5 29.5q-71 0 -131.5 -27t-103.5 -80t-67 -130.5t-24 -179.5q0 -101 20 -182t59.5 -137.5t100 -87t142.5 -30.5q72 0 132 27.5t102.5 80.5t66 131t23.5 179zM873 1454l-477 105l65 217l459 -154z" />
<glyph unicode="&#xd3;" horiz-adv-x="1438" d="M1379 716q0 -172 -53.5 -309.5t-146.5 -233.5t-218.5 -147.5t-266.5 -51.5q-160 0 -279.5 48t-199 138t-119 218.5t-39.5 288.5q0 171 54 308.5t147.5 233.5t218 148t266.5 52q159 0 279.5 -48.5t199.5 -138.5t118 -218.5t39 -287.5zM1041 682q0 101 -19 182t-58.5 138 t-100 86.5t-142.5 29.5q-71 0 -131.5 -27t-103.5 -80t-67 -130.5t-24 -179.5q0 -101 20 -182t59.5 -137.5t100 -87t142.5 -30.5q72 0 132 27.5t102.5 80.5t66 131t23.5 179zM596 1454l-47 168l458 154l66 -217z" />
<glyph unicode="&#xd4;" horiz-adv-x="1438" d="M1379 716q0 -172 -53.5 -309.5t-146.5 -233.5t-218.5 -147.5t-266.5 -51.5q-160 0 -279.5 48t-199 138t-119 218.5t-39.5 288.5q0 171 54 308.5t147.5 233.5t218 148t266.5 52q159 0 279.5 -48.5t199.5 -138.5t118 -218.5t39 -287.5zM1041 682q0 101 -19 182t-58.5 138 t-100 86.5t-142.5 29.5q-71 0 -131.5 -27t-103.5 -80t-67 -130.5t-24 -179.5q0 -101 20 -182t59.5 -137.5t100 -87t142.5 -30.5q72 0 132 27.5t102.5 80.5t66 131t23.5 179zM1020 1454l-280 107l-283 -107l-65 154l354 174l344 -170z" />
<glyph unicode="&#xd5;" horiz-adv-x="1438" d="M1379 716q0 -172 -53.5 -309.5t-146.5 -233.5t-218.5 -147.5t-266.5 -51.5q-160 0 -279.5 48t-199 138t-119 218.5t-39.5 288.5q0 171 54 308.5t147.5 233.5t218 148t266.5 52q159 0 279.5 -48.5t199.5 -138.5t118 -218.5t39 -287.5zM1041 682q0 101 -19 182t-58.5 138 t-100 86.5t-142.5 29.5q-71 0 -131.5 -27t-103.5 -80t-67 -130.5t-24 -179.5q0 -101 20 -182t59.5 -137.5t100 -87t142.5 -30.5q72 0 132 27.5t102.5 80.5t66 131t23.5 179zM1124 1661q-49 -89 -118 -134.5t-156 -45.5q-48 0 -83.5 12t-76 37t-56 33t-40.5 8 q-35 0 -61 -20.5t-52 -63.5l-151 102q49 89 118 134.5t156 45.5q48 0 83.5 -12t76.5 -37t56 -33t40 -8q35 0 61 20.5t52 63.5z" />
<glyph unicode="&#xd6;" horiz-adv-x="1438" d="M1379 716q0 -172 -53.5 -309.5t-146.5 -233.5t-218.5 -147.5t-266.5 -51.5q-160 0 -279.5 48t-199 138t-119 218.5t-39.5 288.5q0 171 54 308.5t147.5 233.5t218 148t266.5 52q159 0 279.5 -48.5t199.5 -138.5t118 -218.5t39 -287.5zM1041 682q0 101 -19 182t-58.5 138 t-100 86.5t-142.5 29.5q-71 0 -131.5 -27t-103.5 -80t-67 -130.5t-24 -179.5q0 -101 20 -182t59.5 -137.5t100 -87t142.5 -30.5q72 0 132 27.5t102.5 80.5t66 131t23.5 179zM1121 1620q0 -32 -12.5 -61.5t-35 -52.5t-52 -35.5t-62.5 -12.5q-32 0 -61.5 12.5t-52.5 35.5 t-35.5 52.5t-12.5 61.5q0 33 12.5 62.5t35.5 52t52.5 35t61.5 12.5q33 0 62.5 -12.5t52 -35t35 -52t12.5 -62.5zM678 1620q0 -32 -12.5 -61.5t-35.5 -52.5t-52.5 -35.5t-61.5 -12.5q-33 0 -62.5 12.5t-51.5 35t-34.5 52.5t-12.5 62q0 33 12.5 62.5t34.5 52t51.5 35 t62.5 12.5q32 0 61.5 -12.5t52.5 -35t35.5 -52t12.5 -62.5z" />
<glyph unicode="&#xd7;" d="M850 130l-298 298l-297 -298l-170 170l297 298l-297 297l192 192l296 -297l298 297l171 -171l-299 -296l299 -298z" />
<glyph unicode="&#xd8;" horiz-adv-x="1438" d="M1381 713q0 -171 -53.5 -307.5t-146.5 -232.5t-218.5 -147.5t-268.5 -51.5q-49 0 -94.5 5t-85.5 14l-95 -204l-218 100l94 200q-61 45 -106 104.5t-74.5 133.5t-43.5 161t-14 185q0 113 24.5 211.5t69.5 180t107.5 145.5t139 108t164 67t182.5 23q42 0 83.5 -4t79.5 -11 l96 204l221 -97l-94 -200q60 -40 106.5 -96t79 -129.5t49 -164t16.5 -197.5zM1056 692q0 60 -7 110t-18 90t-23.5 69.5t-24.5 48.5l-338 -749q16 -3 32.5 -5t34.5 -2q61 0 122.5 22.5t110.5 74.5t80 136t31 205zM776 1124q-11 2 -26.5 4t-31.5 2q-65 0 -125.5 -25 t-107.5 -77.5t-75 -133t-28 -193.5q0 -54 7 -101.5t16.5 -87t20.5 -70t21 -50.5l331 732h-2z" />
<glyph unicode="&#xd9;" horiz-adv-x="1450" d="M1411 1176q-70 -16 -119 -21v-610q0 -140 -38.5 -247t-113 -179.5t-183.5 -109t-248 -36.5q-108 0 -192 19t-144.5 54.5t-102 83.5t-65.5 106.5t-34.5 123.5t-10.5 138v657q-50 5 -121 21v206h577v-206q-31 -8 -65 -13t-72 -8v-639q0 -67 11.5 -118t39.5 -87t76.5 -55.5 t120.5 -19.5q68 0 115.5 16.5t77 51.5t43.5 91t14 137v623q-38 3 -72 8t-65 13v206h571v-206zM805 1454l-477 105l65 217l459 -154z" />
<glyph unicode="&#xda;" horiz-adv-x="1450" d="M1411 1176q-70 -16 -119 -21v-610q0 -140 -38.5 -247t-113 -179.5t-183.5 -109t-248 -36.5q-108 0 -192 19t-144.5 54.5t-102 83.5t-65.5 106.5t-34.5 123.5t-10.5 138v657q-50 5 -121 21v206h577v-206q-31 -8 -65 -13t-72 -8v-639q0 -67 11.5 -118t39.5 -87t76.5 -55.5 t120.5 -19.5q68 0 115.5 16.5t77 51.5t43.5 91t14 137v623q-38 3 -72 8t-65 13v206h571v-206zM633 1454l-47 168l458 154l66 -217z" />
<glyph unicode="&#xdb;" horiz-adv-x="1450" d="M1411 1176q-70 -16 -119 -21v-610q0 -140 -38.5 -247t-113 -179.5t-183.5 -109t-248 -36.5q-108 0 -192 19t-144.5 54.5t-102 83.5t-65.5 106.5t-34.5 123.5t-10.5 138v657q-50 5 -121 21v206h577v-206q-31 -8 -65 -13t-72 -8v-639q0 -67 11.5 -118t39.5 -87t76.5 -55.5 t120.5 -19.5q68 0 115.5 16.5t77 51.5t43.5 91t14 137v623q-38 3 -72 8t-65 13v206h571v-206zM1009 1454l-280 107l-283 -107l-65 154l354 174l344 -170z" />
<glyph unicode="&#xdc;" horiz-adv-x="1450" d="M1411 1176q-70 -16 -119 -21v-610q0 -140 -38.5 -247t-113 -179.5t-183.5 -109t-248 -36.5q-108 0 -192 19t-144.5 54.5t-102 83.5t-65.5 106.5t-34.5 123.5t-10.5 138v657q-50 5 -121 21v206h577v-206q-31 -8 -65 -13t-72 -8v-639q0 -67 11.5 -118t39.5 -87t76.5 -55.5 t120.5 -19.5q68 0 115.5 16.5t77 51.5t43.5 91t14 137v623q-38 3 -72 8t-65 13v206h571v-206zM1110 1620q0 -32 -12.5 -61.5t-35 -52.5t-52 -35.5t-62.5 -12.5q-32 0 -61.5 12.5t-52.5 35.5t-35.5 52.5t-12.5 61.5q0 33 12.5 62.5t35.5 52t52.5 35t61.5 12.5 q33 0 62.5 -12.5t52 -35t35 -52t12.5 -62.5zM667 1620q0 -32 -12.5 -61.5t-35.5 -52.5t-52.5 -35.5t-61.5 -12.5q-33 0 -62.5 12.5t-51.5 35t-34.5 52.5t-12.5 62q0 33 12.5 62.5t34.5 52t51.5 35t62.5 12.5q32 0 61.5 -12.5t52.5 -35t35.5 -52t12.5 -62.5z" />
<glyph unicode="&#xdd;" horiz-adv-x="1276" d="M1257 1176q-22 -6 -47 -9.5t-50 -6.5l-366 -700v-233q47 -3 92.5 -9.5t85.5 -15.5v-202h-674v202q40 9 85.5 15.5t92.5 9.5v231l-361 702q-21 3 -48 6.5t-49 9.5v206h554v-206q-25 -7 -50 -10.5t-51 -5.5l98 -215q9 -22 19.5 -46t21.5 -49.5t21 -50t18 -45.5h2 q8 22 17.5 47.5t19.5 51.5t20.5 50t19.5 43l100 214q-29 2 -55 5.5t-51 10.5v206h535v-206v0zM557 1454l-47 168l458 154l66 -217z" />
<glyph unicode="&#xde;" horiz-adv-x="1276" d="M1238 727q0 -100 -38 -180t-107.5 -135.5t-165.5 -85t-213 -29.5q-57 0 -101 2.5t-77 6.5v-94q46 -3 92 -10.5t86 -15.5v-186h-674v199q40 8 85.5 15t92.5 10v934q-47 3 -92.5 10t-85.5 16v198h674v-186q-40 -8 -86 -15t-92 -10v-81q19 2 41 3.5t46 3t49.5 2t52.5 0.5 q127 0 223 -24t160.5 -71t97 -116.5t32.5 -160.5zM888 704q0 28 -10 54t-34.5 46.5t-63.5 32.5t-98 12q-41 0 -75.5 -2.5t-70.5 -9.5v-277q25 -5 58 -8t74 -3q57 0 99 11.5t69 31.5t39.5 48.5t12.5 63.5z" />
<glyph unicode="&#xdf;" horiz-adv-x="1470" d="M1439 337q0 -70 -27 -134t-81 -112t-135.5 -76t-191.5 -28q-72 0 -139.5 5.5t-126.5 15.5v324h204q6 -27 9.5 -57t4.5 -52q14 -5 30 -6.5t32 -1.5q28 0 48 6.5t32.5 18.5t18 29t5.5 37q0 28 -17.5 49.5t-47 39.5t-66.5 35t-75.5 37.5t-75.5 45t-66.5 58.5t-47 79 t-17.5 106q0 50 14.5 87t36 65.5t46 52.5t46 49t36 54t14.5 69q0 24 -9.5 47t-29 40.5t-48.5 28.5t-69 11q-50 0 -88.5 -15t-65.5 -47t-41 -84t-14 -126v-759q36 -3 73.5 -10t61.5 -16v-203h-625v203q40 9 86 16t92 10v557q-37 7 -85.5 12.5t-93.5 8.5v202q41 5 86.5 8.5 t92.5 5.5q3 119 40.5 210t106.5 153t167.5 93.5t221.5 31.5q116 0 203.5 -25.5t146 -71t88.5 -108.5t30 -138q0 -59 -14.5 -99t-37 -68.5t-48 -49.5t-47.5 -42t-36.5 -45.5t-14.5 -59.5t30 -61t75.5 -51t98.5 -53.5t98.5 -68t75.5 -96t30 -137.5z" />
<glyph unicode="&#xe0;" horiz-adv-x="1122" d="M1096 14q-50 -6 -101.5 -9.5t-110 -5.5t-117 -2.5t-113.5 1.5q0 38 1.5 77.5t7.5 77.5h-2q-18 -39 -49.5 -71.5t-72 -56t-89 -36t-101.5 -12.5q-72 0 -127.5 21t-93 58.5t-56.5 90t-19 114.5q0 97 44 166t121.5 114t182 67t225.5 24v48q0 32 -8 57.5t-26 42.5t-48.5 26 t-75.5 9q-32 0 -64.5 -6t-57.5 -14q-3 -25 -7.5 -55.5t-10.5 -58.5h-199v309q84 24 175 39t182 15q133 0 221 -24t140 -70.5t73 -114.5t21 -156v-441q37 -7 77 -12.5t78 -8.5v-203zM626 437q-67 0 -118.5 -7t-87 -22t-54 -40.5t-18.5 -62.5q0 -20 7 -37t20 -29.5t32 -20 t43 -7.5q39 0 71.5 16.5t55.5 44t36 62.5t13 72v31zM668 1132l-413 215l135 210l387 -254z" />
<glyph unicode="&#xe1;" horiz-adv-x="1122" d="M1096 14q-50 -6 -101.5 -9.5t-110 -5.5t-117 -2.5t-113.5 1.5q0 38 1.5 77.5t7.5 77.5h-2q-18 -39 -49.5 -71.5t-72 -56t-89 -36t-101.5 -12.5q-72 0 -127.5 21t-93 58.5t-56.5 90t-19 114.5q0 97 44 166t121.5 114t182 67t225.5 24v48q0 32 -8 57.5t-26 42.5t-48.5 26 t-75.5 9q-32 0 -64.5 -6t-57.5 -14q-3 -25 -7.5 -55.5t-10.5 -58.5h-199v309q84 24 175 39t182 15q133 0 221 -24t140 -70.5t73 -114.5t21 -156v-441q37 -7 77 -12.5t78 -8.5v-203zM626 437q-67 0 -118.5 -7t-87 -22t-54 -40.5t-18.5 -62.5q0 -20 7 -37t20 -29.5t32 -20 t43 -7.5q39 0 71.5 16.5t55.5 44t36 62.5t13 72v31zM486 1128l-133 148l331 301l164 -180z" />
<glyph unicode="&#xe2;" horiz-adv-x="1122" d="M1096 14q-50 -6 -101.5 -9.5t-110 -5.5t-117 -2.5t-113.5 1.5q0 38 1.5 77.5t7.5 77.5h-2q-18 -39 -49.5 -71.5t-72 -56t-89 -36t-101.5 -12.5q-72 0 -127.5 21t-93 58.5t-56.5 90t-19 114.5q0 97 44 166t121.5 114t182 67t225.5 24v48q0 32 -8 57.5t-26 42.5t-48.5 26 t-75.5 9q-32 0 -64.5 -6t-57.5 -14q-3 -25 -7.5 -55.5t-10.5 -58.5h-199v309q84 24 175 39t182 15q133 0 221 -24t140 -70.5t73 -114.5t21 -156v-441q37 -7 77 -12.5t78 -8.5v-203zM626 437q-67 0 -118.5 -7t-87 -22t-54 -40.5t-18.5 -62.5q0 -20 7 -37t20 -29.5t32 -20 t43 -7.5q39 0 71.5 16.5t55.5 44t36 62.5t13 72v31zM757 1133l-215 161l-221 -161l-112 139l335 284l330 -280z" />
<glyph unicode="&#xe3;" horiz-adv-x="1122" d="M1096 14q-50 -6 -101.5 -9.5t-110 -5.5t-117 -2.5t-113.5 1.5q0 38 1.5 77.5t7.5 77.5h-2q-18 -39 -49.5 -71.5t-72 -56t-89 -36t-101.5 -12.5q-72 0 -127.5 21t-93 58.5t-56.5 90t-19 114.5q0 97 44 166t121.5 114t182 67t225.5 24v48q0 32 -8 57.5t-26 42.5t-48.5 26 t-75.5 9q-32 0 -64.5 -6t-57.5 -14q-3 -25 -7.5 -55.5t-10.5 -58.5h-199v309q84 24 175 39t182 15q133 0 221 -24t140 -70.5t73 -114.5t21 -156v-441q37 -7 77 -12.5t78 -8.5v-203zM626 437q-67 0 -118.5 -7t-87 -22t-54 -40.5t-18.5 -62.5q0 -20 7 -37t20 -29.5t32 -20 t43 -7.5q39 0 71.5 16.5t55.5 44t36 62.5t13 72v31zM919 1358q-46 -96 -113 -146.5t-151 -50.5q-46 0 -80.5 13.5t-74 41t-53.5 36t-37 8.5q-34 0 -59 -22.5t-50 -68.5l-145 111q48 98 114 148.5t150 50.5q46 0 80 -13t73.5 -40.5t55 -36.5t39.5 -9q33 0 57.5 22t48.5 68z " />
<glyph unicode="&#xe4;" horiz-adv-x="1122" d="M1096 14q-50 -6 -101.5 -9.5t-110 -5.5t-117 -2.5t-113.5 1.5q0 38 1.5 77.5t7.5 77.5h-2q-18 -39 -49.5 -71.5t-72 -56t-89 -36t-101.5 -12.5q-72 0 -127.5 21t-93 58.5t-56.5 90t-19 114.5q0 97 44 166t121.5 114t182 67t225.5 24v48q0 32 -8 57.5t-26 42.5t-48.5 26 t-75.5 9q-32 0 -64.5 -6t-57.5 -14q-3 -25 -7.5 -55.5t-10.5 -58.5h-199v309q84 24 175 39t182 15q133 0 221 -24t140 -70.5t73 -114.5t21 -156v-441q37 -7 77 -12.5t78 -8.5v-203zM626 437q-67 0 -118.5 -7t-87 -22t-54 -40.5t-18.5 -62.5q0 -20 7 -37t20 -29.5t32 -20 t43 -7.5q39 0 71.5 16.5t55.5 44t36 62.5t13 72v31zM913 1321q0 -33 -12.5 -62.5t-35.5 -52t-52.5 -35t-61.5 -12.5q-33 0 -62.5 12.5t-51.5 35t-34.5 52t-12.5 62.5q0 32 12.5 62t34.5 52.5t51.5 35t62.5 12.5q32 0 61.5 -12.5t52.5 -35.5t35.5 -52.5t12.5 -61.5zM485 1321 q0 -33 -12.5 -62.5t-35.5 -52t-52.5 -35t-61.5 -12.5q-33 0 -62.5 12.5t-51.5 35t-34.5 52t-12.5 62.5q0 32 12.5 62t34.5 52.5t51.5 35t62.5 12.5q32 0 61.5 -12.5t52.5 -35.5t35.5 -52.5t12.5 -61.5z" />
<glyph unicode="&#xe5;" horiz-adv-x="1122" d="M1096 14q-50 -6 -101.5 -9.5t-110 -5.5t-117 -2.5t-113.5 1.5q0 38 1.5 77.5t7.5 77.5h-2q-18 -39 -49.5 -71.5t-72 -56t-89 -36t-101.5 -12.5q-72 0 -127.5 21t-93 58.5t-56.5 90t-19 114.5q0 97 44 166t121.5 114t182 67t225.5 24v48q0 32 -8 57.5t-26 42.5t-48.5 26 t-75.5 9q-32 0 -64.5 -6t-57.5 -14q-3 -25 -7.5 -55.5t-10.5 -58.5h-199v309q84 24 175 39t182 15q133 0 221 -24t140 -70.5t73 -114.5t21 -156v-441q37 -7 77 -12.5t78 -8.5v-203zM626 437q-67 0 -118.5 -7t-87 -22t-54 -40.5t-18.5 -62.5q0 -20 7 -37t20 -29.5t32 -20 t43 -7.5q39 0 71.5 16.5t55.5 44t36 62.5t13 72v31zM829 1392q0 -61 -22.5 -111.5t-63.5 -86.5t-96.5 -55t-118.5 -19q-67 0 -118.5 15.5t-86.5 46.5t-53 78t-18 110q0 61 22.5 112t63 87t95.5 55.5t118 19.5q68 0 119.5 -16t87 -47.5t53.5 -78.5t18 -110zM633 1380 q0 30 -5.5 51t-17 34.5t-28.5 19.5t-40 6q-21 0 -38 -7t-29.5 -21t-19.5 -34.5t-7 -46.5q0 -29 5.5 -50t17 -34.5t28.5 -20t39 -6.5q21 0 38.5 7t30 21t19.5 34.5t7 46.5z" />
<glyph unicode="&#xe6;" horiz-adv-x="1618" d="M1548 600q0 -30 -1.5 -61.5t-3.5 -56.5t-3 -39.5t-2 -20.5h-606q2 -49 16 -86.5t43 -64t74.5 -40.5t108.5 -14q74 0 152.5 13.5t156.5 39.5l30 -229q-86 -31 -184.5 -47.5t-191.5 -16.5q-79 0 -146 13t-119.5 37.5t-90.5 60.5t-60 82h-2q-25 -46 -60.5 -82t-81.5 -60.5 t-102 -37.5t-121 -13q-72 0 -128 21t-94.5 60t-58.5 93t-20 119q0 91 43 158.5t120.5 111.5t182 65.5t228.5 21.5v41q0 39 -8 66t-26.5 45t-49.5 27t-76 9q-40 0 -73.5 -6t-47.5 -10q-2 -36 -8 -70t-10 -49h-199v311q40 12 138.5 30.5t230.5 18.5q48 0 92.5 -4.5t87 -15 t80 -29.5t67.5 -47h2q22 20 52.5 37.5t68 30.5t80 20.5t86.5 7.5q111 0 194 -33t136 -92.5t78.5 -139.5t25.5 -175zM1243 627q2 46 -6.5 81t-27 59t-46.5 36t-65 12q-36 0 -66 -14t-51.5 -40t-34 -60t-14.5 -74h311zM627 432q-69 0 -120.5 -6.5t-86.5 -21t-53.5 -38.5 t-18.5 -59q0 -22 6.5 -40t19.5 -30.5t32.5 -19t44.5 -6.5q38 0 70.5 16t56 44t36.5 63t13 72v26z" />
<glyph unicode="&#xe7;" horiz-adv-x="915" d="M868 24q-37 -10 -73.5 -19t-76 -15.5t-77.5 -9.5t-79 -3q-82 0 -149 14.5t-123 43t-99 70.5t-72 97.5t-43.5 124t-14.5 151.5q0 115 31 217.5t98 180t170.5 120.5t245.5 44q58 0 119 -8.5t117 -25.5v-361h-201q-6 32 -11 65t-8 60q-12 3 -24.5 4.5t-30.5 1.5 q-40 -1 -73.5 -18.5t-57.5 -50t-37.5 -81t-13.5 -111.5q0 -65 13.5 -114.5t40.5 -82.5t72 -51.5t114 -18.5q48 0 104 10t105 27l34 -261v0zM602 -80q39 -56 54.5 -110t9 -104.5t-33 -96.5t-71.5 -88h-227q36 43 56 81t22.5 76.5t-13 79.5t-51.5 88z" />
<glyph unicode="&#xe8;" horiz-adv-x="1063" d="M993 599q0 -18 -0.5 -39.5t-2 -44.5t-4 -45t-5.5 -41h-604q1 -51 15 -90t44 -66t77.5 -41t115.5 -14q73 0 148.5 15.5t149.5 46.5l31 -235q-88 -31 -187 -49.5t-193 -18.5q-124 0 -220.5 31t-162.5 95t-100.5 162.5t-34.5 232.5q0 115 34 214t98.5 172t157 114.5 t209.5 41.5q114 0 196 -33.5t135 -93t78 -140t25 -174.5zM687 635q1 44 -8.5 77t-28.5 55t-46 33.5t-61 11.5t-63 -12.5t-50.5 -36t-35 -56.5t-16.5 -72h309zM691 1132l-413 215l135 210l387 -254z" />
<glyph unicode="&#xe9;" horiz-adv-x="1063" d="M993 599q0 -18 -0.5 -39.5t-2 -44.5t-4 -45t-5.5 -41h-604q1 -51 15 -90t44 -66t77.5 -41t115.5 -14q73 0 148.5 15.5t149.5 46.5l31 -235q-88 -31 -187 -49.5t-193 -18.5q-124 0 -220.5 31t-162.5 95t-100.5 162.5t-34.5 232.5q0 115 34 214t98.5 172t157 114.5 t209.5 41.5q114 0 196 -33.5t135 -93t78 -140t25 -174.5zM687 635q1 44 -8.5 77t-28.5 55t-46 33.5t-61 11.5t-63 -12.5t-50.5 -36t-35 -56.5t-16.5 -72h309zM506 1128l-133 148l331 301l164 -180z" />
<glyph unicode="&#xea;" horiz-adv-x="1063" d="M993 599q0 -18 -0.5 -39.5t-2 -44.5t-4 -45t-5.5 -41h-604q1 -51 15 -90t44 -66t77.5 -41t115.5 -14q73 0 148.5 15.5t149.5 46.5l31 -235q-88 -31 -187 -49.5t-193 -18.5q-124 0 -220.5 31t-162.5 95t-100.5 162.5t-34.5 232.5q0 115 34 214t98.5 172t157 114.5 t209.5 41.5q114 0 196 -33.5t135 -93t78 -140t25 -174.5zM687 635q1 44 -8.5 77t-28.5 55t-46 33.5t-61 11.5t-63 -12.5t-50.5 -36t-35 -56.5t-16.5 -72h309zM768 1133l-215 161l-221 -161l-112 139l335 284l330 -280z" />
<glyph unicode="&#xeb;" horiz-adv-x="1063" d="M993 599q0 -18 -0.5 -39.5t-2 -44.5t-4 -45t-5.5 -41h-604q1 -51 15 -90t44 -66t77.5 -41t115.5 -14q73 0 148.5 15.5t149.5 46.5l31 -235q-88 -31 -187 -49.5t-193 -18.5q-124 0 -220.5 31t-162.5 95t-100.5 162.5t-34.5 232.5q0 115 34 214t98.5 172t157 114.5 t209.5 41.5q114 0 196 -33.5t135 -93t78 -140t25 -174.5zM687 635q1 44 -8.5 77t-28.5 55t-46 33.5t-61 11.5t-63 -12.5t-50.5 -36t-35 -56.5t-16.5 -72h309zM928 1321q0 -33 -12.5 -62.5t-35.5 -52t-52.5 -35t-61.5 -12.5q-33 0 -62.5 12.5t-51.5 35t-34.5 52t-12.5 62.5 q0 32 12.5 62t34.5 52.5t51.5 35t62.5 12.5q32 0 61.5 -12.5t52.5 -35.5t35.5 -52.5t12.5 -61.5zM500 1321q0 -33 -12.5 -62.5t-35.5 -52t-52.5 -35t-61.5 -12.5q-33 0 -62.5 12.5t-51.5 35t-34.5 52t-12.5 62.5q0 32 12.5 62t34.5 52.5t51.5 35t62.5 12.5q32 0 61.5 -12.5 t52.5 -35.5t35.5 -52.5t12.5 -61.5z" />
<glyph unicode="&#xec;" horiz-adv-x="707" d="M47 0v202q40 9 78.5 15.5t84.5 9.5v554q-37 6 -77.5 12t-85.5 9v200q56 6 107.5 10.5t113 6.5t125.5 2t129 -1v-793q43 -3 81.5 -9.5t74.5 -15.5v-202h-631zM503 1132l-413 215l135 210l387 -254z" />
<glyph unicode="&#xed;" horiz-adv-x="707" d="M47 0v202q40 9 78.5 15.5t84.5 9.5v554q-37 6 -77.5 12t-85.5 9v200q56 6 107.5 10.5t113 6.5t125.5 2t129 -1v-793q43 -3 81.5 -9.5t74.5 -15.5v-202h-631zM269 1128l-133 148l331 301l164 -180z" />
<glyph unicode="&#xee;" horiz-adv-x="707" d="M47 0v202q40 9 78.5 15.5t84.5 9.5v554q-37 6 -77.5 12t-85.5 9v200q56 6 107.5 10.5t113 6.5t125.5 2t129 -1v-793q43 -3 81.5 -9.5t74.5 -15.5v-202h-631zM570 1133l-215 161l-221 -161l-112 139l335 284l330 -280z" />
<glyph unicode="&#xef;" horiz-adv-x="707" d="M47 0v202q40 9 78.5 15.5t84.5 9.5v554q-37 6 -77.5 12t-85.5 9v200q56 6 107.5 10.5t113 6.5t125.5 2t129 -1v-793q43 -3 81.5 -9.5t74.5 -15.5v-202h-631zM711 1321q0 -33 -12.5 -62.5t-34.5 -52t-51.5 -35t-62.5 -12.5t-62.5 12.5t-52 35t-35 52t-12.5 62.5 q0 32 12.5 61.5t35 52.5t52 35.5t62.5 12.5t62.5 -12.5t51.5 -35t34.5 -52t12.5 -62.5zM318 1321q0 -33 -12.5 -62.5t-35 -52t-52 -35t-62.5 -12.5t-62.5 12t-51.5 34.5t-34.5 52t-12.5 63.5q0 32 12.5 61.5t35 52.5t52 35.5t61.5 12.5q33 0 62.5 -12.5t52 -35t35 -52 t12.5 -62.5z" />
<glyph unicode="&#xf0;" horiz-adv-x="1147" d="M1080 577q0 -151 -41.5 -264t-113 -187.5t-166.5 -111.5t-202 -37q-108 0 -200 30.5t-158 93t-103 158t-37 227.5q0 128 39 229.5t107 172.5t159 108.5t195 37.5q18 0 37 -2.5t35.5 -7.5t30.5 -13.5t24 -18.5q-11 19 -22 36.5t-21 31.5q-17 29 -40.5 59t-53.5 60 l-176 -76l-124 139l157 69q-33 27 -70.5 53t-78.5 53l304 127q35 -26 68 -53.5t64 -58.5l167 72l124 -140l-164 -70q63 -79 112 -163.5t82 -175t49.5 -185.5t16.5 -193zM755 533q0 55 -11 100t-34 76t-58 48.5t-83 17.5q-37 0 -71 -16t-59.5 -48.5t-40.5 -82t-15 -117.5 q0 -65 13.5 -114.5t39 -82.5t61 -50t80.5 -17q41 0 74 17t56 52.5t35.5 89t12.5 127.5z" />
<glyph unicode="&#xf1;" horiz-adv-x="1311" d="M817 0v645q0 33 -4.5 57t-15.5 41t-29 26t-45 9q-39 0 -75.5 -22.5t-65 -62.5t-44.5 -92.5t-16 -111.5v-262q43 -4 77.5 -10t49.5 -10v-207h-602v203q20 5 65.5 12.5t96.5 11.5v553q-41 7 -84.5 12.5t-77.5 8.5v200q56 6 113 11t114 7.5t114.5 2.5t113.5 -2 q0 -17 -0.5 -37.5t-2 -43t-4 -44.5t-6.5 -39h3q24 41 57 74.5t74.5 58t91.5 38t108 13.5q84 0 143.5 -25t95.5 -70t52 -105t16 -133v-480q54 -5 96.5 -12.5t59.5 -11.5v-203h-469zM1040 1358q-46 -96 -113 -146.5t-151 -50.5q-46 0 -80.5 13.5t-74 41t-53.5 36t-37 8.5 q-34 0 -59 -22.5t-50 -68.5l-145 111q48 98 114 148.5t150 50.5q46 0 80 -13t73.5 -40.5t55 -36.5t39.5 -9q33 0 57.5 22t48.5 68z" />
<glyph unicode="&#xf2;" horiz-adv-x="1143" d="M1085 537q0 -120 -35.5 -222.5t-104.5 -178.5t-169 -117.5t-225 -41.5q-114 0 -204.5 30t-155 92.5t-98.5 158t-34 223.5q0 120 36 222.5t105 178t169 117t225 41.5q113 0 203.5 -30t154.5 -92t98.5 -157.5t34.5 -223.5zM762 508q0 65 -12.5 114.5t-36.5 83.5t-59.5 51 t-80.5 17q-44 0 -79 -17t-60 -50t-38 -83t-13 -114q0 -65 12.5 -114.5t36.5 -82.5t58.5 -50t78.5 -17t79 16t61 48.5t39.5 82t13.5 115.5zM715 1132l-413 215l135 210l387 -254z" />
<glyph unicode="&#xf3;" horiz-adv-x="1143" d="M1085 537q0 -120 -35.5 -222.5t-104.5 -178.5t-169 -117.5t-225 -41.5q-114 0 -204.5 30t-155 92.5t-98.5 158t-34 223.5q0 120 36 222.5t105 178t169 117t225 41.5q113 0 203.5 -30t154.5 -92t98.5 -157.5t34.5 -223.5zM762 508q0 65 -12.5 114.5t-36.5 83.5t-59.5 51 t-80.5 17q-44 0 -79 -17t-60 -50t-38 -83t-13 -114q0 -65 12.5 -114.5t36.5 -82.5t58.5 -50t78.5 -17t79 16t61 48.5t39.5 82t13.5 115.5zM527 1128l-133 148l331 301l164 -180z" />
<glyph unicode="&#xf4;" horiz-adv-x="1143" d="M1085 537q0 -120 -35.5 -222.5t-104.5 -178.5t-169 -117.5t-225 -41.5q-114 0 -204.5 30t-155 92.5t-98.5 158t-34 223.5q0 120 36 222.5t105 178t169 117t225 41.5q113 0 203.5 -30t154.5 -92t98.5 -157.5t34.5 -223.5zM762 508q0 65 -12.5 114.5t-36.5 83.5t-59.5 51 t-80.5 17q-44 0 -79 -17t-60 -50t-38 -83t-13 -114q0 -65 12.5 -114.5t36.5 -82.5t58.5 -50t78.5 -17t79 16t61 48.5t39.5 82t13.5 115.5zM804 1133l-215 161l-221 -161l-112 139l335 284l330 -280z" />
<glyph unicode="&#xf5;" horiz-adv-x="1143" d="M1085 537q0 -120 -35.5 -222.5t-104.5 -178.5t-169 -117.5t-225 -41.5q-114 0 -204.5 30t-155 92.5t-98.5 158t-34 223.5q0 120 36 222.5t105 178t169 117t225 41.5q113 0 203.5 -30t154.5 -92t98.5 -157.5t34.5 -223.5zM762 508q0 65 -12.5 114.5t-36.5 83.5t-59.5 51 t-80.5 17q-44 0 -79 -17t-60 -50t-38 -83t-13 -114q0 -65 12.5 -114.5t36.5 -82.5t58.5 -50t78.5 -17t79 16t61 48.5t39.5 82t13.5 115.5zM972 1358q-46 -96 -113 -146.5t-151 -50.5q-46 0 -80.5 13.5t-74 41t-53.5 36t-37 8.5q-34 0 -59 -22.5t-50 -68.5l-145 111 q48 98 114 148.5t150 50.5q46 0 80 -13t73.5 -40.5t55 -36.5t39.5 -9q33 0 57.5 22t48.5 68z" />
<glyph unicode="&#xf6;" horiz-adv-x="1143" d="M1085 537q0 -120 -35.5 -222.5t-104.5 -178.5t-169 -117.5t-225 -41.5q-114 0 -204.5 30t-155 92.5t-98.5 158t-34 223.5q0 120 36 222.5t105 178t169 117t225 41.5q113 0 203.5 -30t154.5 -92t98.5 -157.5t34.5 -223.5zM762 508q0 65 -12.5 114.5t-36.5 83.5t-59.5 51 t-80.5 17q-44 0 -79 -17t-60 -50t-38 -83t-13 -114q0 -65 12.5 -114.5t36.5 -82.5t58.5 -50t78.5 -17t79 16t61 48.5t39.5 82t13.5 115.5zM964 1321q0 -33 -12.5 -62.5t-35.5 -52t-52.5 -35t-61.5 -12.5q-33 0 -62.5 12.5t-51.5 35t-34.5 52t-12.5 62.5q0 32 12.5 62 t34.5 52.5t51.5 35t62.5 12.5q32 0 61.5 -12.5t52.5 -35.5t35.5 -52.5t12.5 -61.5zM536 1321q0 -33 -12.5 -62.5t-35.5 -52t-52.5 -35t-61.5 -12.5q-33 0 -62.5 12.5t-51.5 35t-34.5 52t-12.5 62.5q0 32 12.5 62t34.5 52.5t51.5 35t62.5 12.5q32 0 61.5 -12.5t52.5 -35.5 t35.5 -52.5t12.5 -61.5z" />
<glyph unicode="&#xf7;" d="M746 1020q0 -38 -14.5 -71.5t-39.5 -58.5t-58.5 -39.5t-71.5 -14.5t-71.5 14.5t-58.5 39.5t-39.5 58.5t-14.5 71.5t14.5 71.5t39.5 58.5t58.5 39.5t71.5 14.5t71.5 -14.5t58.5 -39.5t39.5 -58.5t14.5 -71.5zM77 480v260h973v-260h-973zM746 200q0 -39 -14.5 -72 t-39.5 -58t-58.5 -40t-71.5 -15t-71.5 15t-58.5 40t-39.5 58t-14.5 72q0 37 14.5 70.5t39.5 58.5t58.5 40t71.5 15t71.5 -15t58.5 -40t39.5 -58.5t14.5 -70.5z" />
<glyph unicode="&#xf8;" horiz-adv-x="1143" d="M1085 537q0 -120 -35.5 -222.5t-104.5 -178.5t-169 -117.5t-225 -41.5q-41 0 -79 5t-71 14l-102 -193l-166 70l103 190q-45 33 -78 75t-55 94.5t-33 114.5t-11 134q0 120 36 222.5t105 178t169 117t225 41.5q40 0 77.5 -4.5t71.5 -13.5l101 192l166 -69l-101 -191 q44 -32 77 -74.5t55 -94.5t33 -114t11 -134zM788 510q0 52 -9 113t-9 67l-246 -465q7 -1 17.5 -1.5t25.5 -0.5q52 0 93.5 18.5t70 55t43 90.5t14.5 123zM621 793q-9 1 -18.5 1.5t-24.5 0.5q-53 0 -94.5 -18.5t-70 -55t-43 -90.5t-14.5 -123q0 -30 2 -57t5 -46t7 -43t5 -34z " />
<glyph unicode="&#xf9;" horiz-adv-x="1290" d="M1264 14q-49 -6 -106.5 -9.5t-115 -5.5t-115 -2.5t-112.5 1.5q0 17 0.5 36.5t2 41t3.5 43.5t5 42h-4q-26 -40 -59 -73.5t-75 -58t-93.5 -38.5t-112.5 -14q-85 0 -143 26t-93.5 70t-49 103t-13.5 124v481q-37 6 -77.5 12t-77.5 9v202q50 6 101.5 9.5t111 5.5t124 2 t130.5 -1v-649q0 -31 4.5 -55t14 -41t27.5 -26t45 -9q41 0 77.5 24t64.5 63t45.5 90.5t17.5 106.5v259q-30 5 -66 9.5t-72 7.5v206q51 5 103.5 9t109 5.5t116 1t119.5 -1.5v-783q38 -7 83 -12.5t80 -8.5v-202v0zM756 1132l-413 215l135 210l387 -254z" />
<glyph unicode="&#xfa;" horiz-adv-x="1290" d="M1264 14q-49 -6 -106.5 -9.5t-115 -5.5t-115 -2.5t-112.5 1.5q0 17 0.5 36.5t2 41t3.5 43.5t5 42h-4q-26 -40 -59 -73.5t-75 -58t-93.5 -38.5t-112.5 -14q-85 0 -143 26t-93.5 70t-49 103t-13.5 124v481q-37 6 -77.5 12t-77.5 9v202q50 6 101.5 9.5t111 5.5t124 2 t130.5 -1v-649q0 -31 4.5 -55t14 -41t27.5 -26t45 -9q41 0 77.5 24t64.5 63t45.5 90.5t17.5 106.5v259q-30 5 -66 9.5t-72 7.5v206q51 5 103.5 9t109 5.5t116 1t119.5 -1.5v-783q38 -7 83 -12.5t80 -8.5v-202v0zM594 1128l-133 148l331 301l164 -180z" />
<glyph unicode="&#xfb;" horiz-adv-x="1290" d="M1264 14q-49 -6 -106.5 -9.5t-115 -5.5t-115 -2.5t-112.5 1.5q0 17 0.5 36.5t2 41t3.5 43.5t5 42h-4q-26 -40 -59 -73.5t-75 -58t-93.5 -38.5t-112.5 -14q-85 0 -143 26t-93.5 70t-49 103t-13.5 124v481q-37 6 -77.5 12t-77.5 9v202q50 6 101.5 9.5t111 5.5t124 2 t130.5 -1v-649q0 -31 4.5 -55t14 -41t27.5 -26t45 -9q41 0 77.5 24t64.5 63t45.5 90.5t17.5 106.5v259q-30 5 -66 9.5t-72 7.5v206q51 5 103.5 9t109 5.5t116 1t119.5 -1.5v-783q38 -7 83 -12.5t80 -8.5v-202v0zM858 1133l-215 161l-221 -161l-112 139l335 284l330 -280z " />
<glyph unicode="&#xfc;" horiz-adv-x="1290" d="M1264 14q-49 -6 -106.5 -9.5t-115 -5.5t-115 -2.5t-112.5 1.5q0 17 0.5 36.5t2 41t3.5 43.5t5 42h-4q-26 -40 -59 -73.5t-75 -58t-93.5 -38.5t-112.5 -14q-85 0 -143 26t-93.5 70t-49 103t-13.5 124v481q-37 6 -77.5 12t-77.5 9v202q50 6 101.5 9.5t111 5.5t124 2 t130.5 -1v-649q0 -31 4.5 -55t14 -41t27.5 -26t45 -9q41 0 77.5 24t64.5 63t45.5 90.5t17.5 106.5v259q-30 5 -66 9.5t-72 7.5v206q51 5 103.5 9t109 5.5t116 1t119.5 -1.5v-783q38 -7 83 -12.5t80 -8.5v-202v0zM1012 1321q0 -33 -12.5 -62.5t-35.5 -52t-52.5 -35 t-61.5 -12.5q-33 0 -62.5 12.5t-51.5 35t-34.5 52t-12.5 62.5q0 32 12.5 62t34.5 52.5t51.5 35t62.5 12.5q32 0 61.5 -12.5t52.5 -35.5t35.5 -52.5t12.5 -61.5zM584 1321q0 -33 -12.5 -62.5t-35.5 -52t-52.5 -35t-61.5 -12.5q-33 0 -62.5 12.5t-51.5 35t-34.5 52t-12.5 62.5 q0 32 12.5 62t34.5 52.5t51.5 35t62.5 12.5q32 0 61.5 -12.5t52.5 -35.5t35.5 -52.5t12.5 -61.5z" />
<glyph unicode="&#xfd;" horiz-adv-x="1165" d="M1147 812q-23 -7 -47.5 -10.5t-49.5 -5.5l-299 -899q-39 -116 -85 -194t-104.5 -124t-130 -65.5t-160.5 -19.5q-18 0 -39.5 1.5t-44 4t-44.5 5.5t-42 8l16 266q43 -13 78.5 -18.5t74.5 -5.5q25 0 50 7.5t47 25.5t41.5 48t34.5 75l29 89h-93l-264 796q-25 2 -50.5 5.5 t-46.5 10.5v206h506v-206q-21 -5 -41 -8t-42 -5l68 -195q23 -65 43 -134.5t38 -147.5h4q7 35 16 72t20 75.5t22 76.5t23 75l59 178q-22 2 -41.5 5t-40.5 8v206h495v-206v0zM531 1128l-133 148l331 301l164 -180z" />
<glyph unicode="&#xfe;" horiz-adv-x="1149" d="M1086 565q0 -127 -36.5 -235t-108.5 -185.5t-177 -122t-241 -44.5q-11 0 -21 0.5t-20 1.5t-21 2.5t-23 4.5v-246q47 -3 92.5 -9.5t85.5 -15.5v-202h-668v202q40 9 86 15.5t92 9.5v1517q-37 7 -81.5 12.5t-89.5 8.5v200q56 7 114 11t118 6t123 2t128 -1v-399 q0 -22 -1 -47.5t-3 -53t-5 -55t-6 -52.5h2q18 33 45 60.5t63.5 47.5t82 31t100.5 11q90 0 159.5 -32.5t116 -94t70.5 -149.5t24 -199zM758 532q0 64 -8.5 111t-26.5 77.5t-44.5 45.5t-62.5 15q-26 0 -49.5 -10t-43 -28.5t-35.5 -44t-27.5 -58t-17 -70.5t-5.5 -80v-249 q24 -7 49.5 -10.5t57.5 -3.5q45 0 84 15.5t67.5 51.5t45 94t16.5 144z" />
<glyph unicode="&#xff;" horiz-adv-x="1165" d="M1147 812q-23 -7 -47.5 -10.5t-49.5 -5.5l-299 -899q-39 -116 -85 -194t-104.5 -124t-130 -65.5t-160.5 -19.5q-18 0 -39.5 1.5t-44 4t-44.5 5.5t-42 8l16 266q43 -13 78.5 -18.5t74.5 -5.5q25 0 50 7.5t47 25.5t41.5 48t34.5 75l29 89h-93l-264 796q-25 2 -50.5 5.5 t-46.5 10.5v206h506v-206q-21 -5 -41 -8t-42 -5l68 -195q23 -65 43 -134.5t38 -147.5h4q7 35 16 72t20 75.5t22 76.5t23 75l59 178q-22 2 -41.5 5t-40.5 8v206h495v-206v0zM958 1321q0 -33 -12.5 -62.5t-35.5 -52t-52.5 -35t-61.5 -12.5q-33 0 -62.5 12.5t-51.5 35t-34.5 52 t-12.5 62.5q0 32 12.5 62t34.5 52.5t51.5 35t62.5 12.5q32 0 61.5 -12.5t52.5 -35.5t35.5 -52.5t12.5 -61.5zM530 1321q0 -33 -12.5 -62.5t-35.5 -52t-52.5 -35t-61.5 -12.5q-33 0 -62.5 12.5t-51.5 35t-34.5 52t-12.5 62.5q0 32 12.5 62t34.5 52.5t51.5 35t62.5 12.5 q32 0 61.5 -12.5t52.5 -35.5t35.5 -52.5t12.5 -61.5z" />
<glyph unicode="&#x100;" horiz-adv-x="1436" d="M838 0v202q31 6 65 11.5t66 8.5l-46 142h-445l-46 -142q32 -3 68.5 -8.5t67.5 -11.5v-202h-550v203q24 7 50 12t50 7l386 1160h419l395 -1160q24 -2 49.5 -7t50.5 -12v-203h-580zM765 874q-17 58 -33.5 114.5t-30.5 115.5h-3q-13 -61 -27 -116.5t-33 -114.5l-87 -262h300 zM408 1509v191h622v-191h-622z" />
<glyph unicode="&#x101;" horiz-adv-x="1122" d="M1096 14q-50 -6 -101.5 -9.5t-110 -5.5t-117 -2.5t-113.5 1.5q0 38 1.5 77.5t7.5 77.5h-2q-18 -39 -49.5 -71.5t-72 -56t-89 -36t-101.5 -12.5q-72 0 -127.5 21t-93 58.5t-56.5 90t-19 114.5q0 97 44 166t121.5 114t182 67t225.5 24v48q0 32 -8 57.5t-26 42.5t-48.5 26 t-75.5 9q-32 0 -64.5 -6t-57.5 -14q-3 -25 -7.5 -55.5t-10.5 -58.5h-199v309q84 24 175 39t182 15q133 0 221 -24t140 -70.5t73 -114.5t21 -156v-441q37 -7 77 -12.5t78 -8.5v-203zM626 437q-67 0 -118.5 -7t-87 -22t-54 -40.5t-18.5 -62.5q0 -20 7 -37t20 -29.5t32 -20 t43 -7.5q39 0 71.5 16.5t55.5 44t36 62.5t13 72v31zM252 1204v226h575v-226h-575z" />
<glyph unicode="&#x102;" horiz-adv-x="1436" d="M838 0v202q31 6 65 11.5t66 8.5l-46 142h-445l-46 -142q32 -3 68.5 -8.5t67.5 -11.5v-202h-550v203q24 7 50 12t50 7l386 1160h419l395 -1160q24 -2 49.5 -7t50.5 -12v-203h-580zM765 874q-17 58 -33.5 114.5t-30.5 115.5h-3q-13 -61 -27 -116.5t-33 -114.5l-87 -262h300 zM1026 1767q0 -60 -19.5 -114t-59 -95t-97.5 -64.5t-133 -23.5q-74 0 -131.5 23.5t-96 65t-58 95t-19.5 113.5h180q0 -23 9 -43t26 -35t40.5 -23.5t51.5 -8.5q29 0 52.5 8.5t40 23.5t25.5 35t9 43h180z" />
<glyph unicode="&#x103;" horiz-adv-x="1122" d="M1096 14q-50 -6 -101.5 -9.5t-110 -5.5t-117 -2.5t-113.5 1.5q0 38 1.5 77.5t7.5 77.5h-2q-18 -39 -49.5 -71.5t-72 -56t-89 -36t-101.5 -12.5q-72 0 -127.5 21t-93 58.5t-56.5 90t-19 114.5q0 97 44 166t121.5 114t182 67t225.5 24v48q0 32 -8 57.5t-26 42.5t-48.5 26 t-75.5 9q-32 0 -64.5 -6t-57.5 -14q-3 -25 -7.5 -55.5t-10.5 -58.5h-199v309q84 24 175 39t182 15q133 0 221 -24t140 -70.5t73 -114.5t21 -156v-441q37 -7 77 -12.5t78 -8.5v-203zM626 437q-67 0 -118.5 -7t-87 -22t-54 -40.5t-18.5 -62.5q0 -20 7 -37t20 -29.5t32 -20 t43 -7.5q39 0 71.5 16.5t55.5 44t36 62.5t13 72v31zM837 1479q0 -69 -17.5 -130t-54 -108t-93 -73.5t-132.5 -26.5q-77 0 -133 27t-91 74.5t-51.5 108t-16.5 128.5h196q0 -27 6 -49t18.5 -37.5t31.5 -24t43 -8.5q44 0 70 30t26 89h198z" />
<glyph unicode="&#x104;" horiz-adv-x="1436" d="M1319 0q-56 -19 -96.5 -40.5t-66.5 -45t-38 -48t-12 -48.5q0 -27 19.5 -43.5t49.5 -16.5q65 0 114 60l115 -146q-62 -69 -143.5 -108t-186.5 -39q-66 0 -115.5 15.5t-82 42.5t-48.5 64t-16 79q0 32 9 66t28.5 69t49.5 70t72 69h-133v202q31 6 65 11.5t66 8.5l-46 142 h-445l-46 -142q32 -3 68.5 -8.5t67.5 -11.5v-202h-550v203q24 7 50 12t50 7l386 1160h419l395 -1160q24 -2 49.5 -7t50.5 -12v-203h-99zM765 874q-17 58 -33.5 114.5t-30.5 115.5h-3q-13 -61 -27 -116.5t-33 -114.5l-87 -262h300z" />
<glyph unicode="&#x105;" horiz-adv-x="1118" d="M1103 16q-15 -2 -32.5 -3.5t-39.5 -5.5q-42 -5 -84.5 -23.5t-77 -43.5t-56 -55.5t-21.5 -61.5q0 -27 18 -41.5t48 -14.5q15 0 31 5.5t30.5 14.5t28 21t23.5 26l115 -144q-32 -40 -71 -71t-83.5 -51.5t-92.5 -31.5t-97 -11q-50 0 -93 12.5t-74.5 37t-49.5 62.5t-18 89 q0 45 13.5 86.5t36.5 78.5t53.5 70t64.5 61q-8 30 -11.5 61t-4.5 62l-2 1q-21 -39 -52 -70t-71 -53t-87 -34t-98 -12q-73 0 -128 21t-93 58.5t-57 90t-19 114.5q0 97 44.5 166t121.5 114t181.5 67t225.5 24v48q0 32 -7.5 57.5t-26 42.5t-49 26t-75.5 9q-31 0 -63.5 -6 t-58.5 -14q-3 -25 -7 -55.5t-10 -58.5h-200v309q84 24 175.5 39t182.5 15q133 0 220.5 -24t139.5 -70.5t73 -114.5t21 -156v-294q0 -20 0.5 -39.5t1 -38t1.5 -36.5t2 -35q19 -3 39.5 -6.5t41 -5.5t40.5 -4.5t37 -3.5v-200zM625 437q-66 0 -118 -7t-87.5 -22t-54 -40.5 t-18.5 -62.5q0 -20 7 -37t20 -29.5t32 -20t43 -7.5q39 0 71.5 16.5t55.5 44t36 62.5t13 72v31z" />
<glyph unicode="&#x106;" horiz-adv-x="1184" d="M1133 43q-44 -15 -91.5 -26.5t-97.5 -20t-99.5 -12.5t-108.5 -4q-180 -1 -303.5 46.5t-204.5 134.5t-121.5 210.5t-40.5 276.5q0 169 45.5 306t135 236.5t220 154t302.5 54.5q82 0 166 -10t162 -26v-436h-247q-9 46 -13.5 85.5t-9.5 78.5q-25 6 -53 8.5t-53 2.5 q-73 0 -124 -26.5t-92.5 -79t-63.5 -128.5t-22 -173t19 -175t63 -133.5t114.5 -85t176.5 -28.5q63 0 98 3.5t70.5 12t69 16.5t61.5 21l42 -283v0zM551 1454l-47 168l458 154l66 -217z" />
<glyph unicode="&#x107;" horiz-adv-x="915" d="M868 24q-37 -10 -73.5 -19t-76 -15.5t-77.5 -9.5t-79 -3q-82 0 -149 14.5t-123 43t-99 70.5t-72 97.5t-43.5 124t-14.5 151.5q0 115 31 217.5t98 180t170.5 120.5t245.5 44q58 0 119 -8.5t117 -25.5v-361h-201q-6 32 -11 65t-8 60q-12 3 -24.5 4.5t-30.5 1.5 q-40 -1 -73.5 -18.5t-57.5 -50t-37.5 -81t-13.5 -111.5q0 -65 13.5 -114.5t40.5 -82.5t72 -51.5t114 -18.5q48 0 104 10t105 27l34 -261v0zM465 1128l-133 148l331 301l164 -180z" />
<glyph unicode="&#x10c;" horiz-adv-x="1184" d="M1133 43q-44 -15 -91.5 -26.5t-97.5 -20t-99.5 -12.5t-108.5 -4q-180 -1 -303.5 46.5t-204.5 134.5t-121.5 210.5t-40.5 276.5q0 169 45.5 306t135 236.5t220 154t302.5 54.5q82 0 166 -10t162 -26v-436h-247q-9 46 -13.5 85.5t-9.5 78.5q-25 6 -53 8.5t-53 2.5 q-73 0 -124 -26.5t-92.5 -79t-63.5 -128.5t-22 -173t19 -175t63 -133.5t114.5 -85t176.5 -28.5q63 0 98 3.5t70.5 12t69 16.5t61.5 21l42 -283v0zM684 1454l-344 170l69 158l279 -107l284 107l66 -154z" />
<glyph unicode="&#x10d;" horiz-adv-x="915" d="M868 24q-37 -10 -73.5 -19t-76 -15.5t-77.5 -9.5t-79 -3q-82 0 -149 14.5t-123 43t-99 70.5t-72 97.5t-43.5 124t-14.5 151.5q0 115 31 217.5t98 180t170.5 120.5t245.5 44q58 0 119 -8.5t117 -25.5v-361h-201q-6 32 -11 65t-8 60q-12 3 -24.5 4.5t-30.5 1.5 q-40 -1 -73.5 -18.5t-57.5 -50t-37.5 -81t-13.5 -111.5q0 -65 13.5 -114.5t40.5 -82.5t72 -51.5t114 -18.5q48 0 104 10t105 27l34 -261v0zM534 1133l-329 280l116 143l217 -161l220 161l112 -139z" />
<glyph unicode="&#x10e;" horiz-adv-x="1446" d="M1381 719q0 -177 -54.5 -313t-153.5 -228t-238.5 -139.5t-307.5 -47.5q-55 0 -117.5 1.5t-120 3t-103.5 3t-68 1.5h-178v202q40 9 85.5 15.5t92.5 9.5v928q-47 3 -92.5 10t-85.5 16v201h170q41 0 95 1.5t116 3t130 3t137 1.5q156 0 283.5 -36t218.5 -116t141 -208 t50 -312zM1038 694q0 98 -17.5 177t-60 134.5t-113.5 86t-179 30.5h-38t-35 -0.5t-31.5 -1.5t-27.5 -2v-845q10 -2 23 -3.5t28.5 -2.5t32.5 -1.5t35 -0.5q83 0 153 25.5t121 78t80 133.5t29 192zM652 1454l-344 170l69 158l279 -107l284 107l66 -154z" />
<glyph unicode="&#x10f;" horiz-adv-x="1473" d="M1184 16q-49 -7 -105 -11t-114 -6t-116 -2.5t-113 1.5v35t1 36.5t3 37.5t5 38h-4q-20 -37 -50 -68t-68.5 -53.5t-86 -35t-103.5 -12.5q-93 0 -162.5 33.5t-115.5 96t-69.5 150.5t-23.5 197q0 125 36.5 232.5t106.5 186t172 123t232 44.5q26 0 51.5 -1.5t49.5 -4.5v225 q-37 7 -85 12.5t-93 8.5v200q56 7 115 11t121 6t125.5 2t128.5 -1v-1260q37 -7 81.5 -12.5t80.5 -8.5v-200zM710 778q-26 7 -52.5 10t-54.5 3q-45 0 -83.5 -16t-67.5 -52t-45 -94t-16 -144q0 -63 8 -110.5t26 -78t44 -45.5t63 -15q26 0 49.5 9.5t43 28t35.5 45t27.5 59 t17 70t5.5 80.5v250zM1276 1116l-199 41l97 453l245 -49z" />
<glyph unicode="&#x110;" horiz-adv-x="1464" d="M1400 719q0 -177 -54 -313t-153 -228t-238 -139.5t-308 -47.5q-109 0 -209.5 4.5t-199.5 4.5h-178v202q40 9 86 15.5t92 9.5v351h-132v240h132v337q-46 3 -92 10t-86 16v201h170q43 0 97.5 1.5t116 3t129.5 3t137 1.5q104 0 196 -15.5t168.5 -49.5t137 -86.5 t102.5 -127.5t64 -172.5t22 -220.5zM1061 694q0 98 -17.5 177t-60 134.5t-113.5 86t-179 30.5h-38t-35 -0.5t-32 -1.5t-29 -2v-300h222v-240h-222v-305q11 -2 24 -3.5t28.5 -2.5t32.5 -1.5t35 -0.5q83 0 153 25.5t121.5 78t80.5 133.5t29 192z" />
<glyph unicode="&#x111;" horiz-adv-x="1204" d="M1022 1100v-863q34 -7 77.5 -12.5t84.5 -8.5v-200q-49 -7 -105 -11t-114 -6t-116 -2.5t-113 1.5v35t1 36.5t3 37.5t5 38h-4q-20 -37 -50 -68t-68.5 -53.5t-86 -35t-103.5 -12.5q-93 0 -162.5 33.5t-115.5 96t-69.5 150.5t-23.5 197q0 125 36.5 231t106.5 182.5t172 120 t232 43.5q26 0 51.5 -1.5t49.5 -4.5v76h-278v166h278v52q-37 6 -85 12t-93 9v153q56 6 115 10t121 6.5t125.5 2.5t128.5 -2v-243h163v-166h-163zM710 772q-26 7 -52.5 9.5t-54.5 2.5q-45 0 -83.5 -14.5t-67.5 -49t-45 -92t-16 -143.5q0 -63 8 -110.5t26 -78t44 -45.5t63 -15 q26 0 49.5 9.5t43 28t35.5 45t27.5 59t17 70t5.5 80.5v244z" />
<glyph unicode="&#x112;" horiz-adv-x="1106" d="M40 0v202q40 9 85.5 15.5t92.5 9.5v928q-47 3 -92.5 10t-85.5 16v201h974v-356h-242q-7 33 -11 57t-7 50h-217v-312h177q4 24 8.5 47.5t10.5 46.5h207v-415h-206q-7 22 -11.5 47.5t-8.5 48.5h-177v-340h218q5 34 8.5 55t10.5 56h246v-367h-980zM256 1509v191h622v-191 h-622z" />
<glyph unicode="&#x113;" horiz-adv-x="1063" d="M993 599q0 -18 -0.5 -39.5t-2 -44.5t-4 -45t-5.5 -41h-604q1 -51 15 -90t44 -66t77.5 -41t115.5 -14q73 0 148.5 15.5t149.5 46.5l31 -235q-88 -31 -187 -49.5t-193 -18.5q-124 0 -220.5 31t-162.5 95t-100.5 162.5t-34.5 232.5q0 115 34 214t98.5 172t157 114.5 t209.5 41.5q114 0 196 -33.5t135 -93t78 -140t25 -174.5zM687 635q1 44 -8.5 77t-28.5 55t-46 33.5t-61 11.5t-63 -12.5t-50.5 -36t-35 -56.5t-16.5 -72h309zM258 1204v226h575v-226h-575z" />
<glyph unicode="&#x116;" horiz-adv-x="1106" d="M40 0v202q40 9 85.5 15.5t92.5 9.5v928q-47 3 -92.5 10t-85.5 16v201h974v-356h-242q-7 33 -11 57t-7 50h-217v-312h177q4 24 8.5 47.5t10.5 46.5h207v-415h-206q-7 22 -11.5 47.5t-8.5 48.5h-177v-340h218q5 34 8.5 55t10.5 56h246v-367h-980zM749 1636q0 -37 -14 -70 t-39.5 -57.5t-58.5 -38.5t-70 -14t-70 14t-58 38.5t-38.5 57.5t-13.5 70t13.5 70.5t38.5 59t58 39.5t70 14t70 -14t58.5 -39.5t39.5 -59t14 -70.5z" />
<glyph unicode="&#x117;" horiz-adv-x="1063" d="M993 599q0 -18 -0.5 -39.5t-2 -44.5t-4 -45t-5.5 -41h-604q1 -51 15 -90t44 -66t77.5 -41t115.5 -14q73 0 148.5 15.5t149.5 46.5l31 -235q-88 -31 -187 -49.5t-193 -18.5q-124 0 -220.5 31t-162.5 95t-100.5 162.5t-34.5 232.5q0 115 34 214t98.5 172t157 114.5 t209.5 41.5q114 0 196 -33.5t135 -93t78 -140t25 -174.5zM687 635q1 44 -8.5 77t-28.5 55t-46 33.5t-61 11.5t-63 -12.5t-50.5 -36t-35 -56.5t-16.5 -72h309zM733 1333q0 -37 -14 -70t-39.5 -57.5t-58.5 -38.5t-70 -14t-70 14t-58 38.5t-38.5 57.5t-13.5 70t13.5 70 t38.5 58.5t58 39.5t70 14t70 -14t58.5 -39.5t39.5 -58.5t14 -70z" />
<glyph unicode="&#x118;" horiz-adv-x="1106" d="M1020 5q-54 -15 -93.5 -36.5t-65 -46t-38 -52t-12.5 -52.5q0 -27 19 -43.5t49 -16.5q65 0 114 60l115 -146q-62 -69 -143 -108t-186 -39q-67 0 -116.5 15.5t-82 42.5t-49 64t-16.5 79q0 33 10 68.5t29.5 70.5t49 69.5t67.5 65.5h-631v202q40 9 85.5 15.5t92.5 9.5v928 q-47 3 -92.5 10t-85.5 16v201h974v-356h-241q-7 30 -12 55t-8 51h-217v-311h178q4 24 8.5 48t10.5 47h208v-415h-208q-7 22 -11 46.5t-8 47.5h-178v-340h219q4 34 8 55t10 56h247v-361v0z" />
<glyph unicode="&#x119;" horiz-adv-x="1063" d="M958 45q-59 -17 -104.5 -43t-76 -57t-45.5 -63.5t-15 -63.5q0 -27 15.5 -43.5t45.5 -16.5t66.5 15t64.5 39l84 -170q-58 -55 -137.5 -86t-173.5 -31q-65 0 -114.5 15t-81.5 42t-48 63.5t-16 80.5q0 30 9 64t27 68.5t45.5 68.5t63.5 63q-11 -3 -21.5 -4.5t-23.5 -1.5 q-54 0 -107.5 10t-105 32.5t-96.5 61t-79 95.5t-53.5 136t-19.5 179q0 115 34 214t98.5 173t157.5 114.5t208 40.5q111 0 194 -33t136 -92.5t78.5 -139.5t25.5 -175q0 -29 -1.5 -59t-3.5 -54.5t-3 -38.5t-2 -20h-606q1 -51 15 -90t43 -66t74 -41t107 -14q76 0 154 13.5 t158 39.5zM686 633q1 45 -8 79t-28 56.5t-46 33.5t-61 11q-33 0 -62 -12.5t-51 -36t-35.5 -57t-17.5 -74.5h309z" />
<glyph unicode="&#x11a;" horiz-adv-x="1106" d="M40 0v202q40 9 85.5 15.5t92.5 9.5v928q-47 3 -92.5 10t-85.5 16v201h974v-356h-242q-7 33 -11 57t-7 50h-217v-312h177q4 24 8.5 47.5t10.5 46.5h207v-415h-206q-7 22 -11.5 47.5t-8.5 48.5h-177v-340h218q5 34 8.5 55t10.5 56h246v-367h-980zM559 1454l-344 170l69 158 l279 -107l284 107l66 -154z" />
<glyph unicode="&#x11b;" horiz-adv-x="1063" d="M993 599q0 -18 -0.5 -39.5t-2 -44.5t-4 -45t-5.5 -41h-604q1 -51 15 -90t44 -66t77.5 -41t115.5 -14q73 0 148.5 15.5t149.5 46.5l31 -235q-88 -31 -187 -49.5t-193 -18.5q-124 0 -220.5 31t-162.5 95t-100.5 162.5t-34.5 232.5q0 115 34 214t98.5 172t157 114.5 t209.5 41.5q114 0 196 -33.5t135 -93t78 -140t25 -174.5zM687 635q1 44 -8.5 77t-28.5 55t-46 33.5t-61 11.5t-63 -12.5t-50.5 -36t-35 -56.5t-16.5 -72h309zM546 1133l-329 280l116 143l217 -161l220 161l112 -139z" />
<glyph unicode="&#x11e;" horiz-adv-x="1395" d="M1355 531q-25 -6 -50.5 -10t-50.5 -8v-444q-51 -22 -109 -39t-120 -29t-128 -18t-131 -6q-169 0 -299.5 47.5t-219.5 135.5t-135.5 214t-46.5 282q0 169 54.5 306.5t155 235.5t245 152t325.5 54q99 0 196.5 -13.5t197.5 -37.5v-402h-252q-8 42 -13 79t-9 76 q-32 8 -66.5 11.5t-68.5 3.5q-98 0 -176 -29.5t-132 -86t-83 -138t-29 -185.5q0 -97 25 -173.5t74.5 -130.5t123 -82.5t171.5 -28.5q37 0 69.5 4.5t61.5 13.5v225q-47 3 -92 10t-81 16v201h593v-206v0zM1114 1767q0 -60 -19.5 -114t-59 -95t-97.5 -64.5t-133 -23.5 q-74 0 -131.5 23.5t-96 65t-58 95t-19.5 113.5h180q0 -23 9 -43t26 -35t40.5 -23.5t51.5 -8.5q29 0 52.5 8.5t40 23.5t25.5 35t9 43h180z" />
<glyph unicode="&#x11f;" horiz-adv-x="1112" d="M1068 -90q0 -83 -40 -159t-114 -134t-176.5 -92t-234.5 -34q-104 0 -186 19t-142 57t-90 95t-30 133q0 36 12 72t32.5 67.5t50 57t59.5 40.5q-46 22 -72 63t-26 95q0 31 9.5 60.5t26 54.5t39.5 44t49 30q-69 37 -110.5 106t-41.5 169q0 77 28.5 147.5t86 124t144 85 t198.5 31.5q54 0 92 -6.5t82 -17.5h346v-245h-119q15 -16 22 -39.5t7 -50.5q0 -83 -27.5 -150.5t-82 -115t-134.5 -73.5t-190 -26q-16 0 -27.5 1t-28.5 3q-19 -9 -29 -23t-10 -27q0 -16 6.5 -26t23.5 -15.5t45.5 -8.5t72.5 -4l131 -5q82 -3 147 -22t109.5 -56t68 -92.5 t23.5 -132.5zM676 670q0 67 -35.5 107t-111.5 40q-33 0 -61 -11t-47.5 -30t-30 -45t-10.5 -58q0 -67 39 -106.5t112 -39.5q36 0 64 10t47 28.5t26.5 45t7.5 59.5zM762 -131q0 21 -7 40t-22.5 33t-37 23t-56.5 10l-162 5h-20.5t-18.5 1q-33 -27 -51.5 -59.5t-18.5 -66.5 q0 -29 12 -52t35 -39.5t57 -26t77 -9.5q54 0 92 11t65.5 30t41.5 45t14 55zM845 1479q0 -69 -17.5 -130t-54 -108t-93 -73.5t-132.5 -26.5q-77 0 -133 27t-91 74.5t-51.5 108t-16.5 128.5h196q0 -27 6 -49t18.5 -37.5t31.5 -24t43 -8.5q44 0 70 30t26 89h198z" />
<glyph unicode="&#x122;" horiz-adv-x="1395" d="M1355 531q-25 -6 -50.5 -10t-50.5 -8v-444q-51 -22 -109 -39t-120 -29t-128 -18t-131 -6q-169 0 -299.5 47.5t-219.5 135.5t-135.5 214t-46.5 282q0 169 54.5 306.5t155 235.5t245 152t325.5 54q99 0 196.5 -13.5t197.5 -37.5v-402h-252q-8 42 -13 79t-9 76 q-32 8 -66.5 11.5t-68.5 3.5q-98 0 -176 -29.5t-132 -86t-83 -138t-29 -185.5q0 -97 25 -173.5t74.5 -130.5t123 -82.5t171.5 -28.5q37 0 69.5 4.5t61.5 13.5v225q-47 3 -92 10t-81 16v201h593v-206v0zM802 -93q46 0 79.5 -26t47 -67t5.5 -89t-44.5 -93.5t-104.5 -81 t-174 -49.5l-40 113q39 15 62.5 29.5t33.5 29.5t11 32t-5 37q-9 31 -4.5 60.5t21.5 52.5t45 37.5t67 14.5z" />
<glyph unicode="&#x123;" horiz-adv-x="1112" d="M1068 -90q0 -83 -40 -159t-114 -134t-176.5 -92t-234.5 -34q-104 0 -186 19t-142 57t-90 95t-30 133q0 36 12 72t32.5 67.5t50 57t59.5 40.5q-46 22 -72 63t-26 95q0 31 9.5 60.5t26 54.5t39.5 44t49 30q-69 37 -110.5 106t-41.5 169q0 77 28.5 147.5t86 124t144 85 t198.5 31.5q54 0 92 -6.5t82 -17.5h346v-245h-119q15 -16 22 -39.5t7 -50.5q0 -83 -27.5 -150.5t-82 -115t-134.5 -73.5t-190 -26q-16 0 -27.5 1t-28.5 3q-19 -9 -29 -23t-10 -27q0 -16 6.5 -26t23.5 -15.5t45.5 -8.5t72.5 -4l131 -5q82 -3 147 -22t109.5 -56t68 -92.5 t23.5 -132.5zM676 670q0 67 -35.5 107t-111.5 40q-33 0 -61 -11t-47.5 -30t-30 -45t-10.5 -58q0 -67 39 -106.5t112 -39.5q36 0 64 10t47 28.5t26.5 45t7.5 59.5zM762 -131q0 21 -7 40t-22.5 33t-37 23t-56.5 10l-162 5h-20.5t-18.5 1q-33 -27 -51.5 -59.5t-18.5 -66.5 q0 -29 12 -52t35 -39.5t57 -26t77 -9.5q54 0 92 11t65.5 30t41.5 45t14 55zM509 1144q-46 0 -79 26t-47 66.5t-6 89t45 93.5t105.5 80t172.5 49l41 -112q-41 -15 -64 -29.5t-33.5 -29.5t-10.5 -32t6 -36q8 -31 3.5 -60.5t-21.5 -53t-45.5 -37.5t-66.5 -14z" />
<glyph unicode="&#x12a;" horiz-adv-x="754" d="M39 0v203q45 8 90.5 14.5t87.5 9.5v928q-43 3 -89 9.5t-89 15.5v202h676v-202q-43 -9 -89 -15.5t-89 -9.5v-928q42 -3 87.5 -9.5t90.5 -14.5v-203h-676zM67 1509v191h622v-191h-622z" />
<glyph unicode="&#x12b;" horiz-adv-x="719" d="M47 0v202q40 9 78.5 15.5t84.5 9.5v554q-37 6 -77.5 12t-85.5 9v200q56 6 107.5 10.5t113 6.5t125.5 2t129 -1v-793q43 -3 81.5 -9.5t74.5 -15.5v-202h-631zM30 1204v226h575v-226h-575z" />
<glyph unicode="&#x12e;" horiz-adv-x="754" d="M528 0q-52 -23 -86.5 -46.5t-55.5 -46t-30 -44t-9 -41.5q0 -29 19 -44t46 -15q16 0 31.5 4.5t30.5 13t28.5 20.5t22.5 26l115 -142q-32 -40 -71 -70.5t-82.5 -50t-91.5 -29.5t-97 -10q-50 0 -93 12.5t-74.5 37t-49.5 62.5t-18 89q0 41 12 79t31 73t44.5 66t54.5 56h-165 v202q40 9 85.5 15.5t92.5 9.5v928q-47 3 -92.5 10t-85.5 16v201h674v-201q-40 -9 -86 -16t-92 -10v-928q46 -3 92 -9.5t86 -15.5v-202h-186z" />
<glyph unicode="&#x12f;" horiz-adv-x="719" d="M572 1320q0 -38 -15 -71.5t-41 -58.5t-60.5 -39.5t-73.5 -14.5q-40 0 -75 14.5t-61 39.5t-40.5 58.5t-14.5 71.5q0 39 14.5 72.5t40.5 58.5t61 39.5t75 14.5q39 0 73.5 -14.5t60.5 -39.5t41 -58.5t15 -72.5zM524 0q-89 -34 -134 -84.5t-45 -104.5q0 -26 18.5 -39.5 t45.5 -13.5q32 0 62 14.5t55 45.5l115 -146q-30 -34 -66 -61.5t-77 -46.5t-88.5 -29t-103.5 -10q-71 0 -119 17.5t-77.5 46.5t-43 67t-13.5 78q0 35 10.5 70.5t30.5 70.5t49 66.5t66 58.5h-162v202q40 9 86 15.5t92 9.5v554q-37 6 -85 12t-93 9v200q56 6 115 10.5t120.5 6.5 t125.5 2t129 -1v-793q43 -3 85 -9.5t78 -15.5v-202h-176z" />
<glyph unicode="&#x130;" horiz-adv-x="754" d="M39 0v203q45 8 90.5 14.5t87.5 9.5v928q-43 3 -89 9.5t-89 15.5v202h676v-202q-43 -9 -89 -15.5t-89 -9.5v-928q42 -3 87.5 -9.5t90.5 -14.5v-203h-676zM559 1636q0 -37 -14 -70t-39.5 -57.5t-58.5 -38.5t-70 -14t-70 14t-58 38.5t-38.5 57.5t-13.5 70t13.5 70.5t38.5 59 t58 39.5t70 14t70 -14t58.5 -39.5t39.5 -59t14 -70.5z" />
<glyph unicode="&#x131;" horiz-adv-x="707" d="M47 0v202q40 9 78.5 15.5t84.5 9.5v554q-37 6 -77.5 12t-85.5 9v200q56 6 107.5 10.5t113 6.5t125.5 2t129 -1v-793q43 -3 81.5 -9.5t74.5 -15.5v-202h-631z" />
<glyph unicode="&#x136;" horiz-adv-x="1464" d="M809 0v207q18 4 40 7t46 7l-358 455v-449q34 -3 64.5 -8t57.5 -12v-207h-620v203q45 8 90.5 14.5t87.5 9.5v928q-43 3 -89 9.5t-89 15.5v202h620v-206q-26 -8 -56.5 -13t-65.5 -8v-416l356 422q-20 2 -44 6t-42 9v206h592v-204q-25 -6 -54 -10.5t-63 -8.5l-389 -438 l420 -498q33 -4 62.5 -8.5t54.5 -9.5v-205h-621zM733 -93q46 0 79.5 -26t47 -67t5.5 -89t-44.5 -93.5t-104.5 -81t-174 -49.5l-40 113q39 15 62.5 29.5t33.5 29.5t11 32t-5 37q-9 31 -4.5 60.5t21.5 52.5t45 37.5t67 14.5z" />
<glyph unicode="&#x137;" horiz-adv-x="1272" d="M860 0l-358 506v-279q36 -3 64 -8t48 -12v-207h-583v203q37 8 78.5 14.5t80.5 9.5v1030q-37 7 -82.5 12.5t-87.5 8.5v201q55 6 113 10.5t119 7t124 2.5t126 -2v-956l217 258q-25 1 -52 6.5t-46 11.5v201h585v-207q-33 -7 -66.5 -12t-62.5 -6l-227 -242l244 -324 q37 -4 71.5 -8.5t65.5 -11.5v-207h-371zM684 -93q46 0 79.5 -26t47 -67t5.5 -89t-44.5 -93.5t-104.5 -81t-174 -49.5l-40 113q39 15 62.5 29.5t33.5 29.5t11 32t-5 37q-9 31 -4.5 60.5t21.5 52.5t45 37.5t67 14.5z" />
<glyph unicode="&#x139;" horiz-adv-x="1065" d="M39 0v203q45 8 90.5 14.5t87.5 9.5v928q-43 3 -89 9.5t-89 15.5v202h676v-202q-43 -9 -89 -15.5t-89 -9.5v-891h227q3 42 12.5 92t24.5 95h233v-451h-995zM344 1454l-47 168l458 154l66 -217z" />
<glyph unicode="&#x13a;" horiz-adv-x="674" d="M31 0v203q38 8 78.5 14.5t80.5 9.5v1030q-37 7 -82.5 12.5t-87.5 8.5v201q57 6 115 10.5t118.5 7t123 2.5t125.5 -2v-1270q40 -3 76.5 -9t80.5 -15v-203h-628zM201 1577l-47 168l458 154l66 -217z" />
<glyph unicode="&#x13b;" horiz-adv-x="1065" d="M39 0v203q45 8 90.5 14.5t87.5 9.5v928q-43 3 -89 9.5t-89 15.5v202h676v-202q-43 -9 -89 -15.5t-89 -9.5v-891h227q3 42 12.5 92t24.5 95h233v-451h-995zM534 -93q46 0 79.5 -26t47 -67t5.5 -89t-44.5 -93.5t-104.5 -81t-174 -49.5l-40 113q39 15 62.5 29.5t33.5 29.5 t11 32t-5 37q-9 31 -4.5 60.5t21.5 52.5t45 37.5t67 14.5z" />
<glyph unicode="&#x13c;" horiz-adv-x="674" d="M31 0v203q38 8 78.5 14.5t80.5 9.5v1030q-37 7 -82.5 12.5t-87.5 8.5v201q57 6 115 10.5t118.5 7t123 2.5t125.5 -2v-1270q40 -3 76.5 -9t80.5 -15v-203h-628zM358 -93q46 0 79.5 -26t47 -67t5.5 -89t-44.5 -93.5t-104.5 -81t-174 -49.5l-40 113q39 15 62.5 29.5 t33.5 29.5t11 32t-5 37q-9 31 -4.5 60.5t21.5 52.5t45 37.5t67 14.5z" />
<glyph unicode="&#x13d;" horiz-adv-x="1085" d="M39 0v203q45 8 90.5 14.5t87.5 9.5v928q-43 3 -89 9.5t-89 15.5v202h676v-202q-43 -9 -89 -15.5t-89 -9.5v-891h227q3 42 12.5 92t24.5 95h233v-451h-995zM971 1116l-199 41l97 453l245 -49z" />
<glyph unicode="&#x13e;" horiz-adv-x="954" d="M31 0v203q38 8 78.5 14.5t80.5 9.5v1030q-37 7 -82.5 12.5t-87.5 8.5v201q57 6 115 10.5t118.5 7t123 2.5t125.5 -2v-1270q40 -3 76.5 -9t80.5 -15v-203h-628zM756 1116l-199 41l97 453l245 -49z" />
<glyph unicode="&#x141;" horiz-adv-x="1069" d="M44 0v202q40 9 85.5 15.5t92.5 9.5v326l-119 -37l-40 238l159 47v354q-47 3 -92.5 10t-85.5 16v201h675v-201q-40 -9 -86 -16t-92 -10v-270l188 55l39 -240l-227 -64v-373h228q3 39 12 89t24 99h234v-451h-995z" />
<glyph unicode="&#x142;" horiz-adv-x="715" d="M41 0v202q34 9 75 15.5t85 9.5v454l-148 -44l-17 241l165 48v332q-37 7 -81 12.5t-89 8.5v200q56 7 114 11t118 6t122.5 2t127.5 -1v-490l152 44l16 -241l-168 -48v-535q44 -3 85 -9.5t76 -15.5v-202h-633z" />
<glyph unicode="&#x143;" horiz-adv-x="1585" d="M1546 1176q-28 -7 -58.5 -12.5t-62.5 -8.5v-1155h-430l-336 645q-21 40 -42 83.5t-39.5 84.5t-38.5 86t-37 88q6 -72 10.5 -150t7 -168.5t3.5 -198t1 -243.5q34 -3 69.5 -8t68.5 -12v-207h-623v203q41 8 86.5 14.5t91.5 9.5v928q-47 3 -92.5 9.5t-85.5 15.5v202h610 l334 -643q22 -43 43.5 -87t41.5 -87.5t39 -87t34 -82.5q-6 79 -11.5 172.5t-7.5 166.5t-3 183.5t-1 237.5q-33 3 -65 8t-61 13v206h554v-206v0zM637 1454l-47 168l458 154l66 -217z" />
<glyph unicode="&#x144;" horiz-adv-x="1325" d="M817 0v645q0 33 -4.5 57t-15.5 41t-29 26t-45 9q-39 0 -75.5 -22.5t-65 -62.5t-44.5 -92.5t-16 -111.5v-262q43 -4 77.5 -10t49.5 -10v-207h-602v203q20 5 65.5 12.5t96.5 11.5v553q-41 7 -84.5 12.5t-77.5 8.5v200q56 6 113 11t114 7.5t114.5 2.5t113.5 -2 q0 -17 -0.5 -37.5t-2 -43t-4 -44.5t-6.5 -39h3q24 41 57 74.5t74.5 58t91.5 38t108 13.5q84 0 143.5 -25t95.5 -70t52 -105t16 -133v-480q54 -5 96.5 -12.5t59.5 -11.5v-203h-469zM676 1128l-133 148l331 301l164 -180z" />
<glyph unicode="&#x145;" horiz-adv-x="1585" d="M1546 1176q-28 -7 -58.5 -12.5t-62.5 -8.5v-1155h-430l-336 645q-21 40 -42 83.5t-39.5 84.5t-38.5 86t-37 88q6 -72 10.5 -150t7 -168.5t3.5 -198t1 -243.5q34 -3 69.5 -8t68.5 -12v-207h-623v203q41 8 86.5 14.5t91.5 9.5v928q-47 3 -92.5 9.5t-85.5 15.5v202h610 l334 -643q22 -43 43.5 -87t41.5 -87.5t39 -87t34 -82.5q-6 79 -11.5 172.5t-7.5 166.5t-3 183.5t-1 237.5q-33 3 -65 8t-61 13v206h554v-206v0zM790 -93q46 0 79.5 -26t47 -67t5.5 -89t-44.5 -93.5t-104.5 -81t-174 -49.5l-40 113q39 15 62.5 29.5t33.5 29.5t11 32t-5 37 q-9 31 -4.5 60.5t21.5 52.5t45 37.5t67 14.5z" />
<glyph unicode="&#x146;" horiz-adv-x="1325" d="M817 0v645q0 33 -4.5 57t-15.5 41t-29 26t-45 9q-39 0 -75.5 -22.5t-65 -62.5t-44.5 -92.5t-16 -111.5v-262q43 -4 77.5 -10t49.5 -10v-207h-602v203q20 5 65.5 12.5t96.5 11.5v553q-41 7 -84.5 12.5t-77.5 8.5v200q56 6 113 11t114 7.5t114.5 2.5t113.5 -2 q0 -17 -0.5 -37.5t-2 -43t-4 -44.5t-6.5 -39h3q24 41 57 74.5t74.5 58t91.5 38t108 13.5q84 0 143.5 -25t95.5 -70t52 -105t16 -133v-480q54 -5 96.5 -12.5t59.5 -11.5v-203h-469zM686 -93q46 0 79.5 -26t47 -67t5.5 -89t-44.5 -93.5t-104.5 -81t-174 -49.5l-40 113 q39 15 62.5 29.5t33.5 29.5t11 32t-5 37q-9 31 -4.5 60.5t21.5 52.5t45 37.5t67 14.5z" />
<glyph unicode="&#x147;" horiz-adv-x="1585" d="M1546 1176q-28 -7 -58.5 -12.5t-62.5 -8.5v-1155h-430l-336 645q-21 40 -42 83.5t-39.5 84.5t-38.5 86t-37 88q6 -72 10.5 -150t7 -168.5t3.5 -198t1 -243.5q34 -3 69.5 -8t68.5 -12v-207h-623v203q41 8 86.5 14.5t91.5 9.5v928q-47 3 -92.5 9.5t-85.5 15.5v202h610 l334 -643q22 -43 43.5 -87t41.5 -87.5t39 -87t34 -82.5q-6 79 -11.5 172.5t-7.5 166.5t-3 183.5t-1 237.5q-33 3 -65 8t-61 13v206h554v-206v0zM779 1454l-344 170l69 158l279 -107l284 107l66 -154z" />
<glyph unicode="&#x148;" horiz-adv-x="1325" d="M817 0v645q0 33 -4.5 57t-15.5 41t-29 26t-45 9q-39 0 -75.5 -22.5t-65 -62.5t-44.5 -92.5t-16 -111.5v-262q43 -4 77.5 -10t49.5 -10v-207h-602v203q20 5 65.5 12.5t96.5 11.5v553q-41 7 -84.5 12.5t-77.5 8.5v200q56 6 113 11t114 7.5t114.5 2.5t113.5 -2 q0 -17 -0.5 -37.5t-2 -43t-4 -44.5t-6.5 -39h3q24 41 57 74.5t74.5 58t91.5 38t108 13.5q84 0 143.5 -25t95.5 -70t52 -105t16 -133v-480q54 -5 96.5 -12.5t59.5 -11.5v-203h-469zM653 1133l-329 280l116 143l217 -161l220 161l112 -139z" />
<glyph unicode="&#x14c;" horiz-adv-x="1438" d="M1379 716q0 -172 -53.5 -309.5t-146.5 -233.5t-218.5 -147.5t-266.5 -51.5q-160 0 -279.5 48t-199 138t-119 218.5t-39.5 288.5q0 171 54 308.5t147.5 233.5t218 148t266.5 52q159 0 279.5 -48.5t199.5 -138.5t118 -218.5t39 -287.5zM1041 682q0 101 -19 182t-58.5 138 t-100 86.5t-142.5 29.5q-71 0 -131.5 -27t-103.5 -80t-67 -130.5t-24 -179.5q0 -101 20 -182t59.5 -137.5t100 -87t142.5 -30.5q72 0 132 27.5t102.5 80.5t66 131t23.5 179zM408 1509v191h622v-191h-622z" />
<glyph unicode="&#x14d;" horiz-adv-x="1143" d="M1085 537q0 -120 -35.5 -222.5t-104.5 -178.5t-169 -117.5t-225 -41.5q-114 0 -204.5 30t-155 92.5t-98.5 158t-34 223.5q0 120 36 222.5t105 178t169 117t225 41.5q113 0 203.5 -30t154.5 -92t98.5 -157.5t34.5 -223.5zM762 508q0 65 -12.5 114.5t-36.5 83.5t-59.5 51 t-80.5 17q-44 0 -79 -17t-60 -50t-38 -83t-13 -114q0 -65 12.5 -114.5t36.5 -82.5t58.5 -50t78.5 -17t79 16t61 48.5t39.5 82t13.5 115.5zM295 1204v226h575v-226h-575z" />
<glyph unicode="&#x150;" horiz-adv-x="1438" d="M1379 716q0 -172 -53.5 -309.5t-146.5 -233.5t-218.5 -147.5t-266.5 -51.5q-160 0 -279.5 48t-199 138t-119 218.5t-39.5 288.5q0 171 54 308.5t147.5 233.5t218 148t266.5 52q159 0 279.5 -48.5t199.5 -138.5t118 -218.5t39 -287.5zM1041 682q0 101 -19 182t-58.5 138 t-100 86.5t-142.5 29.5q-71 0 -131.5 -27t-103.5 -80t-67 -130.5t-24 -179.5q0 -101 20 -182t59.5 -137.5t100 -87t142.5 -30.5q72 0 132 27.5t102.5 80.5t66 131t23.5 179zM961 1446l-134 125l316 311l160 -160zM549 1446l-141 123l276 332l172 -150z" />
<glyph unicode="&#x151;" horiz-adv-x="1143" d="M1085 537q0 -120 -35.5 -222.5t-104.5 -178.5t-169 -117.5t-225 -41.5q-114 0 -204.5 30t-155 92.5t-98.5 158t-34 223.5q0 120 36 222.5t105 178t169 117t225 41.5q113 0 203.5 -30t154.5 -92t98.5 -157.5t34.5 -223.5zM762 508q0 65 -12.5 114.5t-36.5 83.5t-59.5 51 t-80.5 17q-44 0 -79 -17t-60 -50t-38 -83t-13 -114q0 -65 12.5 -114.5t36.5 -82.5t58.5 -50t78.5 -17t79 16t61 48.5t39.5 82t13.5 115.5zM820 1133l-134 122l312 316l162 -158zM408 1133l-141 120l278 338l174 -147z" />
<glyph unicode="&#x152;" horiz-adv-x="1774" d="M915 0q-51 -11 -107.5 -18.5t-113.5 -7.5q-160 0 -279.5 48t-199 138t-119 218.5t-39.5 288.5q0 171 54 308.5t147.5 233.5t218.5 147.5t267 51.5q105 0 208 -26h726v-369h-242q-6 33 -10.5 63t-7.5 56h-218v-311h179l8 48t11 47h207v-415h-207q-7 22 -11.5 46.5 t-7.5 47.5h-179v-340h222q3 34 7.5 64.5t11.5 65.5h245v-385h-771zM883 1092q-36 13 -76.5 20t-88.5 7q-71 0 -130 -27.5t-102 -80.5t-67 -130.5t-24 -179.5q0 -101 20 -182t59.5 -137.5t100 -86.5t142.5 -30q38 0 82 9.5t84 25.5v792z" />
<glyph unicode="&#x153;" horiz-adv-x="1745" d="M1675 599q0 -18 -1 -39.5t-2 -44.5t-2.5 -45t-4.5 -41h-606q0 -51 14.5 -90t44.5 -66t77.5 -41t115.5 -14q73 0 148.5 16t148.5 47l31 -234q-88 -33 -186.5 -51.5t-193.5 -18.5q-65 0 -119 9t-99.5 27t-82.5 44t-67 59q-28 -31 -66 -56.5t-82 -44t-93 -28.5t-101 -10 q-111 0 -201 28t-154.5 89t-99.5 157.5t-35 232.5q0 124 39.5 226.5t111 176t170.5 113.5t216 40q45 0 90.5 -7.5t88 -22.5t80 -38.5t66.5 -56.5q25 27 58.5 50t73.5 39.5t87.5 26t100.5 9.5q114 0 196.5 -33.5t135 -93t77.5 -140t25 -174.5zM1369 635q1 44 -8 77t-28 55 t-46.5 33.5t-61.5 11.5t-63 -12.5t-50.5 -36t-35.5 -56.5t-17 -72h310zM761 512q0 64 -11 113.5t-33.5 82.5t-57.5 50t-83 17q-37 0 -72 -15t-62 -46.5t-43.5 -80t-16.5 -116.5q0 -69 11 -120t34.5 -84t58.5 -49.5t83 -16.5q43 0 78.5 17.5t60.5 51.5t39 83t14 113z" />
<glyph unicode="&#x154;" horiz-adv-x="1313" d="M901 0l-282 545h-83v-318q25 -3 52.5 -8t56.5 -13v-206h-605v202q40 9 85.5 15.5t92.5 9.5v928q-47 3 -92.5 10t-85.5 16v201h162q12 0 40.5 1t66 2t83 2t93 2l95 2t89.5 1q124 0 222.5 -22.5t166.5 -72t104 -127.5t36 -189q0 -64 -18 -119.5t-52 -101t-84 -81 t-114 -56.5q16 -21 30 -42.5t27 -42.5l174 -312q25 -3 54.5 -8t59.5 -10v-208h-374zM863 964q0 42 -12.5 75t-39 56t-68 35t-99.5 12q-11 0 -26.5 -0.5t-31.5 -1t-29.5 -1.5t-20.5 -2v-359h108q51 0 91.5 12.5t68.5 36.5t43.5 58.5t15.5 78.5zM447 1454l-47 168l458 154 l66 -217z" />
<glyph unicode="&#x155;" horiz-adv-x="864" d="M821 734q-70 15 -126.5 4.5t-98.5 -55t-58 -124t-16 -138.5v-194q46 -3 85 -9.5t79 -15.5v-202h-639v202q40 9 77.5 15.5t83.5 9.5v554q-37 6 -76.5 11t-84.5 10v200q56 6 106 10.5t110 6.5t119.5 2t118.5 -1q0 -35 -4.5 -89.5t-11.5 -103.5h2q20 50 44.5 92.5t65.5 76.5 t99 43t133 -1zM453 1128l-133 148l331 301l164 -180z" />
<glyph unicode="&#x156;" horiz-adv-x="1313" d="M901 0l-282 545h-83v-318q25 -3 52.5 -8t56.5 -13v-206h-605v202q40 9 85.5 15.5t92.5 9.5v928q-47 3 -92.5 10t-85.5 16v201h162q12 0 40.5 1t66 2t83 2t93 2l95 2t89.5 1q124 0 222.5 -22.5t166.5 -72t104 -127.5t36 -189q0 -64 -18 -119.5t-52 -101t-84 -81 t-114 -56.5q16 -21 30 -42.5t27 -42.5l174 -312q25 -3 54.5 -8t59.5 -10v-208h-374zM863 964q0 42 -12.5 75t-39 56t-68 35t-99.5 12q-11 0 -26.5 -0.5t-31.5 -1t-29.5 -1.5t-20.5 -2v-359h108q51 0 91.5 12.5t68.5 36.5t43.5 58.5t15.5 78.5zM669 -93q46 0 79.5 -26t47 -67 t5.5 -89t-44.5 -93.5t-104.5 -81t-174 -49.5l-40 113q39 15 62.5 29.5t33.5 29.5t11 32t-5 37q-9 31 -4.5 60.5t21.5 52.5t45 37.5t67 14.5z" />
<glyph unicode="&#x157;" horiz-adv-x="864" d="M821 734q-70 15 -126.5 4.5t-98.5 -55t-58 -124t-16 -138.5v-194q46 -3 85 -9.5t79 -15.5v-202h-639v202q40 9 77.5 15.5t83.5 9.5v554q-37 6 -76.5 11t-84.5 10v200q56 6 106 10.5t110 6.5t119.5 2t118.5 -1q0 -35 -4.5 -89.5t-11.5 -103.5h2q20 50 44.5 92.5t65.5 76.5 t99 43t133 -1zM393 -93q46 0 79.5 -26t47 -67t5.5 -89t-44.5 -93.5t-104.5 -81t-174 -49.5l-40 113q39 15 62.5 29.5t33.5 29.5t11 32t-5 37q-9 31 -4.5 60.5t21.5 52.5t45 37.5t67 14.5z" />
<glyph unicode="&#x158;" horiz-adv-x="1313" d="M901 0l-282 545h-83v-318q25 -3 52.5 -8t56.5 -13v-206h-605v202q40 9 85.5 15.5t92.5 9.5v928q-47 3 -92.5 10t-85.5 16v201h162q12 0 40.5 1t66 2t83 2t93 2l95 2t89.5 1q124 0 222.5 -22.5t166.5 -72t104 -127.5t36 -189q0 -64 -18 -119.5t-52 -101t-84 -81 t-114 -56.5q16 -21 30 -42.5t27 -42.5l174 -312q25 -3 54.5 -8t59.5 -10v-208h-374zM863 964q0 42 -12.5 75t-39 56t-68 35t-99.5 12q-11 0 -26.5 -0.5t-31.5 -1t-29.5 -1.5t-20.5 -2v-359h108q51 0 91.5 12.5t68.5 36.5t43.5 58.5t15.5 78.5zM631 1454l-344 170l69 158 l279 -107l284 107l66 -154z" />
<glyph unicode="&#x159;" horiz-adv-x="864" d="M821 734q-70 15 -126.5 4.5t-98.5 -55t-58 -124t-16 -138.5v-194q46 -3 85 -9.5t79 -15.5v-202h-639v202q40 9 77.5 15.5t83.5 9.5v554q-37 6 -76.5 11t-84.5 10v200q56 6 106 10.5t110 6.5t119.5 2t118.5 -1q0 -35 -4.5 -89.5t-11.5 -103.5h2q20 50 44.5 92.5t65.5 76.5 t99 43t133 -1zM485 1133l-329 280l116 143l217 -161l220 161l112 -139z" />
<glyph unicode="&#x15a;" horiz-adv-x="1067" d="M686 997q-6 33 -11 76t-7 74q-22 4 -48.5 6t-46.5 2q-80 0 -125 -35t-45 -94q0 -43 26.5 -73t69 -54.5t97.5 -46t112.5 -46.5t112.5 -57.5t97.5 -78.5t69 -109.5t26.5 -150.5q0 -98 -36.5 -178t-106.5 -138t-170.5 -89.5t-227.5 -31.5q-73 0 -142 5.5t-127.5 14 t-115.5 19.5v396h250q5 -29 10.5 -73t7.5 -83q20 -4 42 -7.5t48.5 -6t55.5 -2.5q83 0 126.5 37t43.5 102q0 43 -26 73.5t-68.5 55t-97 46t-111.5 46.5t-111.5 57.5t-97 78.5t-68.5 109t-26 150q0 94 36 171.5t104.5 132t168 84.5t227.5 30q63 0 121.5 -5.5t108.5 -12 t98 -15.5v-379h-244zM410 1454l-47 168l458 154l66 -217z" />
<glyph unicode="&#x15b;" horiz-adv-x="911" d="M600 711q-3 13 -8.5 43.5t-9.5 66.5q-4 1 -15 2.5t-30 3.5t-41 2q-60 0 -92.5 -20t-32.5 -57q0 -28 20 -49t52 -36t94 -37.5t97.5 -36.5t78 -38t77 -58t54.5 -82t20 -110q0 -74 -28.5 -134t-86 -103.5t-146 -67t-206.5 -23.5q-59 0 -116.5 4t-101.5 9.5t-69 9.5t-34 6 v313h205q3 -14 8.5 -45t9.5 -67q6 -2 21 -5t42 -6t58 -3q61 0 94 22t33 59q0 28 -19.5 49.5t-51.5 37t-94.5 38.5t-96.5 37t-76 38t-76 58t-54 81.5t-20 109.5q0 70 29 128.5t86.5 100.5t144 65t199.5 23q48 0 97.5 -4t89.5 -10t63.5 -10t32.5 -6v-299h-201zM410 1128 l-133 148l331 301l164 -180z" />
<glyph unicode="&#x15e;" horiz-adv-x="1067" d="M686 997q-6 33 -11 76t-7 74q-22 4 -48.5 6t-46.5 2q-80 0 -125 -35t-45 -94q0 -43 26.5 -73t69 -54.5t97.5 -46t112.5 -46.5t112.5 -57.5t97.5 -78.5t69 -109.5t26.5 -150.5q0 -98 -36.5 -178t-106.5 -138t-170.5 -89.5t-227.5 -31.5q-73 0 -142 5.5t-127.5 14 t-115.5 19.5v396h250q5 -29 10.5 -73t7.5 -83q20 -4 42 -7.5t48.5 -6t55.5 -2.5q83 0 126.5 37t43.5 102q0 43 -26 73.5t-68.5 55t-97 46t-111.5 46.5t-111.5 57.5t-97 78.5t-68.5 109t-26 150q0 94 36 171.5t104.5 132t168 84.5t227.5 30q63 0 121.5 -5.5t108.5 -12 t98 -15.5v-379h-244zM612 -80q39 -56 54.5 -110t9 -104.5t-33 -96.5t-71.5 -88h-227q36 43 56 81t22.5 76.5t-13 79.5t-51.5 88z" />
<glyph unicode="&#x15f;" horiz-adv-x="911" d="M600 711q-3 13 -8.5 43.5t-9.5 66.5q-4 1 -15 2.5t-30 3.5t-41 2q-60 0 -92.5 -20t-32.5 -57q0 -28 20 -49t52 -36t94 -37.5t97.5 -36.5t78 -38t77 -58t54.5 -82t20 -110q0 -74 -28.5 -134t-86 -103.5t-146 -67t-206.5 -23.5q-59 0 -116.5 4t-101.5 9.5t-69 9.5t-34 6 v313h205q3 -14 8.5 -45t9.5 -67q6 -2 21 -5t42 -6t58 -3q61 0 94 22t33 59q0 28 -19.5 49.5t-51.5 37t-94.5 38.5t-96.5 37t-76 38t-76 58t-54 81.5t-20 109.5q0 70 29 128.5t86.5 100.5t144 65t199.5 23q48 0 97.5 -4t89.5 -10t63.5 -10t32.5 -6v-299h-201zM541 -80 q39 -56 54.5 -110t9 -104.5t-33 -96.5t-71.5 -88h-227q36 43 56 81t22.5 76.5t-13 79.5t-51.5 88z" />
<glyph unicode="&#x160;" horiz-adv-x="1067" d="M686 997q-6 33 -11 76t-7 74q-22 4 -48.5 6t-46.5 2q-80 0 -125 -35t-45 -94q0 -43 26.5 -73t69 -54.5t97.5 -46t112.5 -46.5t112.5 -57.5t97.5 -78.5t69 -109.5t26.5 -150.5q0 -98 -36.5 -178t-106.5 -138t-170.5 -89.5t-227.5 -31.5q-73 0 -142 5.5t-127.5 14 t-115.5 19.5v396h250q5 -29 10.5 -73t7.5 -83q20 -4 42 -7.5t48.5 -6t55.5 -2.5q83 0 126.5 37t43.5 102q0 43 -26 73.5t-68.5 55t-97 46t-111.5 46.5t-111.5 57.5t-97 78.5t-68.5 109t-26 150q0 94 36 171.5t104.5 132t168 84.5t227.5 30q63 0 121.5 -5.5t108.5 -12 t98 -15.5v-379h-244zM529 1454l-344 170l69 158l279 -107l284 107l66 -154z" />
<glyph unicode="&#x161;" horiz-adv-x="915" d="M600 711q-3 13 -8.5 43.5t-9.5 66.5q-4 1 -15 2.5t-30 3.5t-41 2q-60 0 -92.5 -20t-32.5 -57q0 -28 20 -49t52 -36t94 -37.5t97.5 -36.5t78 -38t77 -58t54.5 -82t20 -110q0 -74 -28.5 -134t-86 -103.5t-146 -67t-206.5 -23.5q-59 0 -116.5 4t-101.5 9.5t-69 9.5t-34 6 v313h205q3 -14 8.5 -45t9.5 -67q6 -2 21 -5t42 -6t58 -3q61 0 94 22t33 59q0 28 -19.5 49.5t-51.5 37t-94.5 38.5t-96.5 37t-76 38t-76 58t-54 81.5t-20 109.5q0 70 29 128.5t86.5 100.5t144 65t199.5 23q48 0 97.5 -4t89.5 -10t63.5 -10t32.5 -6v-299h-201zM458 1133 l-329 280l116 143l217 -161l220 161l112 -139z" />
<glyph unicode="&#x162;" horiz-adv-x="1237" d="M965 963q-9 43 -14.5 81.5t-8.5 75.5h-164v-893q43 -3 87.5 -9t90.5 -15v-203h-675v203q46 9 90.5 15t87.5 9v893h-164q-3 -37 -8.5 -75.5t-14.5 -81.5h-239v419h1171v-419h-239zM719 -80q39 -56 54.5 -110t9 -104.5t-33 -96.5t-71.5 -88h-227q36 43 56 81t22.5 76.5 t-13 79.5t-51.5 88z" />
<glyph unicode="&#x163;" horiz-adv-x="772" d="M713 8q-52 -13 -114.5 -21.5t-118.5 -8.5q-88 0 -147 15.5t-95.5 54t-51.5 101.5t-15 156v472h-156v241h156v301l311 84v-385h222v-241h-222v-399q0 -40 5.5 -66.5t18 -43t32.5 -23t49 -6.5t55 3t51 10l20 -244v0zM543 -80q39 -56 54.5 -110t9 -104.5t-33 -96.5 t-71.5 -88h-227q36 43 56 81t22.5 76.5t-13 79.5t-51.5 88z" />
<glyph unicode="&#x164;" horiz-adv-x="1237" d="M965 963q-9 43 -14.5 81.5t-8.5 75.5h-164v-893q43 -3 87.5 -9t90.5 -15v-203h-675v203q46 9 90.5 15t87.5 9v893h-164q-3 -37 -8.5 -75.5t-14.5 -81.5h-239v419h1171v-419h-239zM615 1454l-344 170l69 158l279 -107l284 107l66 -154z" />
<glyph unicode="&#x165;" horiz-adv-x="860" d="M713 8q-52 -13 -114.5 -21.5t-118.5 -8.5q-88 0 -147 15.5t-95.5 54t-51.5 101.5t-15 156v472h-156v241h156v301l311 84v-385h222v-241h-222v-399q0 -40 5.5 -66.5t18 -43t32.5 -23t49 -6.5t55 3t51 10l20 -244v0zM743 1116l-199 41l97 453l245 -49z" />
<glyph unicode="&#x16a;" horiz-adv-x="1450" d="M1411 1176q-70 -16 -119 -21v-610q0 -140 -38.5 -247t-113 -179.5t-183.5 -109t-248 -36.5q-108 0 -192 19t-144.5 54.5t-102 83.5t-65.5 106.5t-34.5 123.5t-10.5 138v657q-50 5 -121 21v206h577v-206q-31 -8 -65 -13t-72 -8v-639q0 -67 11.5 -118t39.5 -87t76.5 -55.5 t120.5 -19.5q68 0 115.5 16.5t77 51.5t43.5 91t14 137v623q-38 3 -72 8t-65 13v206h571v-206zM414 1509v191h622v-191h-622z" />
<glyph unicode="&#x16b;" horiz-adv-x="1280" d="M1264 14q-49 -6 -106.5 -9.5t-115 -5.5t-115 -2.5t-112.5 1.5q0 17 0.5 36.5t2 41t3.5 43.5t5 42h-4q-26 -40 -59 -73.5t-75 -58t-93.5 -38.5t-112.5 -14q-85 0 -143 26t-93.5 70t-49 103t-13.5 124v481q-37 6 -77.5 12t-77.5 9v202q50 6 101.5 9.5t111 5.5t124 2 t130.5 -1v-649q0 -31 4.5 -55t14 -41t27.5 -26t45 -9q41 0 77.5 24t64.5 63t45.5 90.5t17.5 106.5v259q-30 5 -66 9.5t-72 7.5v206q51 5 103.5 9t109 5.5t116 1t119.5 -1.5v-783q38 -7 83 -12.5t80 -8.5v-202v0zM351 1204v226h575v-226h-575z" />
<glyph unicode="&#x16e;" horiz-adv-x="1450" d="M1411 1176q-70 -16 -119 -21v-610q0 -140 -38.5 -247t-113 -179.5t-183.5 -109t-248 -36.5q-108 0 -192 19t-144.5 54.5t-102 83.5t-65.5 106.5t-34.5 123.5t-10.5 138v657q-50 5 -121 21v206h577v-206q-31 -8 -65 -13t-72 -8v-639q0 -67 11.5 -118t39.5 -87t76.5 -55.5 t120.5 -19.5q68 0 115.5 16.5t77 51.5t43.5 91t14 137v623q-38 3 -72 8t-65 13v206h571v-206zM1024 1704q0 -58 -23 -106t-64.5 -82t-97.5 -52t-122 -18q-67 0 -119.5 14.5t-88.5 44t-55 74t-19 104.5q0 59 22.5 107t64 82t97.5 52t121 18q68 0 120.5 -14.5t89 -43.5 t55.5 -74t19 -106zM822 1694q0 27 -5.5 46.5t-17 31.5t-28.5 18t-39 6q-21 0 -38.5 -6.5t-30 -19.5t-19.5 -32t-7 -42q0 -28 5.5 -47.5t17 -32.5t28.5 -19t39 -6q21 0 38.5 7t30 20t19.5 32.5t7 43.5z" />
<glyph unicode="&#x16f;" horiz-adv-x="1280" d="M1264 14q-49 -6 -106.5 -9.5t-115 -5.5t-115 -2.5t-112.5 1.5q0 17 0.5 36.5t2 41t3.5 43.5t5 42h-4q-26 -40 -59 -73.5t-75 -58t-93.5 -38.5t-112.5 -14q-85 0 -143 26t-93.5 70t-49 103t-13.5 124v481q-37 6 -77.5 12t-77.5 9v202q50 6 101.5 9.5t111 5.5t124 2 t130.5 -1v-649q0 -31 4.5 -55t14 -41t27.5 -26t45 -9q41 0 77.5 24t64.5 63t45.5 90.5t17.5 106.5v259q-30 5 -66 9.5t-72 7.5v206q51 5 103.5 9t109 5.5t116 1t119.5 -1.5v-783q38 -7 83 -12.5t80 -8.5v-202v0zM924 1374q0 -61 -22.5 -111.5t-63.5 -86.5t-96.5 -55 t-118.5 -19q-67 0 -118.5 15.5t-86.5 46.5t-53 78t-18 110q0 61 22.5 112t63 87t95.5 55.5t118 19.5q68 0 119.5 -16t87 -47.5t53.5 -78.5t18 -110zM728 1362q0 30 -5.5 51t-17 34.5t-28.5 19.5t-40 6q-21 0 -38 -7t-29.5 -21t-19.5 -34.5t-7 -46.5q0 -29 5.5 -50t17 -34.5 t28.5 -20t39 -6.5q21 0 38.5 7t30 21t19.5 34.5t7 46.5z" />
<glyph unicode="&#x170;" horiz-adv-x="1450" d="M1411 1176q-70 -16 -119 -21v-610q0 -140 -38.5 -247t-113 -179.5t-183.5 -109t-248 -36.5q-108 0 -192 19t-144.5 54.5t-102 83.5t-65.5 106.5t-34.5 123.5t-10.5 138v657q-50 5 -121 21v206h577v-206q-31 -8 -65 -13t-72 -8v-639q0 -67 11.5 -118t39.5 -87t76.5 -55.5 t120.5 -19.5q68 0 115.5 16.5t77 51.5t43.5 91t14 137v623q-38 3 -72 8t-65 13v206h571v-206zM922 1446l-134 125l316 311l160 -160zM510 1446l-141 123l276 332l172 -150z" />
<glyph unicode="&#x171;" horiz-adv-x="1280" d="M1264 14q-49 -6 -106.5 -9.5t-115 -5.5t-115 -2.5t-112.5 1.5q0 17 0.5 36.5t2 41t3.5 43.5t5 42h-4q-26 -40 -59 -73.5t-75 -58t-93.5 -38.5t-112.5 -14q-85 0 -143 26t-93.5 70t-49 103t-13.5 124v481q-37 6 -77.5 12t-77.5 9v202q50 6 101.5 9.5t111 5.5t124 2 t130.5 -1v-649q0 -31 4.5 -55t14 -41t27.5 -26t45 -9q41 0 77.5 24t64.5 63t45.5 90.5t17.5 106.5v259q-30 5 -66 9.5t-72 7.5v206q51 5 103.5 9t109 5.5t116 1t119.5 -1.5v-783q38 -7 83 -12.5t80 -8.5v-202v0zM842 1133l-134 122l312 316l162 -158zM430 1133l-141 120 l278 338l174 -147z" />
<glyph unicode="&#x172;" horiz-adv-x="1450" d="M1158 -328q-63 -70 -144 -108.5t-185 -38.5q-66 0 -115.5 15.5t-82 42.5t-48.5 64t-16 79q0 62 33 128t105 128q-11 -1 -21.5 -1h-20.5q-90 0 -161.5 16t-127.5 46.5t-96.5 75t-67 101t-39 124t-12.5 145.5v666q-62 7 -119 21v206h575v-206q-33 -8 -68.5 -13t-68.5 -8 v-649q0 -64 11 -115t39 -87.5t76.5 -56t121.5 -19.5q69 0 117 16t78 51t43.5 91.5t13.5 136.5v632q-33 3 -68.5 8t-68.5 13v206h569v-206q-57 -14 -117 -21v-620q0 -181 -63 -302t-183 -185q-43 -23 -77.5 -52t-58.5 -59t-37 -61t-13 -58t19.5 -43.5t49.5 -16.5 q31 0 59.5 15t53.5 45l115 -146v0z" />
<glyph unicode="&#x173;" horiz-adv-x="1280" d="M1260 14q-12 0 -29 -1.5t-40 -5.5q-42 -5 -85 -23.5t-77.5 -43.5t-56 -55.5t-21.5 -61.5q0 -27 18.5 -41.5t48.5 -14.5q15 0 30.5 5.5t30.5 14.5t28 21t23 26l114 -144q-31 -40 -70 -71t-83 -51.5t-92.5 -31.5t-97.5 -11t-92 12.5t-75 37t-50 62.5t-18 89q0 45 13.5 86.5 t36.5 78.5t53.5 70t64.5 61q-4 15 -7 31.5t-5 33.5t-3 34t0 33h-3q-24 -38 -56.5 -70t-73.5 -56t-92 -37.5t-112 -13.5q-85 0 -143 26t-93.5 70t-50.5 103t-15 124v481q-37 6 -80 12t-80 9v202q50 6 105.5 9.5t115 5.5t122.5 2t129 -1v-649q0 -31 4.5 -55t15.5 -41t29 -26 t45 -9q41 0 77.5 24t64.5 63t44 90.5t16 106.5v259q-30 5 -67 9.5t-73 7.5v206q51 5 106 9t111.5 5.5t115 1t118.5 -1.5v-637q0 -36 1.5 -74t3.5 -73q20 -3 41 -6.5t41.5 -5.5t39.5 -4.5t34 -3.5v-202v0z" />
<glyph unicode="&#x178;" horiz-adv-x="1276" d="M1257 1176q-22 -6 -47 -9.5t-50 -6.5l-366 -700v-233q47 -3 92.5 -9.5t85.5 -15.5v-202h-674v202q40 9 85.5 15.5t92.5 9.5v231l-361 702q-21 3 -48 6.5t-49 9.5v206h554v-206q-25 -7 -50 -10.5t-51 -5.5l98 -215q9 -22 19.5 -46t21.5 -49.5t21 -50t18 -45.5h2 q8 22 17.5 47.5t19.5 51.5t20.5 50t19.5 43l100 214q-29 2 -55 5.5t-51 10.5v206h535v-206v0zM1029 1620q0 -32 -12.5 -61.5t-35 -52.5t-52 -35.5t-62.5 -12.5q-32 0 -61.5 12.5t-52.5 35.5t-35.5 52.5t-12.5 61.5q0 33 12.5 62.5t35.5 52t52.5 35t61.5 12.5 q33 0 62.5 -12.5t52 -35t35 -52t12.5 -62.5zM586 1620q0 -32 -12.5 -61.5t-35.5 -52.5t-52.5 -35.5t-61.5 -12.5q-33 0 -62.5 12.5t-51.5 35t-34.5 52.5t-12.5 62q0 33 12.5 62.5t34.5 52t51.5 35t62.5 12.5q32 0 61.5 -12.5t52.5 -35t35.5 -52t12.5 -62.5z" />
<glyph unicode="&#x179;" horiz-adv-x="1112" d="M79 0v249l499 766q18 28 35 54.5t38 51.5q-28 -2 -65 -2h-89h-141q-3 -33 -8 -69t-14 -71h-246v403h942v-260l-526 -775l-24 -38t-28 -40q10 2 26.5 2.5t38 0.5h47.5h58h154q4 34 10 72.5t16 79.5h238v-424h-961zM416 1454l-47 168l458 154l66 -217z" />
<glyph unicode="&#x17a;" horiz-adv-x="948" d="M70 0v232l442 560q-10 -1 -27 -1.5t-35.5 -1t-38.5 -1t-36 -0.5h-75q-4 -28 -8 -54t-11 -56h-207v340h789v-233l-432 -542q13 1 29.5 1.5t34.5 0.5h36.5h35.5h84q3 27 7 54t10 57h208v-356h-806zM402 1128l-133 148l331 301l164 -180z" />
<glyph unicode="&#x17b;" horiz-adv-x="1112" d="M79 0v249l499 766q18 28 35 54.5t38 51.5q-28 -2 -65 -2h-89h-141q-3 -33 -8 -69t-14 -71h-246v403h942v-260l-526 -775l-24 -38t-28 -40q10 2 26.5 2.5t38 0.5h47.5h58h154q4 34 10 72.5t16 79.5h238v-424h-961zM747 1636q0 -37 -14 -70t-39.5 -57.5t-58.5 -38.5 t-70 -14t-70 14t-58 38.5t-38.5 57.5t-13.5 70t13.5 70.5t38.5 59t58 39.5t70 14t70 -14t58.5 -39.5t39.5 -59t14 -70.5z" />
<glyph unicode="&#x17c;" horiz-adv-x="948" d="M70 0v232l442 560q-10 -1 -27 -1.5t-35.5 -1t-38.5 -1t-36 -0.5h-75q-4 -28 -8 -54t-11 -56h-207v340h789v-233l-432 -542q13 1 29.5 1.5t34.5 0.5h36.5h35.5h84q3 27 7 54t10 57h208v-356h-806zM655 1317q0 -37 -14 -70t-39.5 -57.5t-58.5 -38.5t-70 -14t-70 14 t-58 38.5t-38.5 57.5t-13.5 70t13.5 70t38.5 58.5t58 39.5t70 14t70 -14t58.5 -39.5t39.5 -58.5t14 -70z" />
<glyph unicode="&#x17d;" horiz-adv-x="1112" d="M79 0v249l499 766q18 28 35 54.5t38 51.5q-28 -2 -65 -2h-89h-141q-3 -33 -8 -69t-14 -71h-246v403h942v-260l-526 -775l-24 -38t-28 -40q10 2 26.5 2.5t38 0.5h47.5h58h154q4 34 10 72.5t16 79.5h238v-424h-961zM570 1454l-344 170l69 158l279 -107l284 107l66 -154z " />
<glyph unicode="&#x17e;" horiz-adv-x="948" d="M70 0v232l442 560q-10 -1 -27 -1.5t-35.5 -1t-38.5 -1t-36 -0.5h-75q-4 -28 -8 -54t-11 -56h-207v340h789v-233l-432 -542q13 1 29.5 1.5t34.5 0.5h36.5h35.5h84q3 27 7 54t10 57h208v-356h-806zM465 1133l-329 280l116 143l217 -161l220 161l112 -139z" />
<glyph unicode="&#x192;" horiz-adv-x="924" d="M514 227q-16 -164 -53 -274t-96.5 -175t-141.5 -93.5t-194 -28.5q-37 0 -77 6t-75 16l45 267q39 -13 66.5 -20t56.5 -7q36 0 61.5 12.5t43 40.5t29 74.5t18.5 116.5l45 477h-215v242h237l19 163q12 123 44.5 212t88 147.5t136 87.5t189.5 29q32 0 73 -5t77 -14l-35 -256 q-24 7 -58 12t-59 5q-32 0 -56.5 -9.5t-43 -32t-30.5 -61t-17 -96.5l-17 -182h273v-242h-293z" />
<glyph unicode="&#x218;" horiz-adv-x="1067" d="M686 997q-6 33 -11 76t-7 74q-22 4 -48.5 6t-46.5 2q-80 0 -125 -35t-45 -94q0 -43 26.5 -73t69 -54.5t97.5 -46t112.5 -46.5t112.5 -57.5t97.5 -78.5t69 -109.5t26.5 -150.5q0 -98 -36.5 -178t-106.5 -138t-170.5 -89.5t-227.5 -31.5q-73 0 -142 5.5t-127.5 14 t-115.5 19.5v396h250q5 -29 10.5 -73t7.5 -83q20 -4 42 -7.5t48.5 -6t55.5 -2.5q83 0 126.5 37t43.5 102q0 43 -26 73.5t-68.5 55t-97 46t-111.5 46.5t-111.5 57.5t-97 78.5t-68.5 109t-26 150q0 94 36 171.5t104.5 132t168 84.5t227.5 30q63 0 121.5 -5.5t108.5 -12 t98 -15.5v-379h-244zM522 -93q46 0 79.5 -26t47 -67t5.5 -89t-44.5 -93.5t-104.5 -81t-174 -49.5l-40 113q39 15 62.5 29.5t33.5 29.5t11 32t-5 37q-9 31 -4.5 60.5t21.5 52.5t45 37.5t67 14.5z" />
<glyph unicode="&#x219;" horiz-adv-x="911" d="M600 711q-3 13 -8.5 43.5t-9.5 66.5q-4 1 -15 2.5t-30 3.5t-41 2q-60 0 -92.5 -20t-32.5 -57q0 -28 20 -49t52 -36t94 -37.5t97.5 -36.5t78 -38t77 -58t54.5 -82t20 -110q0 -74 -28.5 -134t-86 -103.5t-146 -67t-206.5 -23.5q-59 0 -116.5 4t-101.5 9.5t-69 9.5t-34 6 v313h205q3 -14 8.5 -45t9.5 -67q6 -2 21 -5t42 -6t58 -3q61 0 94 22t33 59q0 28 -19.5 49.5t-51.5 37t-94.5 38.5t-96.5 37t-76 38t-76 58t-54 81.5t-20 109.5q0 70 29 128.5t86.5 100.5t144 65t199.5 23q48 0 97.5 -4t89.5 -10t63.5 -10t32.5 -6v-299h-201zM454 -93 q46 0 79.5 -26t47 -67t5.5 -89t-44.5 -93.5t-104.5 -81t-174 -49.5l-40 113q39 15 62.5 29.5t33.5 29.5t11 32t-5 37q-9 31 -4.5 60.5t21.5 52.5t45 37.5t67 14.5z" />
<glyph unicode="&#x21a;" horiz-adv-x="1237" d="M965 963q-9 43 -14.5 81.5t-8.5 75.5h-164v-893q43 -3 87.5 -9t90.5 -15v-203h-675v203q46 9 90.5 15t87.5 9v893h-164q-3 -37 -8.5 -75.5t-14.5 -81.5h-239v419h1171v-419h-239zM622 -93q46 0 79.5 -26t47 -67t5.5 -89t-44.5 -93.5t-104.5 -81t-174 -49.5l-40 113 q39 15 62.5 29.5t33.5 29.5t11 32t-5 37q-9 31 -4.5 60.5t21.5 52.5t45 37.5t67 14.5z" />
<glyph unicode="&#x21b;" horiz-adv-x="772" d="M713 8q-52 -13 -114.5 -21.5t-118.5 -8.5q-88 0 -147 15.5t-95.5 54t-51.5 101.5t-15 156v472h-156v241h156v301l311 84v-385h222v-241h-222v-399q0 -40 5.5 -66.5t18 -43t32.5 -23t49 -6.5t55 3t51 10l20 -244v0zM464 -93q46 0 79.5 -26t47 -67t5.5 -89t-44.5 -93.5 t-104.5 -81t-174 -49.5l-40 113q39 15 62.5 29.5t33.5 29.5t11 32t-5 37q-9 31 -4.5 60.5t21.5 52.5t45 37.5t67 14.5z" />
<glyph unicode="&#x2c6;" horiz-adv-x="887" d="M659 1133l-215 161l-221 -161l-112 139l335 284l330 -280z" />
<glyph unicode="&#x2c7;" horiz-adv-x="887" d="M440 1133l-329 280l116 143l217 -161l220 161l112 -139z" />
<glyph unicode="&#x2d8;" horiz-adv-x="811" d="M700 1479q0 -69 -17.5 -130t-54 -108t-93 -73.5t-132.5 -26.5q-77 0 -133 27t-91 74.5t-51.5 108t-16.5 128.5h196q0 -27 6 -49t18.5 -37.5t31.5 -24t43 -8.5q44 0 70 30t26 89h198z" />
<glyph unicode="&#x2d9;" horiz-adv-x="584" d="M473 1317q0 -37 -14 -70t-39.5 -57.5t-58.5 -38.5t-70 -14t-70 14t-58 38.5t-38.5 57.5t-13.5 70t13.5 70t38.5 58.5t58 39.5t70 14t70 -14t58.5 -39.5t39.5 -58.5t14 -70z" />
<glyph unicode="&#x2da;" horiz-adv-x="799" d="M688 1374q0 -61 -22.5 -111.5t-63.5 -86.5t-96.5 -55t-118.5 -19q-67 0 -118.5 15.5t-86.5 46.5t-53 78t-18 110q0 61 22.5 112t63 87t95.5 55.5t118 19.5q68 0 119.5 -16t87 -47.5t53.5 -78.5t18 -110zM492 1362q0 30 -5.5 51t-17 34.5t-28.5 19.5t-40 6q-21 0 -38 -7 t-29.5 -21t-19.5 -34.5t-7 -46.5q0 -29 5.5 -50t17 -34.5t28.5 -20t39 -6.5q21 0 38.5 7t30 21t19.5 34.5t7 46.5z" />
<glyph unicode="&#x2db;" horiz-adv-x="791" d="M680 -379q-31 -28 -65.5 -49t-71.5 -34.5t-76 -20t-80 -6.5q-62 0 -112.5 14.5t-87.5 43t-56.5 70.5t-19.5 95q0 42 11 80.5t32 73.5t51 67.5t69 64.5l295 -20q-48 -26 -81 -52t-52.5 -51t-28 -48.5t-8.5 -47.5q0 -29 17 -45t49 -16t64.5 11.5t68.5 35.5z" />
<glyph unicode="&#x2dc;" horiz-adv-x="985" d="M874 1358q-46 -96 -113 -146.5t-151 -50.5q-46 0 -80.5 13.5t-74 41t-53.5 36t-37 8.5q-34 0 -59 -22.5t-50 -68.5l-145 111q48 98 114 148.5t150 50.5q46 0 80 -13t73.5 -40.5t55 -36.5t39.5 -9q33 0 57.5 22t48.5 68z" />
<glyph unicode="&#x2dd;" horiz-adv-x="1114" d="M664 1133l-134 122l312 316l162 -158zM252 1133l-141 120l278 338l174 -147z" />
<glyph unicode="&#x312;" horiz-adv-x="0" d="M-589 1144q-46 0 -79 26t-47 66.5t-6 89t45 93.5t105.5 80t172.5 49l41 -112q-41 -15 -64 -29.5t-33.5 -29.5t-10.5 -32t6 -36q8 -31 3.5 -60.5t-21.5 -53t-45.5 -37.5t-66.5 -14z" />
<glyph unicode="&#x315;" horiz-adv-x="168" d="M131 1116l-199 41l97 453l245 -49z" />
<glyph unicode="&#x326;" horiz-adv-x="0" d="M-576 -93q46 0 79.5 -26t47 -67t5.5 -89t-44.5 -93.5t-104.5 -81t-174 -49.5l-40 113q39 15 62.5 29.5t33.5 29.5t11 32t-5 37q-9 31 -4.5 60.5t21.5 52.5t45 37.5t67 14.5z" />
<glyph unicode="&#x394;" horiz-adv-x="1268" d="M52 0v243l379 1139h391l393 -1139v-243h-1163zM679 832q-18 60 -33.5 118.5t-28.5 125.5h-4q-13 -67 -29.5 -130.5t-32.5 -118.5l-174 -540h481z" />
<glyph unicode="&#x3a9;" horiz-adv-x="1462" d="M56 357h192q8 -28 16 -61.5t13 -64.5h138v121q-65 20 -129 58t-115 96.5t-83 138t-32 183.5q0 74 18.5 146t55.5 136.5t93.5 119t133.5 94t174.5 62t216.5 22.5q166 0 289 -45t205.5 -121t122.5 -178t40 -217q0 -75 -17 -138t-46 -115t-66 -92.5t-77 -70.5t-79.5 -49.5 t-73.5 -29.5v-121h138q3 28 11.5 62.5t17.5 63.5h192v-357h-594v477q54 14 100.5 44.5t81 73t54 97t19.5 116.5q0 71 -22.5 129t-65 99t-105.5 63t-144 22q-86 0 -149 -25.5t-104 -68t-60.5 -99t-19.5 -117.5q0 -64 18.5 -119t52 -97t81 -72t103.5 -46v-477h-595v357z" />
<glyph unicode="&#x3bc;" horiz-adv-x="1270" d="M187 781q-37 6 -80.5 12t-81.5 9v202q49 6 105 9.5t116.5 5.5t124 2t128.5 -1v-654q0 -65 23 -95.5t72 -30.5q43 0 80.5 21t64.5 59t42 92t15 118v253q-30 5 -67 9.5t-74 7.5v206q52 5 106.5 9t111.5 5.5t116 1t119 -1.5v-643q0 -38 3 -63t10.5 -41t20 -23.5t32.5 -8.5 q6 0 13 -1t15 1l23 -243q-28 -8 -65 -14t-89 -6q-63 0 -105 15t-68.5 39.5t-39.5 56.5t-17 65l-2 1q-17 -39 -42 -69.5t-58 -53.5t-74 -34.5t-90 -11.5q-32 0 -59 8t-46 25l36 -505h-319v1267z" />
<glyph unicode="&#x3c0;" horiz-adv-x="1305" d="M1064 761q-4 -26 -5.5 -55.5t-2.5 -58t-0.5 -55.5t1.5 -49q2 -35 4 -63t5 -51t6 -42.5t6 -37.5q5 -23 11 -43t15.5 -35t23 -23.5t31.5 -8.5q16 0 31.5 2t28.5 5l24 -250q-29 -8 -68.5 -13t-84.5 -5q-72 0 -125 14t-91 46t-62.5 84.5t-39.5 129.5q-4 24 -7.5 49t-7 54.5 t-6.5 63.5t-4 76q-2 27 -2 60.5t1 69t2.5 71t3.5 65.5h-233q4 -64 5.5 -131t-3.5 -135q-10 -134 -33 -267.5t-64 -262.5l-329 70q22 64 39.5 121.5t32 113.5t25.5 111t19 114q5 30 9 63t6 67.5t1.5 69t-2.5 66.5h-186v257h1207v-257h-182z" />
<glyph unicode="&#x2013;" d="M0 473v274h1126v-274h-1126z" />
<glyph unicode="&#x2014;" horiz-adv-x="2048" d="M217 473v274h1614v-274h-1614z" />
<glyph unicode="&#x2018;" horiz-adv-x="578" d="M508 1443q-54 -59 -84 -105t-39 -84.5t2.5 -72.5t39.5 -67q34 -39 39.5 -89t-13.5 -95t-61.5 -76t-106.5 -31q-56 0 -100 29t-68 80.5t-26 121t27.5 151t93 171t169.5 180.5l127 -113v0z" />
<glyph unicode="&#x2019;" horiz-adv-x="578" d="M291 1535q56 0 100 -29t68 -80.5t26 -121t-27.5 -150.5t-93.5 -170.5t-170 -179.5l-127 113q55 58 84.5 104t38.5 85t-2 72.5t-40 66.5q-22 25 -32 56.5t-8.5 64t14.5 63t36.5 54.5t56.5 38t76 14z" />
<glyph unicode="&#x201a;" horiz-adv-x="578" d="M291 352q56 0 100 -28.5t68 -80t26 -121t-27.5 -151.5t-93.5 -171t-170 -180l-127 114q55 58 84.5 104.5t38.5 84.5t-2 72t-40 67q-22 25 -32 56.5t-8.5 64t14.5 63t36.5 54t56.5 38t76 14.5z" />
<glyph unicode="&#x201c;" horiz-adv-x="1063" d="M994 1443q-54 -59 -84 -105t-38.5 -84.5t3 -72.5t39.5 -67q22 -26 32 -57t8 -63.5t-14.5 -63t-36 -54.5t-56.5 -38.5t-76 -14.5q-55 0 -99 29t-68.5 80.5t-26 121t27.5 151t93 171t170 180.5zM508 1443q-54 -59 -84 -105t-39 -84.5t2.5 -72.5t39.5 -67q34 -39 39.5 -89 t-13.5 -95t-61.5 -76t-106.5 -31q-56 0 -100 29t-68 80.5t-26 121t27.5 151t93 171t169.5 180.5z" />
<glyph unicode="&#x201d;" horiz-adv-x="1063" d="M777 1535q56 0 100 -29t68.5 -80.5t26 -121t-28 -150.5t-93.5 -170.5t-170 -179.5l-126 113q54 58 84 104t38.5 85t-2.5 72.5t-39 66.5q-22 25 -32 56.5t-8.5 64t14.5 63t36 54.5t56.5 38t75.5 14zM291 1535q56 0 100 -29t68 -80.5t26 -121t-27.5 -150.5t-93.5 -170.5 t-170 -179.5l-127 113q55 58 84.5 104t38.5 85t-2 72.5t-40 66.5q-22 25 -32 56.5t-8.5 64t14.5 63t36.5 54.5t56.5 38t76 14z" />
<glyph unicode="&#x201e;" horiz-adv-x="1063" d="M777 353q56 0 100 -29t68.5 -80.5t26 -121t-28 -151.5t-93.5 -171t-170 -180l-126 114q54 58 84 104.5t38.5 84.5t-2.5 72t-39 67q-22 25 -32 56.5t-8.5 64t14.5 63t36 54t56.5 38.5t75.5 15zM291 353q56 0 100 -29t68 -80.5t26 -121t-27.5 -151.5t-93.5 -171t-170 -180 l-127 114q55 58 84.5 104.5t38.5 84.5t-2 72t-40 67q-22 25 -32 56.5t-8.5 64t14.5 63t36.5 54t56.5 38.5t76 15z" />
<glyph unicode="&#x2020;" horiz-adv-x="948" d="M604 1060l49 -167l-54 -528h-248l-56 528l50 167h-268v241h268l-50 277h358l-49 -277h268v-241h-268z" />
<glyph unicode="&#x2021;" horiz-adv-x="948" d="M607 575l49 -238h-364l50 238h-265v241h265l-47 142l47 142h-265v240h265l-47 238h358l-46 -238h265v-240h-265l46 -142l-46 -142h265v-241h-265z" />
<glyph unicode="&#x2022;" horiz-adv-x="868" d="M775 608q0 -70 -27 -132t-73.5 -108.5t-108.5 -73t-132 -26.5q-71 0 -132.5 26.5t-108 73t-73 108.5t-26.5 132t26.5 132t73 108.5t108 73.5t132.5 27q70 0 132 -27t108.5 -73.5t73.5 -108.5t27 -132z" />
<glyph unicode="&#x2026;" horiz-adv-x="1561" d="M1464 159q0 -38 -15 -71.5t-40 -58.5t-58 -40t-71 -15t-71.5 15t-58.5 40t-40 58.5t-15 71.5t15 71t40 58t58.5 40t71.5 15t71 -15t58 -40t40 -58t15 -71zM961 159q0 -38 -15 -71.5t-40 -58.5t-58.5 -40t-71.5 -15t-71 15t-58 40t-40 58.5t-15 71.5t15 71t40 58t58 40 t71 15t71.5 -15t58.5 -40t40 -58t15 -71zM458 159q0 -38 -14.5 -71.5t-39.5 -58.5t-58.5 -40t-71.5 -15t-71 15t-58.5 40t-40 58.5t-14.5 71.5t14.5 71t40 58t58.5 40t71 15t71.5 -15t58.5 -40t39.5 -58t14.5 -71z" />
<glyph unicode="&#x2030;" horiz-adv-x="2327" d="M733 1091q0 -88 -28 -157.5t-75 -119t-109.5 -75.5t-132.5 -26q-75 0 -134.5 23.5t-101.5 68t-64.5 110t-22.5 150.5t28 154t75 117t108.5 73.5t129.5 25.5q69 0 128.5 -20t104 -61.5t69.5 -106.5t25 -156zM486 1076q0 43 -5 71t-15 44.5t-26 23.5t-38 7 q-18 0 -34.5 -9.5t-28 -28.5t-18 -46.5t-6.5 -63.5q0 -42 6 -71t16.5 -45.5t26 -24t34.5 -7.5t35.5 9.5t28 28.5t18 47t6.5 65zM1527 325q0 -87 -28 -157t-75.5 -119t-110 -75t-131.5 -26q-76 0 -135.5 23t-101 68t-64 110t-22.5 150q0 86 28 155t74.5 116.5t108 73 t130.5 25.5q68 0 128 -19.5t104 -61.5t69.5 -107t25.5 -156zM1279 311q0 42 -5 70.5t-15.5 44.5t-26.5 23t-37 7q-19 0 -35 -9.5t-27.5 -28t-17.5 -46.5t-6 -63q0 -43 5.5 -72t16 -45.5t25 -24t34.5 -7.5q19 0 36 9.5t28.5 28.5t18 47t6.5 66zM2253 325q0 -87 -27.5 -157 t-75 -119t-110 -75t-131.5 -26q-75 0 -135 23t-101.5 68t-64 110t-22.5 150q0 86 28 155t74.5 116.5t108 73t129.5 25.5q70 0 129.5 -19.5t103.5 -61.5t69 -107t25 -156zM2005 311q0 42 -5 70.5t-15 44.5t-26 23t-37 7q-19 0 -35 -9.5t-27.5 -28t-17.5 -46.5t-6 -63 q0 -43 5.5 -72t16 -45.5t25.5 -24t35 -7.5t36 9.5t27 28.5t17.5 47t6.5 66zM407 -58l-226 163l1003 1336l226 -164z" />
<glyph unicode="&#x2039;" horiz-adv-x="639" d="M291 186l-225 411l230 417l241 -109l-174 -307l179 -301z" />
<glyph unicode="&#x203a;" horiz-adv-x="639" d="M342 186l-241 108l174 307l-178 302l251 111l225 -412z" />
<glyph unicode="&#x2044;" horiz-adv-x="401" d="M-367 -322l-188 132l1352 1855l188 -133z" />
<glyph unicode="&#x2074;" horiz-adv-x="895" d="M723 958v-67q34 -3 65 -8t56 -13v-143h-545v143q31 8 66.5 13t72.5 8v67h-375l-24 220l309 446h375v-465h127v-201h-127zM444 1434l-190 -281q18 1 43.5 2t52.5 1.5t52 0.5h42v277z" />
<glyph unicode="&#x20ac;" horiz-adv-x="1278" d="M536 727v-37.5v-37.5v-27.5v-27.5h401v-161h-372q14 -49 39 -87t62.5 -64.5t91.5 -40.5t121 -14q32 0 64.5 2t64 7.5t62 14.5t58.5 22l70 -236q-36 -16 -79.5 -28t-90.5 -21t-96.5 -13t-96.5 -4q-144 0 -250 27t-182.5 83t-124.5 143t-69 209h-147v161h131v28v28v37t1 37 h-132v162h149q24 127 76 224t134 162.5t194 99t262 33.5q33 0 68.5 -2t72 -6.5t72.5 -10.5t69 -13v-367h-200q-10 33 -15.5 67.5t-7.5 64.5q-21 8 -43 11.5t-52 3.5q-62 0 -112.5 -15.5t-85 -48.5t-57 -83.5t-34.5 -119.5h385v-162h-401z" />
<glyph unicode="&#x2122;" horiz-adv-x="1790" d="M1392 745v134q13 3 29 7t30 6l-31 144l-12 66l-14 -61l-75 -296h-210l-81 299l-12 58l-8 -51l-31 -159q13 -2 27.5 -5t28.5 -8v-134h-330v137q19 4 38 6.5t32 3.5l73 339q-26 3 -51.5 7.5t-48.5 9.5v134h391l60 -235l19 -81l14 78l65 238h398v-134q-22 -5 -48 -9.5 t-52 -7.5l80 -337q18 -1 33 -3t35 -6v-140h-349zM554 1106q-4 26 -8 52.5t-6 52.5h-59v-315q27 -2 54 -6.5t50 -10.5v-134h-423v134q23 6 50 10.5t54 6.5v315h-59q-3 -26 -7 -52.5t-8 -52.5h-139v276h642v-276h-141z" />
<glyph unicode="&#x2202;" horiz-adv-x="1294" d="M1183 804q0 -99 -13 -191t-41 -175t-70.5 -156t-100.5 -133q-39 -38 -85.5 -68.5t-98 -51.5t-108 -32t-114.5 -11q-109 0 -191.5 31.5t-138.5 89t-84.5 138.5t-28.5 178q0 112 37 205.5t104.5 161.5t163.5 106.5t214 38.5q36 0 69.5 -5.5t63.5 -17.5t55 -29t44 -39 q-6 40 -10.5 66.5t-10.5 46.5q-16 70 -51.5 124t-86.5 91.5t-116 56.5t-138 19l47 263q154 -1 281 -51t218 -142t140.5 -222t49.5 -292zM811 487q0 40 -11.5 74t-35 58.5t-59.5 38.5t-85 14q-45 0 -82.5 -16.5t-64.5 -46t-42 -70.5t-15 -89q0 -47 12 -83t35.5 -60.5t57 -37 t76.5 -12.5q45 0 84 17t68 47t45.5 72.5t16.5 93.5z" />
<glyph unicode="&#x220f;" horiz-adv-x="1606" d="M1341 1232v-1718h-290v1718h-493v-1718h-292v1718h-188v263h1448v-263h-185z" />
<glyph unicode="&#x2211;" horiz-adv-x="1241" d="M74 -486v244l570 766l-536 725v246h1009v-263h-625l513 -697l-565 -750h709v-271h-1075z" />
<glyph unicode="&#x2212;" d="M77 473v274h973v-274h-973z" />
<glyph unicode="&#x221a;" horiz-adv-x="1274" d="M802 0h-365l-258 785h-171v233h431l145 -488q13 -41 24 -85t20 -90h2q8 47 16.5 89t18.5 80l265 1028h343z" />
<glyph unicode="&#x221e;" horiz-adv-x="2030" d="M1957 625q0 -85 -29.5 -159.5t-86.5 -131t-141.5 -89t-194.5 -32.5q-55 0 -112.5 12.5t-119.5 39t-129 66.5t-140 93q-55 -40 -114.5 -78t-124 -67.5t-133.5 -47.5t-142 -18q-105 0 -183.5 31t-130.5 83.5t-78 123t-26 150.5q0 90 32 165.5t90 130t138.5 84.5t176.5 30 q61 0 122 -13.5t124 -41t128.5 -68t136.5 -93.5q51 39 110.5 77t125 69t135 50.5t139.5 19.5q100 0 179 -29t134 -80.5t84.5 -122.5t29.5 -154zM1660 616q0 26 -9.5 49t-27.5 39.5t-43.5 26t-56.5 9.5q-28 0 -58.5 -8.5t-64 -24.5t-70.5 -39.5t-76 -51.5q46 -35 84.5 -59.5 t70.5 -40t60 -23.5t52 -8q35 0 61 10.5t43 28.5t26 42t9 50zM769 606q-45 34 -82.5 59.5t-69.5 42t-59 24.5t-50 8q-35 0 -61 -10.5t-43.5 -28t-26.5 -41t-9 -49.5q0 -27 9.5 -49.5t27.5 -40t43.5 -27t57.5 -9.5q27 0 56.5 8.5t62 23.5t68.5 38t76 51z" />
<glyph unicode="&#x222b;" horiz-adv-x="713" d="M663 1232q-18 6 -41.5 10t-47.5 4q-27 0 -46.5 -8.5t-32.5 -32.5t-19 -66.5t-6 -110.5q0 -81 2 -158.5t5 -154t6.5 -154.5t7 -159.5t5 -168.5t1.5 -183q0 -148 -21.5 -254t-66 -173.5t-111.5 -99.5t-158 -32q-28 0 -60 3.5t-61 10.5v268q21 -6 42.5 -8.5t39.5 -2.5 q28 0 49 8.5t34.5 34t20 70t6.5 115.5q0 121 -4.5 232t-9.5 225.5t-9.5 239t-4.5 271.5q0 151 25.5 257t73.5 172.5t117 97t155 30.5q23 0 53 -4.5t56 -10.5v-268v0z" />
<glyph unicode="&#x2248;" d="M1058 772q-29 -31 -63 -56.5t-72 -45t-79 -30t-85 -10.5q-41 0 -75.5 9t-64.5 21.5t-59 28t-58.5 28t-61.5 21.5t-69 9q-27 0 -53.5 -6t-52.5 -17t-51 -27t-49 -36l-99 205q31 30 68.5 55.5t78 45t82.5 30.5t84 11q44 0 82 -9t70.5 -22t61.5 -28t57 -28.5t55 -22.5t55 -9 q51 0 102 25.5t93 63.5zM1061 329q-31 -29 -68.5 -53.5t-77.5 -42t-80.5 -27.5t-77.5 -10q-45 0 -82 9t-69 21.5t-60.5 28t-56.5 28t-56.5 21.5t-61.5 9q-27 0 -52.5 -6.5t-50.5 -17.5t-50 -27.5t-49 -36.5l-103 207q27 25 60 50t71.5 45t80 33t84.5 13q46 0 82.5 -9t68 -22 t60 -28t57.5 -28t62 -22t75 -9q48 0 98 18.5t96 62.5z" />
<glyph unicode="&#x2260;" d="M574 273l-89 -223h-281l88 223h-205v251h304l65 168h-369v250h467l87 221h281l-87 -221h205v-250h-304l-66 -168h370v-251h-466z" />
<glyph unicode="&#x2264;" d="M754 322l-646 537l643 538l203 -209l-435 -327l435 -325zM149 0v260h829v-260h-829z" />
<glyph unicode="&#x2265;" d="M375 322l-203 209l436 327l-436 325l201 214l645 -537zM149 0v260h829v-260h-829z" />
<glyph unicode="&#x25ca;" horiz-adv-x="1290" d="M747 -19h-195l-523 711l520 710h194l519 -713zM635 1061l-260 -361l278 -383l267 363z" />
<glyph unicode="&#x25fc;" horiz-adv-x="1020" d="M0 1020h1020v-1020h-1020v1020z" />
<glyph unicode="&#xeeee;" horiz-adv-x="358" d="M358 2007v-2662h-358v2662h358z" />
<glyph unicode="&#xf6c9;" horiz-adv-x="745" d="M158 1454l-47 168l458 154l66 -217z" />
<glyph unicode="&#xf6ca;" horiz-adv-x="920" d="M455 1454l-344 170l69 158l279 -107l284 107l66 -154z" />
<glyph unicode="&#xf6cb;" horiz-adv-x="987" d="M877 1620q0 -32 -12.5 -61.5t-35 -52.5t-52 -35.5t-62.5 -12.5q-32 0 -61.5 12.5t-52.5 35.5t-35.5 52.5t-12.5 61.5q0 33 12.5 62.5t35.5 52t52.5 35t61.5 12.5q33 0 62.5 -12.5t52 -35t35 -52t12.5 -62.5zM434 1620q0 -32 -12.5 -61.5t-35.5 -52.5t-52.5 -35.5 t-61.5 -12.5q-33 0 -62.5 12.5t-51.5 35t-34.5 52.5t-12.5 62q0 33 12.5 62.5t34.5 52t51.5 35t62.5 12.5q32 0 61.5 -12.5t52.5 -35t35.5 -52t12.5 -62.5z" />
<glyph unicode="&#xf6ce;" horiz-adv-x="745" d="M588 1454l-477 105l65 217l459 -154z" />
<glyph unicode="&#xf6cf;" horiz-adv-x="1116" d="M664 1446l-134 125l316 311l160 -160zM252 1446l-141 123l276 332l172 -150z" />
<glyph unicode="&#xf6d0;" horiz-adv-x="844" d="M111 1509v191h622v-191h-622z" />
<glyph unicode="&#xf8ff;" horiz-adv-x="2140" d="M1626 1183q-10 12 -23.5 26.5t-27 28t-27 25.5t-24.5 21l206 257q41 -34 79.5 -71.5t72.5 -81.5zM1788 658q4 32 4 71t-4 73l331 34q6 -54 6 -108t-5 -106zM1144 1434q-36 5 -73 4.5t-71 -4.5l-38 324q53 7 109 6.5t107 -6.5zM622 1282q-13 -11 -26.5 -23t-26.5 -26 t-25.5 -27.5t-22.5 -25.5l-264 211q37 42 74 81t80 71zM1616 729q0 -51 -9.5 -100.5t-27 -95.5t-42 -87t-54.5 -75v-168l-32 -8l66 -158l-65 -17l65 -153l-69 -17l19 -49l-65 -153h-124q-4 -21 -21.5 -39.5t-45 -32.5t-63 -22t-77.5 -8t-78.5 8t-64 22t-44 32.5t-20.5 39.5 h-125l-116 280l64 18l-66 157l72 21l-37 89v163q-31 35 -55 75.5t-40.5 85.5t-25.5 93t-9 99q0 113 42.5 212t116.5 173.5t173.5 117t212.5 42.5q112 0 211.5 -42.5t173.5 -117t117 -173.5t43 -212zM23 620q-7 53 -7 108.5t7 109.5l338 -36q-4 -34 -4 -73.5t4 -71.5z M1087 772q5 0 5 10.5t-5 10.5q8 -11 0 -21zM1085 786q-5 0 -4.5 -1.5t1.5 -3t1.5 -2.5t-2.5 -1v-2q5 0 5.5 1t-0.5 2.5l-2 3t1 1.5v2zM1077 782q0 3 -2.5 4t-5.5 -2q2 0 3 0.5t3 -2.5q-2 0 -4 -1.5t-2 -3t1 -1.5t5 2v-2h2v6zM1069 772q-6 10 0 21q-5 0 -5 -10.5t5 -10.5z M1453 729q0 79 -30.5 149t-82 122t-121 82.5t-148.5 30.5t-149 -30.5t-122 -82.5t-82 -122t-30 -149q0 -87 36 -162t97 -128h89l-30 253q-28 -6 -47.5 -13t-34.5 -12q-11 -4 -18.5 4.5t-12.5 24t-6.5 35t0.5 37t6.5 30.5t13.5 16q65 19 140.5 31.5t149.5 12.5 q79 0 152.5 -12.5t139.5 -31.5q7 -3 12.5 -15.5t7 -30t-0.5 -36.5t-6.5 -34.5t-13 -24.5t-19.5 -5q-15 5 -36 11.5t-48 12.5l-27 -253h89q28 25 52.5 56.5t42 68t27.5 78t10 87.5zM1061 778q-3 -2 -3 3t3 3v2q-5 2 -5.5 -5t5.5 -5v2zM1053 786h-2v-6q0 -3 -1 -2.5t-1 2.5v6 h-2v-6q0 -5 3 -4t3 4v6zM1044 778h-4v13h-2v-15h6v2zM1143 711q-19 3 -36 4t-36 1q-18 0 -36 -1t-38 -4l28 -272h92zM1315 310h-491v-86l27 -64l464 118v32zM1292 158l-470 -122l23 -51l469 119zM1292 -17l-468 -121l44 -106h405l20 48l-7 16l-136 -35l-34 95l200 51z" />
<glyph unicode="&#xfb00;" horiz-adv-x="1481" d="M1500 1243q-35 9 -66 13t-56 4q-71 0 -109 -35.5t-38 -116.5v-90h215v-241h-215v-550q46 -3 92 -9.5t86 -15.5v-202h-626v202q32 9 66.5 15.5t69.5 9.5v550h-380v-550q35 -3 69.5 -9.5t66.5 -15.5v-202h-626v202q40 9 86 15.5t92 9.5v550h-193v241h193v31q0 110 29 194 t91 141.5t159 87t235 29.5q89 0 177 -10t169 -32q18 10 42 20t55.5 18t71.5 13t89 5q41 0 84 -4.5t90 -13.5zM937 1222q-42 11 -82.5 16t-78.5 5q-64 0 -108.5 -10t-73 -31t-42 -55.5t-13.5 -82.5v-46h380v75q0 37 4.5 69t13.5 60z" />
<glyph unicode="&#xfb01;" horiz-adv-x="1432" d="M786 0v202q32 9 66.5 15.5t69.5 9.5v550h-383v-550q35 -3 69.5 -9.5t66.5 -15.5v-202h-626v202q40 9 86 15.5t92 9.5v550h-193v241h193v31q0 133 45 222.5t123.5 143.5t183.5 77t226 23q92 0 185 -10.5t176 -30.5l-57 -258q-33 9 -70 16.5t-75 12.5t-75.5 8t-69.5 3 q-80 0 -134 -13.5t-86.5 -39t-46 -62.5t-13.5 -83v-40h695v-791q43 -3 84.5 -9.5t77.5 -15.5v-202h-610z" />
<glyph unicode="&#xfb02;" horiz-adv-x="1432" d="M786 0v202q32 9 66.5 15.5t69.5 9.5v1024q-34 6 -72.5 8t-69.5 2q-65 0 -111 -13t-75 -37.5t-42 -61t-13 -82.5v-49h215v-241h-215v-550q35 -3 69.5 -9.5t66.5 -15.5v-202h-626v202q40 9 86 15.5t92 9.5v550h-193v241h193v53q0 112 32 195.5t103 138.5t185.5 82.5 t277.5 27.5q92 0 198 -10t211 -26v-1252q44 -3 85 -9.5t77 -15.5v-202h-610z" />
<glyph unicode="&#xfb03;" horiz-adv-x="2122" d="M1477 0v202q31 9 66 15.5t70 9.5v550h-382v-550q34 -3 68.5 -9.5t66.5 -15.5v-202h-583v202q32 9 66.5 15.5t69.5 9.5v550h-380v-550q35 -3 69.5 -9.5t66.5 -15.5v-202h-626v202q40 9 86 15.5t92 9.5v550h-193v241h193v31q0 110 29 194t91 141.5t159 87t235 29.5 q50 0 103 -4t104.5 -11.5t101 -17.5t92.5 -23q65 33 153 50.5t201 17.5q91 0 184.5 -9.5t175.5 -29.5l-56 -258q-33 9 -70 16.5t-75 12.5t-75 7.5t-70 2.5q-79 0 -133 -13t-86.5 -38.5t-46 -62.5t-13.5 -83v-40h693v-791q43 -3 85 -9.5t78 -15.5v-202h-610zM944 1212 q-18 7 -39.5 13t-45 9.5t-48.5 6t-49 2.5q-58 0 -100 -10t-69.5 -31t-40.5 -55.5t-13 -82.5v-46h380v35q0 43 6.5 86.5t18.5 72.5z" />
<glyph unicode="&#xfb04;" horiz-adv-x="2122" d="M1477 0v202q31 9 66 15.5t70 9.5v1024q-15 2 -32 4t-36 3.5t-37.5 2t-36.5 0.5q-65 0 -111 -13t-74.5 -37.5t-41.5 -61t-13 -82.5v-49h215v-241h-215v-550q34 -3 68.5 -9.5t66.5 -15.5v-202h-583v202q32 9 66.5 15.5t69.5 9.5v550h-380v-550q35 -3 69.5 -9.5t66.5 -15.5 v-202h-626v202q40 9 86 15.5t92 9.5v550h-193v241h193v31q0 110 29 194t91 141.5t159 87t235 29.5q50 0 102 -4t103.5 -11.5t100 -17t91.5 -22.5q66 34 158 50.5t221 16.5q91 0 198 -9t209 -25v-1252q43 -3 85 -9.5t78 -15.5v-202h-610zM940 1214q-18 7 -38.5 12.5t-44 9 t-48 5.5t-47.5 2q-58 0 -100 -10t-69.5 -31t-40.5 -55.5t-13 -82.5v-46h380v53q0 42 6.5 80.5t14.5 62.5z" />
<glyph horiz-adv-x="1966" d="M1802 1169q0 -8 -4 -8q-22 3 -43 0.5t-43 -4.5q-35 -2 -61 -3t-47.5 -2.5t-39.5 -3.5t-36 -5q-8 -7 -10.5 -15.5t-3.5 -17t-2 -17.5t-5 -18q0 -9 3.5 -16t5.5 -15q5 -6 12.5 -9t15.5 -5q14 2 27.5 8t19.5 19q0 8 -4 13.5t-10 10.5q-5 4 -10.5 5t-11 1t-10.5 1.5t-9 7.5 q6 10 19.5 8t25.5 -2q11 -3 18.5 -12t12.5 -21q-2 -17 -12 -30.5t-25 -24.5q-11 -3 -21.5 -5t-21.5 -5q-25 6 -51 16t-41 33q-4 12 -3.5 23t2 22t4 22t3.5 23q-5 9 -13.5 7.5t-17.5 0.5l-67 -2q0 3 -2.5 4t-2.5 4q7 5 15 4.5t14 1.5q19 -3 39 -1.5t39 1.5q8 6 9 16t1 19 q6 14 7 32.5t12 29.5q5 3 9 2t7 -4t6 -7t6 -6q6 -8 6.5 -16.5t0.5 -18.5v-20t4 -19q4 -6 9.5 -7.5t11.5 -1l12 1t12 -0.5q24 1 48 1.5t52 1.5t60 3t71 7q3 -2 4.5 -2.5t3.5 -4.5zM1327 1028q-25 0 -52.5 -1t-51.5 -9q-8 3 -15 5t-12 11q5 28 7.5 57.5t-5.5 57.5 q-5 6 -13.5 0.5t-15.5 -8.5q-14 -9 -28 -19t-26 -22t-20 -26.5t-10 -31.5q-8 -8 -18.5 -11.5t-19.5 1.5q-6 7 -6.5 15t0 16t1.5 16.5t-2 16.5l-2 63q-6 6 -16 3.5t-21 0.5q-2 1 -6 1.5t-7.5 1t-6 2t-2.5 6.5q26 -2 52.5 2.5t53.5 -0.5q6 -6 6.5 -14t0 -16.5t1.5 -15.5 t11 -10q28 13 53.5 30t52.5 28q6 -4 14 -4h15t12.5 -2.5t8.5 -12.5q5 -22 3.5 -43.5t0.5 -44.5q3 -6 2.5 -12.5t5.5 -11.5q8 -2 14 -3t12 3q8 0 16 -2.5t19 -2.5q2 -2 2.5 -4.5t-2.5 -5.5zM915 1145q8 -38 -14 -64q-11 -7 -21 -15.5t-20 -16.5t-21 -14t-24 -7q-6 2 -9 -0.5 t-5 -6t-4.5 -5.5t-8.5 2q-11 8 -24.5 4t-26.5 -2q-12 0 -22 0.5t-21 5.5q-8 7 -16 14.5t-14.5 16.5t-9 20t2.5 23q7 18 18.5 34t31.5 27q21 11 44.5 22t51.5 5q16 -1 33 -2.5t32 -6t27 -12.5t20 -22zM926 1360q-11 -13 -27.5 -17.5t-32.5 0.5q-9 13 -17.5 24.5t-10.5 25.5 q-13 21 -31.5 32.5t-40 18.5t-44.5 11.5t-44 10.5l-64 4q-5 -5 -12.5 -3t-13.5 -1q-35 -11 -61.5 -20.5t-51.5 -22.5q-6 -8 -15 -14t-17 -12.5t-15 -14.5t-8 -20q-13 -31 -17 -69.5t-6 -73.5q10 -8 22 -5.5t23 0.5q44 5 87 5h89q4 -2 4.5 -7t-1.5 -8q-9 -6 -16.5 -5t-15.5 4 t-15.5 5.5t-16.5 -0.5q-20 2 -42 -1t-42 -1q-18 -3 -38 -4t-36 -10l-6 -8q-2 -19 -2 -34v-29.5t1 -30t3 -35.5q1 -7 0.5 -14.5t-0.5 -14.5t1.5 -14.5t6.5 -14.5q26 -2 41.5 -1.5t29 2t29.5 3.5t42 3q6 5 13 2t13 -5q2 -2 1 -4t1 -4l-8 -4q-24 4 -42.5 3.5t-37.5 -3t-41 -4.5 t-53 0q-22 -2 -46.5 -4t-47.5 0q-32 -2 -67 -2t-64 8l-4 6q3 3 8 6t10 5q16 -8 37 -10t43 -5q14 2 28 1t25 7q-1 26 2 49t6.5 45t8 45.5t6.5 51.5q-2 4 -6 8q-31 1 -59 -0.5t-56 10.5q-2 5 0.5 8t5.5 3q28 -8 57.5 -8.5t57.5 1.5l4 7q5 34 11.5 70.5t19.5 64.5v6 q46 54 107 86.5t136 40.5q38 5 75 -4t69 -23q9 -3 20 -3t21 -5q35 -8 69.5 -24.5t57.5 -47.5q3 -3 2.5 -8t-2.5 -10zM1571 -127q-23 1 -48.5 -1t-52 -4.5t-51.5 -4t-47 1.5q-57 2 -112.5 -1t-110.5 -7t-110 -5t-111 5q-51 -8 -99 -3.5t-98 9.5q-60 5 -122.5 3.5t-125.5 -1.5 q-21 0 -47.5 -0.5t-54.5 -2.5t-54.5 -5t-47.5 -9q-8 -2 -17 -1.5t-14 10.5q0 32 -2.5 66.5t8.5 66.5q3 40 1.5 81.5t4.5 82.5q-4 23 -3.5 45.5t2 45t2.5 45.5t-3 46q0 66 5.5 132.5t8.5 135.5q5 74 2 146.5t0 146.5q4 9 10.5 11t13.5 2t15 -0.5t15 1.5q8 -5 18 -5.5 t19.5 0.5t19.5 2.5t18 0.5q7 7 16 11.5t11 -9.5q3 -5 0.5 -12t5.5 -12q-4 -29 -3 -78.5t4 -107t7 -117t7 -109.5q32 10 61.5 25t58 31.5t57 32t60.5 26.5q11 5 20 12t23 12q3 2 8 7t13 0q10 -5 8 -15.5t-2 -19.5q-10 -28 -12.5 -61t2.5 -64q5 -9 13.5 -5.5t14.5 3.5 q17 14 35 23t35 22q20 12 41 23.5t43 19.5q25 17 48.5 33.5t49.5 25.5l41 33q3 8 12 14q7 0 12 -3.5t11 -8.5q0 -29 6 -58.5t6 -58.5q2 -6 6 -4.5t6 -3.5q8 -11 3.5 -21.5t-7.5 -19.5l4 -4q35 8 65 26.5t59.5 39t59 39t64.5 26.5q10 9 22 12.5t23 14.5q10 1 19 8.5t18 14 t19 8.5t22 -7q3 0 7.5 -1.5t6.5 -6.5q-2 -8 2 -13t7 -11q-2 -8 -1.5 -15.5t1 -14t0.5 -13.5t-4 -13q1 -13 0 -26t-1 -25.5t2.5 -24t8.5 -22.5q-2 -7 0.5 -13t4.5 -12t2.5 -11.5t-3.5 -10.5q2 -16 0.5 -29.5t7.5 -25.5q2 -10 3 -19.5t-5 -17.5q5 -23 5.5 -47.5t8.5 -47.5 q-5 -8 -2.5 -16t2.5 -16q0 -39 3.5 -76t8 -74t8.5 -74.5t5 -76.5q0 -3 2.5 -8.5t-0.5 -10.5zM870 1104q-5 22 -16 43.5t-37 26.5q-3 -11 -12.5 -8.5t-16.5 1.5q-14 7 -28.5 3t-24.5 -15q-11 -15 -11.5 -30t5 -29.5t14 -28.5t17.5 -27q3 -8 9.5 -6t14.5 0q14 -5 26.5 2.5 t25.5 12.5q6 6 13.5 11.5t13.5 11.5t8.5 13.5t-1.5 18.5zM1513 -20l-16 34t-20 31q-13 22 -27.5 42t-17.5 46q-5 9 -10.5 17.5t-2.5 17.5q14 17 34 27.5t34 25.5l-19 35q-18 -2 -33 -8.5t-30 -11.5q-4 -3 -8.5 -7t-9.5 -6.5t-10.5 -2.5t-10.5 5q2 41 3 81.5t-1 78.5l-4 6 q-16 0 -28.5 5t-26.5 10q-3 -23 -6.5 -48.5t0.5 -50.5q-3 -8 -3 -18.5t1 -21t1 -21t-4 -19.5q2 -32 0.5 -57t-3 -49t-2 -49t2.5 -56l-2 -14h49q7 2 13.5 -2t11.5 2v28t-2 29q1 8 -1.5 17t-3.5 17t1.5 14.5t13.5 9.5q11 -5 11.5 -14t7.5 -17q-1 -7 1.5 -13t6 -11.5l7 -11 t5.5 -11.5q10 -6 17 -14.5t13.5 -18t13.5 -19t16 -16.5q6 2 11.5 -2.5t14.5 -1.5q5 0 8.5 4t3.5 9zM1245 367q-3 9 -8 17t-16 13q-5 5 -11.5 6t-9.5 -6q-9 -12 -13 -30.5t5 -30.5q3 -11 15.5 -12t23.5 4q9 6 12.5 17t1.5 22zM1249 31q0 40 -2 79t-2 76q0 14 1.5 27.5 t-1.5 26.5q-7 5 -14 5.5t-14 -1t-14.5 -3.5t-14.5 -1q-7 -12 -9 -24.5t-1.5 -25.5t1 -26.5t-0.5 -26.5q-5 -11 -5 -25t-2 -28q3 -10 2.5 -21.5t-0.5 -23.5t2 -23.5t9 -21.5q15 0 31 2.5t30 7.5q3 6 3.5 13.5t0.5 13.5zM1147 252q-16 -2 -33.5 -5t-28.5 -22q-4 -4 -5.5 -10.5 t-4 -13t-7 -10t-13.5 -1.5q-5 16 -4.5 29.5t0.5 30.5q-4 2 -8 1.5t-8 -1.5t-7.5 -1.5t-7.5 1.5q-9 -5 -14.5 -12t-8.5 -15q0 -60 1 -114t8 -113l6 -8q5 -4 11.5 -4t13 1t12 2t10.5 -1q-3 11 -2.5 21.5t1.5 21t1 20.5t-4 21q5 23 11 46.5t21 43.5q13 9 27 12t27 14 q2 17 6.5 33t-0.5 33zM938 61q9 18 12 36t1.5 37t-5.5 38t-8 39q1 6 -5.5 11.5t-15.5 11t-18 9.5t-12 7t-9 3.5t-8 -5.5q-22 3 -39 -8q-11 -7 -15.5 -16.5t-12.5 -14.5q-5 -3 -10.5 -1t-8.5 7q8 37 4 75t-10 77l-4 14h-16q-9 -3 -12.5 -9t-4 -13.5t-0.5 -15t-2 -13.5 q-6 -34 -4 -69.5t-4 -70.5q3 -34 0 -67t0 -64q0 -18 -3 -35.5t-1 -37.5q14 -8 32 -2t32 12q10 4 16.5 1.5t11.5 -8t10 -12t11 -10.5h13t13 2q11 6 24 17t24 23.5t18 26t6 25.5zM682 70q-7 22 -6.5 45t1 45t-1.5 43.5t-13 40.5q-26 15 -48 24l-16 11q-9 -2 -17.5 -1.5 t-17 0.5t-17 -2t-16.5 -8q-14 -8 -14 -22.5t-2 -30.5q11 -5 24 -3.5t25.5 2.5t23.5 -1.5t19 -15.5q-1 -4 0.5 -7l3 -6t1.5 -5.5t-3 -6.5q-2 -3 -2.5 -8t4.5 -8q3 -5 1.5 -11t-7.5 -8q-14 -5 -28 -4t-29 -2q-23 -9 -34.5 -31.5t-16.5 -44.5q-3 -5 -3 -10.5t1 -11t1.5 -11 t-3.5 -10.5q0 -14 9.5 -22t20.5 -13q3 4 7.5 7t9.5 -2q8 -3 15.5 0t14.5 8.5t14 12t15 11.5q11 2 13 -2t1.5 -11t-1 -15t4.5 -13q10 -5 17 -0.5t16 4.5q8 4 16.5 5.5t14.5 7.5zM508 371q-25 5 -53 3.5t-54 -3.5q-15 -2 -29.5 -5.5t-25.5 -11.5q-2 -32 -6.5 -66.5t-7.5 -66.5 q5 -54 3 -111.5t1 -113.5q8 0 15 2.5t14 -0.5q12 3 23 -1.5t24 1.5q2 32 2 64.5t2 64.5q5 11 14 15.5l19 9.5q4 2 8 1.5l8 -1t7.5 0t6.5 5.5l-2 57q-8 9 -19 8.5t-24 -0.5q-3 -3 -6 -5.5t-8 -2.5q-8 1 -11 6.5t-4 12t-1 14t-3 12.5q-3 6 0.5 11t8.5 10q20 6 39.5 9.5 t39.5 6.5l13 8q-3 19 1.5 34t4.5 32zM881 158q14 -29 7.5 -60t-26.5 -53q-5 -8 -11.5 -9.5t-12.5 -4.5q-13 1 -19.5 8.5t-9.5 17.5t-4.5 21t-3.5 20q5 16 6 34t10 32q7 4 11.5 10l9 12t9.5 10.5t13 4.5l6 -6q-2 -7 -0.5 -12t5 -8.5t6.5 -7.5t4 -9zM604 86q0 -15 -9 -26.5 t-20 -20.5q-8 -2 -15.5 -8t-18.5 0q-7 1 -9 5.5t-1 9.5t3 11t3 11q0 6 5 11.5t13 8.5q12 0 20 8q7 -2 15.5 -1.5t13.5 -8.5z" />
<glyph horiz-adv-x="2322" d="M1890 -70q-9 -12 -22.5 -16.5t-28 -6t-28.5 -4t-25 -9.5q-17 -2 -33.5 -4.5t-31.5 -8.5t-27 -16.5t-19 -28.5q-8 -21 -19.5 -40.5t-21.5 -39.5t-15.5 -41.5t-0.5 -46.5q2 -9 8.5 -12.5t14.5 -4t16 1t14 3.5q4 0 7 3l6 6t7 4.5t9 -1.5q9 -6 1 -12.5t-11 -13.5 q-17 -11 -37.5 -15.5t-40.5 4.5q-16 16 -24.5 34t-2.5 40q1 8 5 19.5t12.5 29.5t21.5 43t33 60q-16 7 -32 6t-32.5 -4.5t-32.5 -5.5t-32 4q9 12 25 17.5t30 10.5q13 3 28 3t29 1.5t26 6.5t20 18q7 11 8.5 22.5t1.5 23t-1 24t1 24.5q-11 3 -10.5 11.5t0.5 13.5 q-12 23 -30 34.5t-40 17t-44.5 6t-43.5 1.5q-23 -2 -45 -11t-41 -23.5t-34 -33t-23 -38.5q-14 -32 -11 -65.5t17 -67.5q-4 -25 5.5 -47t20 -44.5t16 -46t-6.5 -51.5q-11 -9 -26 -8t-28 6q-14 7 -21 19t-10.5 26.5t-6 29t-7.5 27.5q9 6 11.5 15.5t3.5 19.5t2.5 19.5t7.5 17.5 q3 11 1.5 27t-15.5 22q-18 -2 -38 -2.5t-39.5 -2t-37.5 -6.5t-33 -17q2 -22 5 -45.5t2 -46t-9.5 -42t-28.5 -34.5q-12 -3 -24 -0.5t-25 8.5q-11 9 -14.5 20t-4 23.5t1 25.5t1.5 25q7 15 14.5 32t16.5 32.5t21 28t30 18.5q15 -10 33.5 -6.5t33.5 8.5l101 2q4 4 6 11t2.5 14 t1 14.5t2.5 13.5q9 29 26 56.5t39.5 48.5t50.5 35t60 16q34 3 67 1t64 -18q1 -11 8 -16.5t15 -10t15 -10t9 -16.5q9 -15 12 -32.5t2 -35.5t-5 -36.5t-7 -34.5q47 0 91.5 8t86.5 16zM1059 -111q-9 -6 -17 -3t-16.5 7.5t-17 7.5t-17.5 -3q-14 -9 -19.5 -22t-9 -26.5 t-7.5 -26.5t-13 -24q-3 -28 -9.5 -54t-6.5 -52q-6 -3 -12.5 -7t-16.5 -1q-6 7 -7 17t0.5 19.5t3.5 19t1 17.5q8 9 10 21t2 24t0.5 23.5t6.5 21.5q-7 11 -6 26.5t-3 25.5q-5 1 -8.5 -0.5t-6.5 -3.5t-7 -2.5t-8 4.5q3 12 10 20t18 16q17 0 25 -12t14 -24q8 3 15 12t15 16 t16.5 9t19.5 -9zM787 -18q-1 -51 1.5 -103t4 -103.5t-1 -101.5t-14 -97t-34 -90t-61.5 -81q-65 -40 -143.5 -49.5t-153.5 10.5q-8 5 -16 12.5t-8 16.5q5 20 12.5 40.5t32.5 28.5q-6 -17 -14 -33t-11 -34q26 -17 59.5 -23t68.5 -3.5t69 12t61 24.5q29 10 46 28.5t28 41 t18.5 47t18.5 45.5q6 36 9 75.5t4.5 79t0.5 76.5t-2 68q4 11 3.5 23.5t-2 25.5t-2.5 25.5t1 23.5q-3 11 -12 7.5t-13 -5.5q-8 -8 -13 -17t-9.5 -18t-9.5 -17.5t-13 -14.5q3 -15 -4 -24t-16 -16.5t-17 -15.5t-8 -22q-42 -47 -77.5 -95t-69.5 -98q-8 -12 -14.5 -24t-22.5 -10 q-10 13 -11.5 28.5t0.5 31t4 32t-1 32.5q10 34 18.5 72t34.5 72q19 49 52.5 97t82.5 79q14 4 26.5 2t24 -7.5t22 -13t21.5 -14.5q10 11 16 24t9 25q25 -9 25 -41q-6 -5 -6 -8.5t2 -7.5t3.5 -8.5t0.5 -9.5zM1448 428q-36 -5 -71 -16t-69.5 -21t-69.5 -16.5t-72 -3.5 q-7 -6 -10.5 -23t-1.5 -33.5t11 -26.5t27 -3q6 8 9 23t16 20q9 -19 2.5 -36.5t-19.5 -31.5q-6 -4 -21 -4.5t-29.5 8.5t-23.5 31.5t-4 64.5q-5 7 -10 13.5t0 15.5q12 9 17.5 20t7.5 23t3 25t3 26q-3 2 -4 4.5t-4 4.5q-18 -12 -30.5 -27.5t-23 -32t-21 -33.5t-24.5 -32 q0 -15 -8 -26.5t-17.5 -22.5t-16 -23.5t-3.5 -28.5q-6 -6 -6.5 -15.5t-1.5 -19.5t-5.5 -17.5t-18.5 -8.5q-18 4 -24 15t-6.5 24.5t1.5 28t0 26.5q-3 19 -1.5 36.5t3.5 34.5t3.5 33.5t-1.5 34.5q-9 -5 -14 -13t-9 -16.5t-8.5 -17.5t-11.5 -16q-10 -12 -19 -28.5t-20 -30.5 t-25.5 -22t-35.5 -3q-12 17 -13 35.5t4.5 38t15 38t19.5 35.5q9 10 19 23.5t22 24t25.5 15.5t30.5 -1q10 -5 20 0q19 43 28.5 90.5t12.5 93.5l21 16q13 -4 14.5 -10.5t-1 -14t-6 -16t-1.5 -16.5q-8 -57 -19 -113t-16 -112q-1 -15 -3.5 -30t-4 -29.5t-1.5 -29.5t5 -30 q16 21 31 45t30.5 49t33.5 49t40 45q25 36 65 62q16 -13 31 -29.5t31 -27.5q0 -19 -2.5 -41.5t2.5 -40.5q56 12 106 20.5t103 24.5q8 -5 12 -10.5t2 -16.5zM2130 1190q-2 29 -10 60t-23 59t-37 51t-53 37q12 18 25.5 16.5t25.5 -12t22.5 -25.5t18.5 -24q32 -39 46.5 -85.5 t15.5 -95.5t-10 -98t-29 -94q-15 -35 -36 -68t-48 -62t-59.5 -52.5t-69.5 -38.5q28 20 54 43.5t44 54.5q16 16 32 34t29.5 38t23.5 43t14 49q24 40 26.5 83.5t-2.5 86.5zM1946 983q-6 -15 -18.5 -30.5t-30.5 -20.5q-16 5 -24 13.5t-17 21.5l4 28q5 -2 6.5 -6t3 -9t3.5 -10 t9 -7q11 -4 19.5 6t13.5 16q8 47 1 92.5t-32 85.5l-12 -6q-25 -23 -46.5 -42t-35.5 -50l-16 -8q-28 -28 -49 -60t-45 -55q-12 -2 -18 3.5t-8.5 13.5t-3.5 17.5t-5 16.5q3 8 1.5 18.5t-7.5 16.5q-6 1 -9 -1.5t-4.5 -6t-3 -7.5t-4.5 -5q-15 -16 -29.5 -23.5t-35.5 -9.5 q-23 6 -28.5 18t-3.5 28t8 34t5 35q8 30 26.5 53.5t41.5 48.5q10 2 21.5 6.5t23 6t22 -1.5t19.5 -15l8 -12q-12 -35 -15 -73t-8 -75q2 -6 5.5 -13t11.5 -7q12 0 18 5.5t10 13t8 16t11 14.5q45 38 83.5 78.5t76.5 81.5q13 -5 17 -16t5.5 -24t2.5 -25.5t7 -21.5q11 -5 7 -16 q15 -31 15 -64t-5 -67zM1667 1384q-6 -11 -19.5 -20.5t-29.5 -7.5q-3 6 -8 13.5t-16 -1.5q-29 -23 -58.5 -47.5t-55 -51.5t-45.5 -57.5t-32 -64.5q-7 -42 -10.5 -86.5t2 -87.5t23 -80.5t53.5 -65.5q10 -8 21 -10.5t23 -2.5t25 1t25 0q12 8 21 17.5t22 17.5q1 -9 -3 -15.5 t-11 -11.5t-15 -9.5t-14 -10.5q-31 -13 -66.5 -5t-60.5 29q-22 20 -36 43.5t-19 51.5q-10 4 -10.5 9.5t1.5 12t3 12.5t-7 11q4 7 2.5 14t-4.5 14.5t-4 15.5t4 17q-2 61 17.5 114t52.5 98.5t76 85.5t88 75q7 1 18 3.5t20.5 2.5t17 -4.5t9.5 -18.5zM1292 1020q-14 -34 -45 -60 t-71 -26q-41 0 -77 15.5t-54 49.5q-16 23 -16 49t5 54q2 9 6.5 16.5t9 14t8.5 14t5 16.5q28 23 62 30t69 -5q7 -6 15.5 -9t7.5 -16q-3 -4 -6.5 -3t-7.5 3.5t-9 5t-10 2.5q-28 8 -54.5 -1.5t-47.5 -30.5q-16 -25 -24.5 -54.5t3.5 -58.5q44 -60 111 -70q9 4 19.5 5.5t20.5 3 t19.5 6t17.5 14.5q6 4 10.5 11.5t9 14t10 10t13.5 -0.5zM977 963q-11 -25 -18.5 -50.5t-26.5 -48.5q-14 -6 -25.5 1t-17.5 20q-15 35 -21 75t1 78q-3 2 -2 17t2.5 33.5t1 36t-6.5 26.5q-13 -31 -14 -63.5t-1.5 -64t-7.5 -62t-32 -56.5q-3 -3 -14 -6t-24.5 2.5t-26.5 23.5 t-19 58q6 38 8 74t9 73q1 7 -1 14.5t-3.5 15t-0.5 15t9 13.5q6 3 13.5 0.5t12.5 -8.5q1 -32 -2 -65.5t-5.5 -65t-1 -59.5t12.5 -48q15 -10 21.5 -4t10 18t5 25t6.5 18q4 21 5 43t1.5 43.5t2.5 43t8 42.5q5 6 9 15.5t9 17t12 10t19 -5.5q14 -40 15 -78.5t-0.5 -76.5t-1 -77 t13.5 -79q2 -6 9 -8t13 6q1 1 4.5 11.5t9 23t13 23t16.5 10.5zM658 901q-4 -3 -8.5 -7t-20.5 -8.5t-49 -9.5t-94 -10q-70 -6 -133 -17.5t-128 -33.5q-5 -11 -12.5 -14t-15 -2t-15.5 5l-14 7q-2 9 2.5 15t11 11t12 10t7.5 13q12 25 21.5 49.5t17.5 48.5q-3 13 4.5 27t13.5 27 q45 103 86 208.5t66 217.5q-3 12 -2.5 23.5t8.5 19.5q12 4 16 -4.5t11 -14.5q-14 -79 -41 -153.5t-57.5 -147t-60.5 -146t-50 -151.5l4 -4q76 13 148.5 27t154.5 16q25 -5 55.5 -4t54.5 10zM1397 -315q12 26 3.5 56.5t-24.5 53.5q-9 -12 -11.5 -26.5t-4.5 -28.5 q3 -17 9 -34.5t28 -20.5zM1122 -188q-5 -23 -7.5 -48t5.5 -47q6 -6 17 -5.5t20 7t13.5 18t-2.5 27.5q2 9 4.5 23t2 27t-5.5 23.5t-18 12.5zM713 -12q-3 11 -11.5 17.5t-19 8.5t-22.5 1t-21 -5q-22 -18 -43.5 -38.5t-38.5 -43.5q-10 -32 -24 -62t-26.5 -60.5t-19.5 -62.5 t-3 -67q6 -2 7.5 2t4.5 7q28 37 59.5 72t61.5 71.5t55.5 75.5t40.5 84zM1178 426q2 5 5 13t3.5 15.5t-2 13t-10.5 7.5l-11 -59q11 2 11.5 4.5t3.5 5.5zM895 471q-14 3 -26.5 -6.5t-20.5 -22.5q-11 -14 -21.5 -29.5t-17.5 -32t-9 -33.5t5 -34q11 -5 15 1.5t8 13.5 q21 23 39 47t32 55zM1647 1178q-5 4 -8.5 2.5t-6 -4l-5 -5t-5.5 -0.5q-23 -11 -38 -29.5t-23.5 -40.5t-12 -46t-2.5 -47q7 -2 13 1t12 7t12 6.5t13 1.5q5 14 17 29t21 31.5t11.5 33t-11.5 33.5q6 0 9 3t4 7.5t0.5 9t-0.5 7.5z" />
<glyph horiz-adv-x="920" d="M739 1454l-280 107l-283 -107l-65 154l354 174l344 -170z" />
<glyph horiz-adv-x="1016" d="M905 1661q-49 -89 -118 -134.5t-156 -45.5q-48 0 -83.5 12t-76 37t-56 33t-40.5 8q-35 0 -61 -20.5t-52 -63.5l-151 102q49 89 118 134.5t156 45.5q48 0 83.5 -12t76.5 -37t56 -33t40 -8q35 0 61 20.5t52 63.5z" />
<glyph horiz-adv-x="836" d="M725 1767q0 -60 -19.5 -114t-59 -95t-97.5 -64.5t-133 -23.5q-74 0 -131.5 23.5t-96 65t-58 95t-19.5 113.5h180q0 -23 9 -43t26 -35t40.5 -23.5t51.5 -8.5q29 0 52.5 8.5t40 23.5t25.5 35t9 43h180z" />
<glyph horiz-adv-x="584" d="M473 1636q0 -37 -14 -70t-39.5 -57.5t-58.5 -38.5t-70 -14t-70 14t-58 38.5t-38.5 57.5t-13.5 70t13.5 70.5t38.5 59t58 39.5t70 14t70 -14t58.5 -39.5t39.5 -59t14 -70.5z" />
<glyph horiz-adv-x="811" d="M700 1704q0 -58 -23 -106t-64.5 -82t-97.5 -52t-122 -18q-67 0 -119.5 14.5t-88.5 44t-55 74t-19 104.5q0 59 22.5 107t64 82t97.5 52t121 18q68 0 120.5 -14.5t89 -43.5t55.5 -74t19 -106zM498 1694q0 27 -5.5 46.5t-17 31.5t-28.5 18t-39 6q-21 0 -38.5 -6.5t-30 -19.5 t-19.5 -32t-7 -42q0 -28 5.5 -47.5t17 -32.5t28.5 -19t39 -6q21 0 38.5 7t30 20t19.5 32.5t7 43.5z" />
<glyph horiz-adv-x="655" d="M545 1571l-252 -391l-182 92l211 409z" />
<glyph horiz-adv-x="764" d="M739 1321q0 -33 -12.5 -62.5t-34.5 -52t-51.5 -35t-62.5 -12.5t-62.5 12.5t-52 35t-35 52t-12.5 62.5q0 32 12.5 61.5t35 52.5t52 35.5t62.5 12.5t62.5 -12.5t51.5 -35t34.5 -52t12.5 -62.5zM346 1321q0 -33 -12.5 -62.5t-35 -52t-52 -35t-62.5 -12.5t-62.5 12 t-51.5 34.5t-34.5 52t-12.5 63.5q0 32 12.5 61.5t35 52.5t52 35.5t61.5 12.5q33 0 62.5 -12.5t52 -35t35 -52t12.5 -62.5z" />
<glyph horiz-adv-x="1438" d="M1433 -439q-97 -17 -175 -16.5t-144 9.5t-125 22t-119.5 24t-127 14.5t-148.5 -6.5v278q96 11 170 8t137 -13t120.5 -22.5t119.5 -22t132.5 -10.5t159.5 13v-278zM1381 716q0 -172 -54 -309.5t-147.5 -233.5t-219 -148t-266.5 -52q-160 0 -279.5 48.5t-199 138.5 t-119 218.5t-39.5 288.5q0 171 54 308.5t147.5 233.5t218.5 148t267 52q159 0 278.5 -48.5t199.5 -138.5t119.5 -218.5t39.5 -287.5zM1043 682q0 101 -19.5 182t-59.5 138t-100.5 86.5t-142.5 29.5q-71 0 -131.5 -27t-103.5 -80t-67 -130.5t-24 -179.5q0 -101 20 -182 t59.5 -137.5t100 -86.5t142.5 -30q72 0 132 27t103 80t67 131t24 179z" />
</font>
</defs>
</svg>
