<?xml version="1.0" standalone="no"?>
<!DOCTYPE svg PUBLIC "-//W3C//DTD SVG 1.1//EN" "http://www.w3.org/Graphics/SVG/1.1/DTD/svg11.dtd" >
<svg xmlns="http://www.w3.org/2000/svg">
<metadata>
Copyright   : Copyright 2014 Luc(as) de Groot. All rights reserved. Published by LucasFonts.com
Designer    : Luc(as) de Groot
Foundry     : LucasFonts
Foundry URL : http://lucasfonts.com
</metadata>
<defs>
<font id="TheSerif_500i" horiz-adv-x="1126" >
<font-face units-per-em="2048" ascent="1516" descent="-532" />
<missing-glyph horiz-adv-x="446" />
<glyph unicode="fi" horiz-adv-x="1221" d="M118 1018h202l8 48q39 222 173.5 332t370.5 110q40 0 77.5 -2.5t72.5 -7.5t67.5 -11.5t65.5 -15.5l-62 -154q-25 9 -55 16.5t-61 12.5t-61 8t-56 3q-76 0 -135.5 -18t-102.5 -52.5t-70 -85.5t-39 -118l-13 -65h617l-166 -874q37 -6 80.5 -11.5t83.5 -8.5l-21 -109 q-37 -5 -80.5 -8.5t-90 -6t-93 -2.5t-88.5 1l166 876h-436l-177 -926q-23 -124 -64 -213.5t-99 -146t-133 -83.5t-169 -27q-44 0 -89.5 5t-87.5 14l44 156q34 -10 73 -15t73 -5q56 0 98 15.5t74.5 51.5t56.5 95.5t42 148.5l178 930h-201z" />
<glyph unicode="fl" horiz-adv-x="1219" d="M948 144q33 -6 78 -11.5t86 -8.5l-20 -109q-38 -5 -81.5 -8.5t-89.5 -6t-92.5 -2.5t-89.5 1l256 1345q-46 8 -87.5 11.5t-79.5 3.5q-135 0 -209.5 -57.5t-98.5 -181.5l-20 -102h255l-29 -143h-254l-177 -926q-23 -124 -64 -213.5t-99 -146t-133 -83.5t-169 -27 q-44 0 -89.5 5t-87.5 14l44 156q34 -10 73 -15t73 -5q56 0 98 15.5t74.5 51.5t56.5 95.5t42 148.5l178 930h-201l27 143h202l21 112q18 93 58 163.5t103.5 118t150 72t195.5 24.5q88 0 176.5 -7.5t175.5 -21.5z" />
<glyph unicode="fb" horiz-adv-x="1763" d="M1701 729q0 -95 -16.5 -186.5t-51 -175t-86.5 -153.5t-123.5 -121.5t-162.5 -80t-200 -28.5q-87 0 -166 8.5t-153 24.5l253 1327q-43 7 -85 11t-80 4q-136 0 -210.5 -57.5t-98.5 -181.5l-20 -102h253l-28 -143h-253l-178 -926q-24 -125 -64.5 -214.5t-98.5 -146t-133 -83 t-169 -26.5q-44 0 -89.5 5t-87.5 14l44 156q34 -10 73 -15t73 -5q56 0 98 15.5t74.5 51.5t56.5 95.5t42 148.5l178 930h-203l30 143h201l21 112q18 93 58.5 163.5t104 118t150 72t195.5 24.5q89 0 178 -7.5t174 -21.5l-91 -479q-5 -29 -13 -61.5t-21 -76.5t-32 -105 t-47 -149l4 -1q40 94 89.5 172t109 136t128.5 90.5t145 32.5q112 0 170 -75.5t58 -233.5zM1514 695q0 49 -7 84.5t-21 57.5t-33 32.5t-43 10.5q-47 0 -95 -30t-94 -82t-87.5 -118.5t-75.5 -139.5t-58 -144.5t-36 -131.5l-18 -86q36 -10 70.5 -14.5t76.5 -4.5 q73 0 133.5 23.5t107.5 65.5t81 97.5t56 119t32.5 129.5t10.5 131z" />
<glyph unicode="fh" horiz-adv-x="1847" d="M1579 144q17 -3 36.5 -6.5t41 -6t43 -4.5t42.5 -3l-20 -110q-39 -5 -82.5 -8t-88.5 -5.5t-90.5 -2.5t-88.5 1l125 653q22 118 0.5 173t-90.5 55q-45 0 -93 -29.5t-93.5 -81.5t-87 -118.5t-76 -140t-59 -146t-36.5 -135.5l-43 -229h-180l256 1344q-44 7 -86 11t-81 4 q-135 0 -209.5 -57.5t-98.5 -181.5l-20 -102h255l-29 -143h-254l-177 -926q-23 -124 -64 -213.5t-99 -146t-133 -83.5t-169 -27q-44 0 -89.5 5t-87.5 14l44 156q34 -10 73 -15t73 -5q56 0 98 15.5t74.5 51.5t56.5 95.5t41 148.5l179 930h-203l29 143h202l21 112 q18 93 58 163.5t103.5 118t150 72t195.5 24.5q89 0 178.5 -7.5t173.5 -21.5l-88 -461q-6 -32 -14 -67.5t-20.5 -81.5t-32 -108t-46.5 -143l4 -2q38 85 86 160.5t107 134.5t129 93t147 34q70 0 118 -24t74 -69t31 -108.5t-10 -143.5z" />
<glyph unicode="fj" horiz-adv-x="1198" d="M1090 1318q-25 9 -54 16.5t-60 12.5t-60.5 7.5t-55.5 2.5q-76 0 -135.5 -18t-102.5 -52.5t-70 -85.5t-39 -118l-13 -65h621l-215 -1128q-20 -100 -51.5 -173t-79.5 -122t-117 -74t-163 -25q-32 0 -67.5 4.5t-63.5 11.5l37 161q27 -10 58 -16t58 -6q50 0 84 14t57.5 45.5 t40.5 83t33 134.5l181 947h-441l-177 -926q-23 -124 -64 -213.5t-99 -146t-133 -83.5t-169 -27q-44 0 -89.5 5t-87.5 14l44 156q34 -10 73 -15t73 -5q56 0 98 15.5t74.5 51.5t56.5 95.5t42 148.5l178 930h-201l27 143h203l7 45q35 222 170.5 333.5t373.5 111.5 q40 0 77.5 -2.5t72.5 -7.5t67.5 -11.5t65.5 -15.5z" />
<glyph unicode="fk" horiz-adv-x="1733" d="M1676 812q0 -64 -26.5 -119.5t-80.5 -101t-137 -81t-195 -59.5l180 -312q40 -4 81.5 -10.5t82.5 -15.5l-21 -113h-291l-258 478l-92 -478h-180l256 1344q-42 7 -85 11t-82 4q-135 0 -209.5 -57.5t-98.5 -181.5l-20 -102h255l-29 -143h-254l-177 -926q-23 -124 -64 -213.5 t-99 -146t-133 -83.5t-169 -27q-44 0 -89.5 5t-87.5 14l44 156q34 -10 73 -15t73 -5q56 0 98 15.5t74.5 51.5t56.5 95.5t41 148.5l179 930h-203l29 143h202l21 112q18 93 58 163.5t103.5 118t150 72t195.5 24.5q89 0 178.5 -7.5t173.5 -21.5l-58 -311q-9 -47 -20 -94.5 t-24.5 -96t-29.5 -99t-35 -108.5l3 -1q29 62 67 111t85 84t103 53.5t120 18.5q61 0 110 -16.5t84 -47t53 -71.5t18 -89zM1484 775q0 23 -8 43.5t-24 36t-38.5 24t-49.5 8.5q-38 0 -74 -15.5t-68.5 -43t-60 -62.5t-50 -73.5t-40 -76.5t-28.5 -73q117 17 200.5 39.5 t136.5 50.5t78.5 63t25.5 79z" />
<glyph unicode=" "  horiz-adv-x="446" />
<glyph unicode="&#x09;" horiz-adv-x="446" />
<glyph unicode="&#xa0;" horiz-adv-x="446" />
<glyph unicode="!" horiz-adv-x="643" d="M386 344h-151l177 1096h213zM387 107q0 -26 -10 -49t-27 -40t-40 -26.5t-49 -9.5t-48 9.5t-37.5 25.5t-24 37t-8.5 44q0 27 10 50t27 40t40 26.5t49 9.5t48 -9t37.5 -25.5t24 -37.5t8.5 -45z" />
<glyph unicode="&#x22;" horiz-adv-x="733" d="M590 961h-133l61 471h190zM254 961h-132l60 471h191z" />
<glyph unicode="#" horiz-adv-x="1352" d="M955 391l-73 -391h-155l73 391h-293l-72 -391h-155l73 391h-296l26 132h295l72 379h-295l25 132h296l66 348h155l-66 -348h293l65 348h155l-66 -348h295l-25 -132h-296l-72 -379h295l-24 -132h-296zM897 902h-293l-71 -379h292z" />
<glyph unicode="$" horiz-adv-x="991" d="M906 1008h-120q1 51 2.5 92t5.5 75q-23 6 -51 9t-56 3q-75 0 -130 -17.5t-89.5 -47t-50.5 -66.5t-16 -76t19 -68.5t51.5 -52t82 -46t94 -44.5t84.5 -45t73 -57t52.5 -78t19.5 -103q0 -80 -29.5 -151.5t-85 -129t-133.5 -97t-172 -56.5l-52 -266h-136l50 257 q-72 1 -130.5 9t-115.5 25l59 311h122q-1 -45 -3 -88t-5 -83q32 -8 66.5 -13t62.5 -5q63 0 117.5 14t96 42.5t64.5 72.5t23 103q0 40 -19 70.5t-51 53t-82.5 46.5t-93 43.5t-82 43t-72 56t-51.5 77t-19 103.5q0 79 30 148t84.5 123t127.5 88.5t157 46.5l46 231h136l-42 -222 q59 -1 114 -8.5t107 -19.5z" />
<glyph unicode="%" horiz-adv-x="1528" d="M774 1178q0 -82 -29 -161.5t-82 -142.5t-128.5 -101.5t-168.5 -38.5q-55 0 -102 13.5t-80.5 42t-52 72.5t-18.5 105q0 53 12 106.5t35.5 103t58.5 92.5t79.5 75t99 50t117.5 18q56 0 103.5 -13t82 -41.5t54 -72.5t19.5 -107zM398 865q54 0 93.5 26.5t66 68.5t39 94.5 t12.5 105.5q0 59 -34.5 90t-91.5 31q-52 0 -90.5 -28.5t-64 -72.5t-38 -96t-12.5 -98q0 -61 31 -91t89 -30zM1412 414q0 -82 -29 -162t-82 -142.5t-128.5 -101t-169.5 -38.5q-55 0 -101.5 13.5t-80 41.5t-52 72t-18.5 105q0 53 12 106.5t35.5 103.5t58.5 93t79.5 74.5t99 50 t117.5 18.5q56 0 103.5 -13.5t82 -42t54 -72.5t19.5 -106zM1036 102q54 0 93.5 26t66 67.5t39.5 94t13 105.5q0 60 -35 90.5t-92 30.5q-52 0 -90.5 -28.5t-64 -72t-38.5 -95.5t-13 -99q0 -60 31.5 -89.5t89.5 -29.5zM206 -47l-111 93l1219 1384l112 -94z" />
<glyph unicode="&#x26;" horiz-adv-x="1649" d="M1620 896q-37 -9 -78 -15t-80 -9q-17 -90 -44.5 -172.5t-64 -155t-80 -135.5t-92.5 -114q46 -43 91 -83t85 -74q20 -2 41 -4.5t41.5 -6.5t40 -7.5t36.5 -8.5l-23 -111h-260q-49 44 -95 86.5t-95 89.5q-129 -99 -273.5 -147.5t-296.5 -48.5q-101 0 -174.5 27t-121 72 t-70.5 104.5t-23 125.5q0 92 30.5 166.5t81.5 137.5t116.5 117t135.5 103q-57 91 -89.5 169t-32.5 150q0 71 29 135t81 113t126 78t163 29q77 0 133 -19t93 -52t54 -78.5t17 -96.5q0 -67 -24 -124.5t-68.5 -110t-106.5 -103t-138 -105.5q37 -51 81.5 -105t93 -108 t101 -107.5t105.5 -104.5q38 41 72 93t61.5 113t47.5 130t28 144q-38 2 -74.5 8.5t-67.5 14.5l21 112h489zM838 1239q0 57 -32.5 91t-99.5 34q-45 0 -81.5 -14.5t-62 -40.5t-39.5 -61.5t-14 -76.5q0 -50 25 -107.5t67 -128.5q58 41 102.5 77t74.5 72t45 74t15 81zM925 280 q-49 48 -100 101t-101 108.5t-97.5 112.5t-88.5 112q-52 -38 -99 -77.5t-83.5 -83t-57.5 -93t-21 -107.5q0 -41 13.5 -80.5t42 -69.5t73 -47.5t107.5 -17.5q100 0 205.5 32.5t206.5 109.5z" />
<glyph unicode="'" horiz-adv-x="399" d="M254 961h-132l60 471h191z" />
<glyph unicode="(" horiz-adv-x="608" d="M767 1533q-64 -80 -123.5 -175t-111.5 -198t-95 -213.5t-73.5 -223t-47 -225t-16.5 -221.5q0 -89 6 -173t19 -163.5t33.5 -155t49.5 -147.5l-144 -66q-37 85 -63.5 170t-44 170.5t-25 173t-7.5 178.5q0 170 35 344t102 344.5t164 334.5t219 313l123 -67v0z" />
<glyph unicode=")" horiz-adv-x="608" d="M533 908q0 -170 -35.5 -343.5t-102.5 -344t-164 -334.5t-220 -314l-123 68q65 80 124.5 174.5t111 198t94.5 214t73.5 223t47 225.5t16.5 221q0 90 -5.5 174t-18.5 163.5t-34 154.5t-50 147l145 65q36 -85 62.5 -169t44 -169.5t26 -173.5t8.5 -180z" />
<glyph unicode="*" horiz-adv-x="750" d="M591 1184l187 -104l-86 -112l-161 143l-24 -234l-136 19l67 216l-195 -126l-51 125l224 83l-188 105l86 110l159 -141l25 234l136 -19l-69 -217l200 126l51 -124z" />
<glyph unicode="+" d="M1047 532h-391l-78 -411h-175l78 411h-388l31 155h388l78 409h174l-78 -409h391z" />
<glyph unicode="," horiz-adv-x="459" d="M155 233q38 0 67.5 -21t43 -59t8 -89.5t-37.5 -112t-93 -128t-160 -137.5l-68 80q59 49 94 91t50.5 78t13.5 66.5t-18 56.5q-16 28 -15.5 58.5t14 56t39.5 43t62 17.5z" />
<glyph unicode="-" horiz-adv-x="662" d="M570 513h-473l30 150h472z" />
<glyph unicode="&#xad;" horiz-adv-x="662" d="M570 513h-473l30 150h472z" />
<glyph unicode="." horiz-adv-x="463" d="M283 114q0 -28 -10.5 -52.5t-28 -42t-41 -27.5t-50.5 -10q-26 0 -48 10t-38.5 27t-26 38.5t-9.5 46.5q0 28 10.5 52.5t28.5 42t41.5 27.5t49.5 10t48 -10t39 -27t26 -38.5t9 -46.5z" />
<glyph unicode="/" horiz-adv-x="879" d="M26 -330h-181l1064 1880h180z" />
<glyph unicode="0" horiz-adv-x="1235" d="M1152 680q0 -101 -23 -192t-66 -169t-103 -140.5t-132 -106.5t-155 -68t-172 -24q-101 0 -177.5 26t-127.5 76t-77 122.5t-26 165.5q0 100 22.5 192t63.5 171.5t99 144.5t129 111t154 71t174 25q102 0 180 -28t130.5 -81t79.5 -128t27 -168zM967 653q0 60 -15.5 110.5 t-47 87t-80.5 57.5t-118 21q-94 0 -172.5 -43.5t-135 -115.5t-88 -167t-31.5 -199q0 -58 15.5 -107t47 -84.5t79.5 -56t112 -20.5q86 0 164.5 40.5t138.5 110.5t95.5 164.5t35.5 201.5z" />
<glyph unicode="1" horiz-adv-x="735" d="M578 0h-586l20 112q52 10 110 18t116 10l147 753l-251 -99v157l322 117h145l-176 -928q21 -2 43 -4.5t44.5 -6t44 -7.5t42.5 -10z" />
<glyph unicode="2" horiz-adv-x="967" d="M875 812q0 -65 -21.5 -125.5t-63.5 -117.5t-104 -113t-141 -113l-245 -182l-1 -3q29 2 82 3.5t120 2t144.5 1t157.5 0.5l-32 -165h-763l28 148l312 233q92 65 154.5 118t101 99.5t55 91t16.5 92.5q0 27 -8.5 54.5t-29 49t-53 35.5t-80.5 14q-42 0 -84 -8t-79 -21 q-11 -41 -24.5 -83.5t-32.5 -86.5h-110l55 289q36 13 75 24t79.5 19t81.5 12.5t81 4.5q85 0 147 -21.5t102.5 -58.5t60 -86.5t19.5 -106.5z" />
<glyph unicode="3" horiz-adv-x="932" d="M847 812q0 -71 -23.5 -134t-66.5 -115.5t-101.5 -94t-129.5 -70.5v-2q46 -7 86 -29t69.5 -56.5t46.5 -80.5t17 -101q0 -109 -47 -205t-132 -167.5t-203 -112.5t-259 -41q-51 0 -93 5t-83 16l42 170q35 -14 76.5 -21.5t84.5 -7.5q92 0 167.5 24t130 68.5t84 106.5 t29.5 136q0 61 -28 102.5t-82.5 64t-132.5 27.5t-177 -6l25 149q116 0 209 25t158.5 70.5t100.5 108.5t35 139q0 74 -43 113.5t-129 39.5q-38 0 -74 -7t-72 -19q-10 -41 -25 -84t-31 -86h-112l57 292q73 30 144.5 43t147.5 13q85 0 148 -20t104.5 -56t61.5 -86t20 -111z" />
<glyph unicode="4" horiz-adv-x="1096" d="M687 -250q44 -3 86 -10.5t78 -17.5l-21 -106h-523l20 106q42 10 88.5 17.5t91.5 10.5l48 250h-592v152l722 913h252l-169 -898h230l-33 -167h-231zM723 889l-577 -726q29 1 68 1.5t81.5 1t86.5 1t83.5 0.5h72h51.5l137 722h-3z" />
<glyph unicode="5" horiz-adv-x="940" d="M861 884l-456 1l-72 -359q100 -7 180 -37.5t136 -80t85.5 -116t29.5 -145.5q0 -87 -26.5 -161.5t-73.5 -135t-111 -107t-137.5 -77.5t-154.5 -47t-163 -16q-41 0 -76.5 2.5t-69.5 8.5l40 170q26 -7 62 -11.5t69 -4.5q90 0 169.5 23t139.5 66.5t94.5 106.5t34.5 143 q0 56 -25 105t-77.5 85t-133.5 57t-192 21l134 690h629z" />
<glyph unicode="6" horiz-adv-x="1167" d="M1084 1279q-28 5 -53 7t-50 2q-108 0 -198 -34.5t-162.5 -96.5t-128 -147.5t-94.5 -189.5q-6 -16 -14.5 -35.5t-18.5 -47.5l1 -2q28 40 67 72t85 53.5t96.5 33.5t103.5 12q93 0 160 -28t110.5 -74t63.5 -106.5t20 -125.5q0 -90 -21.5 -168.5t-60.5 -144.5t-92 -117.5 t-117.5 -87.5t-136.5 -55t-148 -19q-97 0 -167 30.5t-115 84t-66 128.5t-21 163q0 73 11 156.5t35 171.5t62 176.5t91 169.5t121.5 151t154.5 122t189.5 81.5t226.5 29.5q19 0 48.5 -1t49.5 -3zM875 540q0 43 -13 81t-39 66t-66 44.5t-94 16.5q-70 0 -132.5 -30.5 t-109 -82.5t-74 -120t-27.5 -144q0 -23 3.5 -49t12 -52.5t23.5 -50.5t37.5 -42.5t53.5 -29.5t72 -11q77 0 141 28.5t111.5 81t74 127.5t26.5 167z" />
<glyph unicode="7" horiz-adv-x="932" d="M983 1065l-30 -159q-91 -140 -179 -291.5t-172 -314t-162 -334t-148 -350.5h-216q76 180 157.5 351t166 332.5t171.5 312t176 288.5q-12 -1 -44.5 -1.5t-77 -1t-95.5 -1t-99 -0.5h-87.5h-60.5q-11 -45 -27.5 -93.5t-33.5 -89.5h-131l68 352h824z" />
<glyph unicode="8" horiz-adv-x="1106" d="M1084 1169q0 -74 -26.5 -135t-72.5 -112t-108 -94.5t-131 -83.5q43 -29 84 -64t71.5 -77t49 -91t18.5 -107q0 -95 -41.5 -173.5t-112 -134.5t-163.5 -86.5t-197 -30.5q-101 0 -172.5 21.5t-117 61t-67 94t-21.5 121.5q0 83 30 149.5t80 121t115 99t136 83.5 q-42 30 -78 62.5t-63 71.5t-43 85.5t-16 102.5q0 81 35 153.5t99 127t153.5 86t198.5 31.5q92 0 159.5 -20.5t112.5 -57.5t66.5 -89t21.5 -115zM895 1134q0 35 -12 65t-36.5 53t-61.5 36t-88 13q-62 0 -112 -19.5t-84.5 -51.5t-52.5 -74t-18 -87q0 -38 14 -70.5t39 -62 t59 -56.5t73 -53q57 32 108 65t89.5 70t60.5 79t22 93zM775 370q0 49 -17 88t-45.5 72.5t-65.5 62t-78 55.5q-59 -32 -112.5 -68t-94.5 -78t-65.5 -92t-24.5 -110q0 -31 11 -60.5t37 -53t67 -38t101 -14.5q57 0 108.5 18.5t91.5 50t63.5 75t23.5 92.5z" />
<glyph unicode="9" horiz-adv-x="1167" d="M1051 678q0 -70 -10.5 -153t-33 -172t-59.5 -179t-89.5 -173t-121.5 -155.5t-157.5 -126.5t-198 -84.5t-240.5 -30.5q-13 0 -29 1t-32.5 2t-33 2.5t-29.5 4.5l31 169q15 -4 30.5 -7t32 -4.5t33 -2.5t32.5 -1q109 0 197.5 30.5t161 88.5t128.5 141t99 188q6 14 11 26.5 t9.5 24l9 23t10.5 23.5v2q-32 -39 -71.5 -69t-85 -49.5t-95 -29.5t-100.5 -10q-89 0 -153.5 26t-107 71.5t-63 107t-20.5 132.5q0 117 40.5 224t114 188.5t177 130t227.5 48.5q103 0 176 -29.5t119.5 -82.5t68.5 -128.5t22 -166.5zM855 698q0 48 -13.5 90t-40.5 73.5t-68 50 t-96 18.5q-72 0 -134 -33.5t-106.5 -90t-70 -130t-25.5 -154.5q0 -43 14 -80t39.5 -63.5t63 -41.5t85.5 -15q72 0 136.5 26t112.5 75t75.5 118.5t27.5 156.5z" />
<glyph unicode=":" horiz-adv-x="580" d="M483 711q0 -27 -10 -51t-27.5 -41.5t-41 -27.5t-49.5 -10t-49 10t-40 27t-26.5 39.5t-9.5 46.5q0 28 10.5 51.5t28 41.5t41 28t49.5 10t48.5 -10t39.5 -27t26.5 -39.5t9.5 -47.5zM368 112q0 -27 -10 -51t-27.5 -41.5t-41 -27.5t-49.5 -10t-49 10t-39.5 27t-26.5 39.5 t-10 46.5q0 28 10.5 51.5t28 41.5t41 28t49.5 10t49 -10t39.5 -27t26 -39.5t9.5 -47.5z" />
<glyph unicode=";" horiz-adv-x="580" d="M483 711q0 -27 -10 -51t-27.5 -41.5t-41 -27.5t-49.5 -10t-49 10t-40 27t-26.5 39.5t-9.5 46.5q0 28 10.5 51.5t28 41.5t41 28t49.5 10t48.5 -10t39.5 -27t26.5 -39.5t9.5 -47.5zM244 233q39 0 69 -21t43.5 -59t7.5 -89.5t-38 -112t-93.5 -128t-159.5 -137.5l-68 80 q58 49 93.5 91t51 78t13.5 66.5t-18 56.5q-16 28 -16 58.5t14 56t40 43t61 17.5z" />
<glyph unicode="&#x3c;" d="M409 619l447 -462l-134 -118l-551 593l743 568l106 -126z" />
<glyph unicode="=" d="M1054 708h-898l27 151h899zM987 358h-898l29 152h898z" />
<glyph unicode="&#x3e;" d="M261 39l-106 126l612 455l-448 462l133 118l552 -593z" />
<glyph unicode="?" horiz-adv-x="893" d="M882 1084q0 -62 -19.5 -113t-52.5 -92t-66.5 -70t-94 -78t-97 -84.5t-65 -79.5t-41 -99.5t-3.5 -123.5h-180q-11 77 0 140.5t38 114t63.5 90.5t88 83t89.5 73.5t69 62.5t50 69.5t19 81.5q0 45 -27.5 83t-77 67.5t-115 48.5t-141.5 27l54 169q119 -10 214.5 -43t161 -83 t99.5 -112.5t34 -131.5zM432 107q0 -26 -10 -49t-27 -40t-40 -26.5t-49 -9.5t-48 9t-38 25t-24.5 37.5t-8.5 44.5q0 27 10 50t27.5 40t40.5 26.5t49 9.5q25 0 47 -9t38 -25.5t24.5 -37.5t8.5 -45z" />
<glyph unicode="@" horiz-adv-x="1962" d="M1833 906q0 -90 -17 -173.5t-48.5 -154.5t-77 -129t-102.5 -99t-124.5 -63t-142.5 -22q-64 0 -107 19t-66.5 50t-29 71t5.5 82h-6q-16 -31 -48.5 -70t-75 -73t-93.5 -56.5t-103 -22.5q-45 0 -78.5 13.5t-55.5 41.5t-33.5 68.5t-11.5 94.5q0 61 12.5 130t38 136t66 129 t97 109t130.5 75t168 28q36 0 71 -2.5t67 -6t60.5 -9.5t51.5 -12l-122 -436q-15 -53 -16.5 -92.5t10.5 -65.5t37 -38.5t63 -12.5q68 0 125.5 35t99.5 98.5t65.5 151t23.5 192.5q0 89 -27.5 172t-90 147.5t-161 103.5t-239.5 39q-112 0 -214 -31.5t-190 -89t-159 -137 t-121.5 -175.5t-77.5 -204t-27 -222q0 -119 35.5 -214.5t105.5 -163t175 -103.5t244 -36q46 0 89.5 3t87 10t86.5 17t86 23l11 -150q-47 -14 -98 -25t-102.5 -18.5t-101 -11t-92.5 -3.5q-168 0 -298.5 45t-219 129.5t-134.5 205t-46 272.5q0 139 35 269.5t99 244.5 t153.5 208t198.5 161.5t234.5 105.5t262.5 38q114 0 207 -21.5t166.5 -60.5t128 -93.5t90 -121t53 -142t17.5 -157.5zM1200 948q-23 7 -51.5 9.5t-56.5 2.5q-41 0 -80 -16t-74 -46t-64.5 -70.5t-51 -89.5t-33.5 -104t-12 -112q0 -52 17.5 -78.5t54.5 -26.5t80.5 25.5t87 78 t83.5 131.5t70 188z" />
<glyph unicode="A" horiz-adv-x="1386" d="M1279 0h-477l20 109q37 10 79.5 16.5t84.5 9.5l-34 228h-569l-123 -228q38 -3 78 -10t72 -16l-21 -109h-470l20 110q28 8 61.5 14.5t61.5 9.5l687 1248h224l209 -1247q14 -1 29.5 -3.5t31 -6t30.5 -7.5t28 -8zM850 999q-8 61 -14 110.5t-10 94.5h-2q-19 -45 -41.5 -91 t-56.5 -110l-269 -491h475z" />
<glyph unicode="B" horiz-adv-x="1202" d="M1160 1122q0 -78 -22 -141.5t-60.5 -112.5t-89.5 -83t-108 -55v-2q49 -10 88.5 -34.5t67 -58.5t42 -75.5t14.5 -86.5q0 -97 -40 -183.5t-117 -152.5t-190.5 -104t-259.5 -38q-33 0 -73 0.5t-85 1.5t-94 2t-98 1h-174l21 109q40 11 86.5 18t93.5 10l209 1108q-45 4 -88 11 t-80 17l21 109h171q38 0 80.5 1t90 2t100.5 2t111 1q99 0 171 -18.5t119.5 -53t70 -84t22.5 -110.5zM963 1081q0 35 -10.5 63.5t-37 49t-72.5 32t-116 11.5q-49 0 -90 -1t-83 -3l-87 -446q30 -2 57 -2h62q85 0 154.5 19.5t119 57.5t76.5 93t27 126zM894 456 q0 92 -72.5 139.5t-225.5 47.5h-42h-43.5t-39.5 -0.5t-31 -1.5l-90 -484q13 -1 30 -3t38 -3.5t45.5 -2t53.5 -0.5q92 0 162.5 25t118.5 67t72 98t24 118z" />
<glyph unicode="C" horiz-adv-x="1157" d="M1144 1020h-130q0 49 2 95t9 92q-46 13 -89.5 18t-86.5 5q-93 0 -169 -30.5t-135.5 -84t-103 -124.5t-71.5 -153.5t-42 -170.5t-14 -175q0 -76 17 -138.5t56.5 -107t104.5 -69t162 -24.5q36 0 79.5 5.5t88 15t87 23t76.5 29.5l7 -169q-90 -34 -190 -53t-195 -19 q-99 0 -174 18t-130.5 51t-93 77t-60 97t-32 112t-9.5 120q0 121 22.5 237.5t67 220.5t111 191.5t154.5 151t196.5 99.5t238.5 36q91 0 168 -10.5t145 -28.5z" />
<glyph unicode="D" horiz-adv-x="1419" d="M1384 888q0 -114 -23.5 -225t-72 -210t-122.5 -183.5t-173.5 -146t-226 -96t-279.5 -34.5q-57 0 -105.5 1t-91 2.5t-81 2.5t-75.5 1h-175l22 109q41 11 87 18t93 10l209 1108q-45 4 -88.5 11t-80.5 17l21 109h173q40 0 87.5 1t99.5 2.5t105 3t105 1.5q159 0 271.5 -36.5 t184 -103t104 -158.5t32.5 -204zM1188 867q0 80 -20.5 147.5t-69 116t-130 76t-203.5 27.5q-29 0 -59 -0.5t-57.5 -1t-52 -1.5t-44.5 -2l-203 -1066q19 -3 41 -5t44.5 -3.5t43 -2.5t36.5 -1q122 0 219.5 30t172 82t128 122t88 149.5t50.5 165t16 167.5z" />
<glyph unicode="E" horiz-adv-x="1065" d="M1039 1064h-129q0 47 0.5 91t4.5 79h-362l-86 -453h290q11 38 24.5 73t31.5 67h109l-79 -418h-112q-4 31 -4.5 66.5t1.5 72.5h-287l-93 -491h363q13 40 28.5 85.5t33.5 91.5h129l-61 -328h-881l22 109q40 11 86.5 18t93.5 10l209 1108q-45 4 -88.5 11t-80.5 17l21 109 h876z" />
<glyph unicode="F" horiz-adv-x="1008" d="M1039 1062h-129q0 50 1 91t4 79h-362l-89 -464h296q11 36 25.5 71t30.5 68h112l-81 -424h-113q-2 33 -2.5 68t0.5 71h-295l-94 -485q46 -3 89.5 -10t80.5 -18l-20 -109h-534l21 109q41 11 87.5 18t92.5 10l210 1108q-44 4 -87.5 11t-80.5 17l20 109h879z" />
<glyph unicode="G" horiz-adv-x="1395" d="M1279 1027h-131q0 50 2 95.5t7 87.5q-52 13 -104 21t-100 8q-94 0 -179.5 -25.5t-157.5 -72t-130 -111.5t-98.5 -144t-62.5 -169.5t-22 -187.5q0 -71 21 -140t68 -123t123 -86.5t186 -32.5q76 0 140 10.5t125 28.5l72 381q-45 3 -88 10t-80 18l22 109h486l-20 -111 q-33 -9 -66.5 -15t-69.5 -11l-97 -508q-54 -20 -112.5 -34.5t-117.5 -24t-116.5 -14.5t-109.5 -5q-144 0 -250.5 39.5t-176 109.5t-103.5 167t-34 212q0 130 30.5 247t86 216t134.5 178t176 135t209.5 86t234.5 30q102 0 192 -13t176 -37z" />
<glyph unicode="H" horiz-adv-x="1520" d="M1610 1273q-42 -10 -88 -17t-92 -11l-211 -1108q45 -3 88.5 -10t81.5 -18l-21 -109h-520l21 111q39 10 81.5 16.5t83.5 9.5l96 500h-691l-96 -500q41 -3 82 -9.5t75 -16.5l-21 -111h-520l21 109q41 11 87.5 18t92.5 10l210 1108q-45 4 -88 11t-80 17l20 109h520l-21 -111 q-39 -10 -81.5 -16t-84.5 -10l-85 -448h691l85 448q-41 4 -80.5 10t-75.5 16l22 111h518z" />
<glyph unicode="I" horiz-adv-x="645" d="M735 1273q-41 -10 -87 -17t-92 -11l-212 -1108q45 -3 89 -10t81 -18l-20 -109h-534l20 109q42 11 88.5 18t91.5 10l211 1108q-45 4 -88 11t-80 17l20 109h533z" />
<glyph unicode="J" horiz-adv-x="698" d="M785 1271q-32 -8 -69.5 -15t-73.5 -11l-170 -894q-16 -83 -46 -150.5t-79 -115.5t-118.5 -74t-162.5 -26q-23 0 -43.5 1.5t-39.5 3.5t-36 5t-32 6l32 166q25 -9 58.5 -16.5t68.5 -7.5q40 0 75 11t62 36t47 67.5t32 105.5l167 882q-45 4 -87.5 11t-80.5 17l21 109h497z " />
<glyph unicode="K" horiz-adv-x="1335" d="M1408 1272q-67 -16 -137 -25l-607 -544l408 -568q18 -1 37 -3.5t38 -5.5t37.5 -7t33.5 -8l-21 -111h-510l21 111q32 8 67 14t67 9l-391 564l-107 -561q33 -3 73 -9.5t73 -16.5l-21 -111h-509l20 109q42 11 88.5 18t91.5 10l211 1108q-45 4 -88 11t-80 17l20 109h508 l-21 -111q-37 -10 -78 -16t-76 -10l-100 -523l578 525q-33 4 -69 9.5t-65 14.5l22 111h509z" />
<glyph unicode="L" horiz-adv-x="954" d="M833 0h-873l20 109q42 11 88.5 18t91.5 10l211 1108q-45 4 -88 11t-80 17l20 109h533l-21 -109q-41 -10 -87 -17t-92 -11l-208 -1091h355q5 20 13.5 44.5t18 50.5t20 53t20.5 51h126z" />
<glyph unicode="M" horiz-adv-x="1880" d="M1288 0l20 109q18 5 38 9t40.5 7.5t41.5 5.5l42 4l39 710q3 52 5.5 98.5t5.5 88.5t6.5 81t6.5 78h-2q-20 -52 -47 -113.5t-61 -127.5l-503 -950h-170l-133 904q-5 35 -9 73t-7 75t-4.5 72.5t-1.5 66.5h-3q-10 -39 -21.5 -81.5t-24 -88t-26.5 -92t-29 -94.5l-216 -700 q40 -3 78 -9.5t70 -16.5l-21 -109h-466l21 110q13 3 29.5 7t33.5 7.5t34 5.5t31 4l369 1111q-45 4 -87 11t-80 17l23 109h424l124 -841q10 -74 15.5 -144.5t7.5 -133.5h3q26 62 57 129.5t67 137.5l452 852h445l-21 -109q-42 -10 -86.5 -17t-90.5 -11l-49 -1111q27 -3 61 -10 t60 -14l-21 -110h-470z" />
<glyph unicode="N" horiz-adv-x="1499" d="M1588 1271q-33 -8 -70 -15t-73 -11l-238 -1245h-175h-55l-354 866q-30 77 -56.5 155t-45.5 151q-9 -60 -18.5 -127t-21.5 -136t-24 -137.5t-23 -132.5l-91 -502q40 -3 79.5 -9.5t74.5 -16.5l-21 -111h-515l21 109q41 11 87.5 18t92.5 10l209 1108q-45 4 -88 11t-81 17 l21 109h355h53v0l352 -865q28 -71 54 -147t49 -152q8 55 18.5 119t22 131t23 134.5t22.5 127.5l93 515q-41 4 -78.5 10t-71.5 16l21 111h473z" />
<glyph unicode="O" horiz-adv-x="1415" d="M1388 900q0 -132 -28 -251.5t-79.5 -221.5t-124 -184.5t-161 -141t-190 -90t-210.5 -31.5q-125 0 -218 34.5t-154.5 98.5t-92 157.5t-30.5 211.5q0 126 27.5 243t78 219t122 186.5t159 145t190 93.5t215.5 33q121 0 213.5 -33.5t155.5 -97.5t95 -158t32 -213zM1188 878 q0 83 -20 149t-60 113t-102 72t-145 25t-156 -26.5t-135.5 -74.5t-112.5 -115.5t-85 -148t-54 -172.5t-19 -189q0 -84 21 -151.5t61.5 -114.5t100 -72t138.5 -25q78 0 151 25.5t136 72.5t115 113.5t88.5 147.5t57 175t20.5 196z" />
<glyph unicode="P" horiz-adv-x="1145" d="M1190 1033q0 -120 -46 -223t-131.5 -178t-201.5 -116t-252 -41q-47 0 -82 2t-68 6l-67 -346q45 -3 90.5 -10.5t81.5 -17.5l-21 -109h-533l20 109q41 11 87 18t91 10l213 1108q-45 4 -89.5 11t-80.5 17l22 109h174q33 0 147.5 4t194.5 4q101 0 184 -23.5t143 -69 t92 -112.5t32 -152zM994 1013q0 52 -18.5 93.5t-55 70.5t-89.5 44t-122 15q-63 0 -96.5 -0.5t-60.5 -2.5l-114 -593q12 -2 28.5 -4t36 -3.5t40 -2.5t38.5 -1q75 0 136 16t107 44t78.5 65t52.5 80t29.5 88.5t9.5 90.5z" />
<glyph unicode="Q" horiz-adv-x="1415" d="M1189 878q0 83 -20 149.5t-61 113t-103 71.5t-144 25q-80 0 -154 -26.5t-136.5 -75t-112.5 -115.5t-85.5 -148t-54 -173t-18.5 -188q0 -84 20.5 -151.5t61.5 -114.5t100.5 -72t137.5 -25q77 0 150 25.5t136.5 73t115.5 113.5t89.5 148t57.5 176t20 194zM925 89 q40 -2 88 -15.5t94.5 -27.5t99.5 -20t119 1l-32 -163q-73 -10 -130.5 -6t-102.5 16t-108 36.5t-99 36.5t-92 22.5t-126 10.5h-41q-124 0 -217.5 34t-155 98.5t-92 157.5t-30.5 212q0 124 27 241.5t77.5 220.5t121.5 187t159.5 145t191.5 93.5t214 32.5q120 0 212.5 -33.5 t156 -98t96 -158t32.5 -212.5q0 -143 -34.5 -273t-97.5 -237t-147.5 -184t-183.5 -117z" />
<glyph unicode="R" horiz-adv-x="1182" d="M1137 1083q0 -93 -36.5 -171.5t-102 -137t-152 -93.5t-185.5 -44q15 -27 34 -65.5t32 -65.5l185 -370q39 -3 81.5 -10t73.5 -16l-22 -110h-292l-281 620h-36l-92 -483q38 -3 76.5 -9.5t70.5 -16.5l-21 -111h-509l21 109q41 11 87 18t91 10l211 1108q-44 4 -87.5 11 t-80.5 17l20 109h156q32 0 63.5 1t91 3t104 3t90.5 1q105 0 182.5 -20.5t127.5 -59.5t74.5 -96t24.5 -131zM941 1060q0 92 -56.5 136.5t-184.5 44.5q-44 0 -79.5 -1.5t-65.5 -3.5l-91 -474q10 -1 19 -1.5t21.5 -1t30 -1t40.5 -0.5q78 0 144.5 20t116.5 59t77.5 95.5 t27.5 127.5z" />
<glyph unicode="S" horiz-adv-x="952" d="M886 1058h-126q-1 45 1.5 95t6.5 91q-14 4 -40.5 6t-49.5 2q-70 0 -124 -19.5t-90 -52.5t-54 -74.5t-18 -86.5q0 -44 18 -80.5t48 -66t56.5 -48.5t87.5 -60t97.5 -70.5t67 -67t48.5 -85t18 -106.5q0 -95 -40.5 -178.5t-114.5 -145.5t-175.5 -96t-220.5 -34q-32 0 -65 1.5 t-66 5t-64 9t-56 13.5l62 333h131q-1 -51 -3 -101.5t-5 -90.5q20 -5 47 -8t49 -3q75 0 135.5 19.5t102 55t63.5 83.5t22 103q0 43 -17.5 78.5t-47.5 64t-52 43.5t-86.5 58t-101 73t-66.5 68t-48 87t-18 109q0 84 34 160t100.5 135t163.5 92t218 33q27 0 56 -1.5t60 -4t61 -7 t57 -10.5z" />
<glyph unicode="T" d="M1192 1038h-127q1 15 2.5 87.5t4.5 103.5h-278l-207 -1092q44 -3 88 -10t82 -18l-22 -109h-533l20 109q43 11 89 18t92 10l209 1092h-279q-9 -33 -27.5 -84.5t-37.5 -106.5h-128l66 344h1052z" />
<glyph unicode="U" horiz-adv-x="1436" d="M1527 1271q-69 -17 -142 -26l-140 -738q-26 -134 -79 -233.5t-132 -164.5t-184 -97t-235 -32q-121 0 -206.5 26t-136.5 74t-73.5 112.5t-22.5 145.5q0 31 4 64t11 79l145 764q-35 4 -69 11t-65 15l21 111h483l-23 -111q-35 -9 -78 -15.5t-85 -10.5l-144 -752 q-7 -37 -10.5 -69.5t-3.5 -60.5q0 -58 15.5 -101.5t49 -72.5t86.5 -43.5t128 -14.5q90 0 159.5 21t121.5 67t87.5 121.5t56.5 185.5l137 719q-41 4 -81 10.5t-74 15.5l21 111h479z" />
<glyph unicode="V" horiz-adv-x="1358" d="M1491 1271q-14 -4 -29.5 -7t-32 -6t-33 -5.5t-30.5 -4.5l-682 -1248h-208l-198 1248q-14 2 -30 4.5t-31.5 5.5t-30 6t-26.5 7l21 111h475l-20 -109q-39 -9 -81 -16t-82 -10l109 -753q4 -31 8.5 -64.5t9.5 -70t9 -75t7 -77.5h3q32 74 70.5 150.5t79.5 149.5l399 740 q-39 3 -79.5 10t-73.5 16l20 109h477z" />
<glyph unicode="W" horiz-adv-x="1968" d="M2100 1271q-14 -4 -29.5 -7t-32.5 -6t-33.5 -5.5t-30.5 -4.5l-533 -1248h-237l-101 893q-6 60 -9 121.5t-1 123.5h-2q-20 -60 -43 -120t-51 -121l-423 -897h-236l-60 1248q-27 4 -60 10t-56 13l20 111h467l-20 -109q-38 -9 -81.5 -16t-87.5 -10l42 -794q3 -70 3 -134.5 t-3 -129.5h2q24 65 51 129.5t56 128.5l442 935h179l106 -939q7 -58 11 -124t4 -130h2q18 60 37 114.5t43 114.5l349 829q-37 3 -74.5 10t-71.5 16l21 109h462z" />
<glyph unicode="X" horiz-adv-x="1343" d="M1443 1272q-37 -8 -75 -14.5t-75 -10.5l-469 -543l293 -570q34 -3 68 -9t64 -14l-20 -111h-504l21 111q35 9 72.5 15t73.5 9l-204 448l-369 -448q33 -3 67.5 -9t66.5 -15l-22 -111h-503l21 111q37 8 74 14t74 9l505 586l-273 528q-35 4 -70 10t-65 14l21 110h505 l-23 -111q-32 -9 -71.5 -14.5t-76.5 -9.5l187 -406l338 406q-37 4 -70 9.5t-63 14.5l21 111h503z" />
<glyph unicode="Y" horiz-adv-x="1192" d="M1327 1271q-30 -7 -64 -13.5t-60 -9.5l-519 -759l-66 -352q44 -3 88 -10.5t81 -17.5l-20 -109h-534l20 109q40 10 87 17.5t93 10.5l67 351l-222 760q-26 3 -58.5 9.5t-60.5 13.5l20 111h469l-22 -111q-32 -9 -71.5 -15t-82.5 -9l94 -362q8 -28 15.5 -57l15 -58t14 -58 t12.5 -56h3q17 29 36 59.5t38.5 62t39.5 63t52 81.5l205 325q-36 3 -72 9t-65 15l23 111h465z" />
<glyph unicode="Z" horiz-adv-x="1071" d="M1120 1239l-773 -958q-22 -28 -41 -50.5t-62 -72.5q15 1 43 2t67 1.5t81.5 0.5h113.5h218q13 41 29.5 87.5t36.5 97.5h126l-67 -347h-899l27 140l733 920q34 43 68.5 83t76.5 85q-60 -2 -122.5 -3t-142.5 -1h-231q-10 -36 -26 -81t-36 -96h-129l64 335h873z" />
<glyph unicode="[" horiz-adv-x="645" d="M747 1437h-227l-324 -1699h228l-27 -145h-397l379 1987h397z" />
<glyph unicode="\" horiz-adv-x="887" d="M577 -330l-352 1880h162l356 -1880h-166z" />
<glyph unicode="]" horiz-adv-x="645" d="M300 -407h-396l27 145h227l324 1699h-227l28 143h396z" />
<glyph unicode="^" d="M858 703l-185 541l-381 -541l-117 67l450 612h145l229 -610z" />
<glyph unicode="_" d="M927 -510h-1104l28 146h1104z" />
<glyph unicode="`" horiz-adv-x="741" d="M592 1168l-280 239l110 116l259 -261z" />
<glyph unicode="a" horiz-adv-x="1130" d="M1002 15q-38 -5 -81.5 -8.5t-89 -5.5t-91 -3t-87.5 1q13 68 41.5 169t74.5 246l-4 1q-18 -38 -43 -86t-57.5 -96t-71.5 -94t-86 -81.5t-101 -57t-115 -21.5q-111 0 -169.5 75t-58.5 235q0 94 16.5 185.5t50 174t86 153t123.5 122t161.5 80.5t202.5 29q87 0 167 -7.5 t152 -22.5l-165 -859q35 -6 78.5 -11.5t86.5 -8.5zM817 870q-31 8 -66.5 13.5t-79.5 5.5q-76 0 -136.5 -24.5t-107.5 -66.5t-80.5 -98t-55 -118.5t-31.5 -129t-10 -129.5q0 -50 7 -85t20.5 -57.5t32.5 -32.5t43 -10q48 0 97 31t94.5 83t87 119.5t75 139.5t58 144t37.5 133z " />
<glyph unicode="b" horiz-adv-x="1100" d="M1039 729q0 -94 -16.5 -185.5t-50.5 -174t-86 -153t-123.5 -122t-162 -81t-202.5 -29.5q-91 0 -169.5 9t-149.5 24l255 1334q-35 6 -79.5 11.5t-87.5 8.5l20 109q38 5 82.5 8.5t90.5 5.5t92.5 2.5t90.5 -0.5l-96 -496q-6 -36 -15.5 -72t-22.5 -81t-31.5 -103t-43.5 -136 l4 -1q39 91 88.5 169.5t109 137t128.5 91.5t147 33q110 0 169 -74.5t59 -234.5zM851 695q0 50 -7 85t-20.5 57.5t-33 32.5t-42.5 10q-48 0 -97 -31t-94.5 -83t-87 -119t-74.5 -139t-57.5 -143t-35.5 -131l-18 -86q33 -9 68 -14t78 -5q76 0 136.5 24.5t107.5 66t80.5 98 t55 119t31.5 129t10 129.5z" />
<glyph unicode="c" horiz-adv-x="864" d="M830 700l-111 1q-1 20 -1 42t1 44t2.5 43.5t4.5 41.5q-23 6 -48 9t-52 3q-58 0 -108 -21.5t-90 -58.5t-71.5 -87t-53 -108t-32 -121t-10.5 -124q0 -43 8.5 -83t32.5 -70t66 -48.5t110 -18.5q60 0 122.5 13.5t116.5 37.5l12 -154q-62 -24 -139.5 -39.5t-158.5 -15.5 q-102 0 -171.5 24.5t-112 69.5t-61.5 106.5t-19 135.5q0 150 42 280t118 226t183 150.5t237 54.5q65 0 126 -9t114 -26z" />
<glyph unicode="d" horiz-adv-x="1130" d="M857 144q35 -6 78.5 -11.5t86.5 -8.5l-20 -109q-39 -5 -82 -8.5t-88 -5.5t-90 -3t-87 1q11 67 39.5 169t74.5 246l-4 1q-18 -38 -43 -86t-57.5 -96t-71.5 -94t-86 -81.5t-101 -57t-115 -21.5q-111 0 -169.5 75t-58.5 235q0 94 16.5 185.5t50 174t86 153t123.5 122 t161.5 80.5t202.5 29q37 0 71 -3t72 -8l61 329q-35 6 -80.5 11.5t-90.5 8.5l21 109q39 5 83.5 8.5t91.5 5.5t93.5 2.5t90.5 -0.5zM817 870q-31 8 -66.5 13.5t-79.5 5.5q-76 0 -136.5 -24.5t-107.5 -66.5t-80.5 -98t-55 -118.5t-31.5 -129t-10 -129.5q0 -50 7 -85t20.5 -57.5 t32.5 -32.5t43 -10q48 0 97 31t94.5 83t87 119.5t75 139.5t58 144t37.5 133z" />
<glyph unicode="e" horiz-adv-x="971" d="M927 804q0 -82 -42 -145.5t-125.5 -108.5t-207.5 -70.5t-287 -31.5q-2 -12 -4 -26.5t-3.5 -30.5t-2.5 -32t-1 -29q0 -60 11.5 -98t37 -60.5t67 -31.5t104.5 -9q72 0 146 15t141 43l7 -144q-79 -31 -168.5 -47.5t-189.5 -16.5q-88 0 -152.5 19.5t-107 59.5t-63 102.5 t-20.5 148.5q0 98 18 190.5t52 173.5t83.5 147.5t112 114.5t137.5 73.5t158 25.5q78 0 135.5 -18.5t93.5 -50.5t53 -73.5t17 -89.5zM740 782q0 28 -9.5 49.5t-28 35.5t-43.5 21.5t-56 7.5q-59 0 -109.5 -24t-90 -66.5t-68.5 -99t-47 -122.5q118 4 203.5 19t140.5 40 t81.5 59.5t26.5 79.5z" />
<glyph unicode="f" horiz-adv-x="700" d="M913 1338q-35 10 -71 15t-69 5q-54 0 -97.5 -15.5t-76 -48t-54 -84t-33.5 -123.5l-12 -69h276l-27 -143h-276l-178 -926q-23 -126 -64.5 -214.5t-99.5 -145.5t-134 -83.5t-168 -26.5q-45 0 -89.5 5t-86.5 14l44 156q36 -11 74 -15.5t70 -4.5q54 0 97 15t76 51t57.5 96 t41.5 149l179 930h-202l28 143h202l13 71q18 105 55 183.5t93.5 130.5t134 78t176.5 26q44 0 82.5 -4t81.5 -13z" />
<glyph unicode="g" horiz-adv-x="1102" d="M812 -94q-18 -91 -57.5 -169.5t-109.5 -136t-174 -90t-249 -32.5q-86 0 -152.5 10.5t-122.5 27.5l41 178q29 -13 62.5 -23t68.5 -17.5t70.5 -11t71.5 -3.5q79 0 142.5 16t110.5 53t79 96t49 146q11 58 22 106t24.5 98t32 109.5t45.5 141.5l-4 2q-18 -37 -42.5 -83 t-56.5 -94t-70.5 -93t-85.5 -80t-101 -56.5t-115 -21.5q-111 0 -169.5 75t-58.5 235q0 94 16.5 185.5t50.5 174t86.5 153t123.5 122t161 80.5t202 29q87 0 167 -7.5t152 -22.5zM817 870q-31 8 -66.5 13.5t-79.5 5.5q-76 0 -136.5 -24.5t-107.5 -66.5t-80.5 -98t-55 -118.5 t-31.5 -129t-10 -129.5q0 -50 7 -85t20.5 -57.5t32.5 -32.5t43 -10q48 0 97 31t94.5 83t87 119.5t75 139.5t58 144t37.5 133z" />
<glyph unicode="h" horiz-adv-x="1186" d="M1061 14q-38 -5 -81.5 -8.5t-89 -5t-91.5 -2.5t-89 1l125 653q23 120 1 174t-91 54q-47 0 -94.5 -30.5t-93.5 -82t-87.5 -118.5t-75 -139.5t-58 -145t-36.5 -135.5l-42 -229h-181l257 1351q-34 6 -79 11.5t-88 8.5l20 109q38 5 82.5 8.5t90.5 5.5t92.5 2.5t90.5 -0.5 l-92 -478q-6 -30 -14 -65.5t-21 -82t-32.5 -108t-47.5 -144.5l4 -2q37 81 85 157t107 135t128.5 94.5t149.5 35.5q71 0 119 -24t73.5 -69t30.5 -109t-10 -143l-106 -549q35 -7 78.5 -12.5t85.5 -7.5z" />
<glyph unicode="i" horiz-adv-x="590" d="M577 1348q0 -27 -10.5 -50.5t-28 -41t-40.5 -27t-47 -9.5q-26 0 -47 9t-36.5 24.5t-24 36t-8.5 42.5q0 28 11 51.5t28.5 40.5t40.5 26.5t48 9.5t46 -9t36 -24t23.5 -35.5t8.5 -43.5zM464 15q-40 -6 -84.5 -9t-90.5 -5t-92 -3t-87 1l169 877q-35 6 -77.5 10.5t-86.5 7.5 l21 110q39 5 83.5 8t90.5 5t91 2.5t86 -0.5l-169 -875q18 -3 38.5 -6t42.5 -5.5l44 -5t41 -3.5z" />
<glyph unicode="j" horiz-adv-x="565" d="M576 1348q0 -27 -10.5 -50.5t-27.5 -41t-40 -27t-48 -9.5t-46 9t-36.5 24.5t-24 36t-8.5 42.5q0 28 10.5 51.5t28.5 40.5t41 26.5t48 9.5t46 -9t36 -24t23 -35.5t8 -43.5zM269 -127q-18 -98 -49.5 -171.5t-81 -122.5t-119.5 -74.5t-166 -25.5q-37 0 -71.5 5t-61.5 11 l38 161q27 -11 58.5 -16t56.5 -5q51 0 86.5 14t60.5 46t42.5 85t32.5 131l184 963q-34 6 -78 11.5t-88 8.5l21 109q38 5 81.5 8.5t89.5 5.5t92 2.5t90 -0.5z" />
<glyph unicode="k" horiz-adv-x="1069" d="M1011 819q0 -66 -24.5 -122.5t-77 -103t-135.5 -82t-199 -60.5l181 -312q42 -4 83.5 -11t79.5 -15l-21 -113h-290l-260 478l-90 -478h-181l257 1351q-35 6 -80 11.5t-87 8.5l20 109q38 5 82.5 8.5t90.5 5.5t92.5 2.5t90.5 -0.5l-64 -328q-9 -49 -20 -96.5t-24.5 -96 t-29.5 -99.5t-34 -106l3 -1q29 60 67.5 109.5t85.5 84.5t105 54t126 19q62 0 110 -16.5t79.5 -45t47.5 -68.5t16 -87zM819 780q0 22 -7 41.5t-21 34t-35.5 23t-49.5 8.5q-41 0 -77.5 -16.5t-69 -43.5t-60.5 -62.5t-50.5 -74t-39.5 -76.5t-28 -71q120 18 203.5 40.5t135.5 51 t75.5 64.5t23.5 81z" />
<glyph unicode="l" horiz-adv-x="557" d="M284 144q35 -6 77.5 -11.5t86.5 -8.5l-21 -109q-39 -5 -82 -8.5t-88 -5.5t-91 -3t-89 1l257 1352q-34 6 -79 11.5t-88 8.5l20 109q38 5 82 8.5t90 5.5t92.5 2.5t89.5 -0.5z" />
<glyph unicode="m" horiz-adv-x="1829" d="M1702 14q-37 -5 -80.5 -8.5t-88.5 -5t-91 -2.5t-89 1l125 653q23 120 1.5 175t-85.5 55q-41 0 -85.5 -26.5t-88 -73t-85.5 -109t-77 -135t-62 -152t-42 -157.5l-42 -229h-180l125 652q23 120 2.5 175t-86.5 55q-41 0 -85 -26.5t-88 -73t-85.5 -109t-77 -135t-62.5 -152 t-41 -157.5l-43 -229h-181l168 874q-17 3 -37.5 6t-42 5.5t-43 4.5t-40.5 4l21 110q34 5 77.5 8t89 5t92 2.5t88.5 -0.5q-20 -101 -49.5 -201t-63.5 -200l4 -2q35 80 82 156t105.5 135t127.5 95t148 36q49 0 87 -13t63.5 -38.5t39 -62.5t13.5 -84q0 -24 -3 -47.5t-9 -50.5 t-15 -58.5t-21 -69.5l3 -2q35 82 82.5 159t106 136.5t127.5 95t148 35.5q68 0 114.5 -24t72 -69t30 -109.5t-10.5 -143.5l-105 -548q35 -6 78 -11.5t85 -8.5z" />
<glyph unicode="n" horiz-adv-x="1221" d="M1095 14q-39 -5 -82 -8.5t-88.5 -5t-91 -2.5t-88.5 1l124 653q24 120 2 174t-91 54q-47 0 -95 -30.5t-93 -81.5t-86.5 -117.5t-75 -138t-58 -142.5t-36.5 -131l-45 -239h-181l168 874q-34 6 -76 11.5t-87 8.5l21 110q39 5 82.5 8t88.5 5t89.5 2.5t86.5 -0.5 q-5 -26 -13 -61t-21 -84t-32 -112t-46 -144l4 -2q37 81 84.5 157t107 135t129 94.5t149.5 35.5q70 0 118 -24t74 -69t31 -109t-10 -143l-106 -549q34 -7 77.5 -12.5t85.5 -7.5z" />
<glyph unicode="o" horiz-adv-x="1098" d="M1033 670q0 -158 -49 -285t-131.5 -217t-189.5 -138.5t-222 -48.5q-95 0 -165.5 24t-116.5 70t-68.5 113.5t-22.5 154.5q0 102 20.5 193t58 167.5t90.5 138.5t118.5 105t141 66t159.5 23q100 0 171.5 -27t117 -75.5t67 -115.5t21.5 -148zM842 650q0 112 -51.5 171.5 t-162.5 59.5q-85 0 -153.5 -43t-116.5 -114t-74.5 -162t-26.5 -187q0 -57 12 -100.5t38 -74t66.5 -46t97.5 -15.5q75 0 142.5 38t118.5 106t80.5 161.5t29.5 205.5z" />
<glyph unicode="p" horiz-adv-x="1135" d="M1073 729q0 -94 -16 -185.5t-50 -174t-86 -152.5t-123 -121t-162 -80t-203 -29q-39 0 -73 3t-70 8l-68 -366q21 -2 44 -4.5t45 -6t42.5 -7.5t38.5 -9l-21 -110h-512l21 110q35 10 77 17t85 10l236 1242q-17 3 -37.5 6t-42 5.5t-43 4.5t-40.5 4l20 109q34 5 77.5 8.5 t89.5 5.5t92.5 2.5t88.5 -0.5q-7 -34 -15.5 -71t-21.5 -84.5t-32 -109.5t-44 -144l4 -2q39 91 88 169t108.5 136.5t128.5 91.5t146 33q110 0 169 -74.5t59 -234.5zM887 695q0 50 -7.5 85t-21 57.5t-32.5 32.5t-43 10q-48 0 -96.5 -31t-94.5 -82.5t-87 -118.5t-75 -139 t-58 -143t-36 -131l-15 -79q16 -5 35 -9.5t38 -8t37.5 -5t34.5 -1.5q75 0 135 24.5t107 65.5t80.5 96.5t55.5 118.5t32.5 129t10.5 129z" />
<glyph unicode="q" horiz-adv-x="1104" d="M760 -368q45 -3 86.5 -10t77.5 -17l-21 -110h-523l21 110q41 10 87.5 17t92.5 10l63 331q9 48 19.5 94t25 97.5t34 114t46.5 145.5l-4 1q-18 -38 -43 -86t-57.5 -96t-71.5 -94t-86 -81.5t-101 -57t-115 -21.5q-111 0 -169.5 75t-58.5 235q0 94 16.5 185.5t50 174t86 153 t123.5 122t161.5 80.5t202.5 29q87 0 166.5 -8t152.5 -23zM817 870q-31 8 -66.5 13.5t-79.5 5.5q-76 0 -136.5 -24.5t-107.5 -66.5t-80.5 -98t-55 -118.5t-31.5 -129t-10 -129.5q0 -50 7 -85t20.5 -57.5t33 -32.5t43.5 -10q49 0 97 31t94 83t87 119.5t74.5 139.5t58 144 t37.5 133z" />
<glyph unicode="r" horiz-adv-x="768" d="M794 856q-43 11 -84 0.5t-78.5 -38.5t-71.5 -69.5t-64.5 -91.5t-56.5 -105.5t-47 -112t-36 -110t-24 -98.5l-41 -231h-181l169 874q-33 6 -77 11.5t-87 8.5l21 110q38 5 81.5 8t89 5t90 2.5t85.5 -0.5q-7 -34 -16 -71.5t-21.5 -83t-30 -100.5t-39.5 -122l4 -1 q43 93 89 171t99.5 132t118.5 79t146 11z" />
<glyph unicode="s" horiz-adv-x="819" d="M711 730h-109q0 42 2 84t6 82q-18 2 -39.5 4t-41.5 2q-49 0 -87 -11t-63.5 -31.5t-39 -48t-13.5 -60.5q0 -41 26.5 -72.5t66.5 -58.5t86 -54t86 -61t66.5 -78.5t26.5 -106.5q0 -66 -31 -127.5t-89 -108.5t-142 -75t-190 -28q-27 0 -55 1.5t-55.5 4t-53 6t-48.5 7.5 l56 298h111q0 -40 -2 -84.5t-6 -81.5q8 -2 19.5 -3t24 -2.5t25 -2t23.5 -0.5q50 0 91.5 10t72 30.5t47 51t16.5 70.5q0 41 -26.5 71t-66 57t-85.5 53.5t-85.5 61t-66 80.5t-26.5 111t26.5 122.5t79 100.5t129.5 68t178 25q29 0 57 -1.5t54.5 -4t51.5 -6.5t49 -9z" />
<glyph unicode="t" horiz-adv-x="745" d="M740 875h-276l-101 -533q-11 -59 -12 -98t9.5 -61.5t34 -32t61.5 -9.5q34 0 72 4.5t68 12.5l-12 -153q-45 -10 -95.5 -16t-94.5 -6q-78 0 -128 19t-75.5 59.5t-28 103t13.5 149.5l106 561h-205l29 143h205l62 331l190 42l-72 -373h278z" />
<glyph unicode="u" horiz-adv-x="1221" d="M1095 15q-38 -5 -81.5 -8.5t-89 -5.5t-91 -3t-88.5 1q5 26 13 61t21 84t32 112t46 144l-4 2q-36 -81 -84 -157t-107 -135t-129 -95t-150 -36q-71 0 -118.5 24.5t-73.5 69.5t-31 109t10 143l105 547q-34 6 -76.5 12.5t-84.5 9.5l21 109q37 5 81 8.5t89.5 5.5t91 2.5 t87.5 -0.5l-125 -653q-23 -120 -1 -174t90 -54q47 0 95 30.5t93.5 82t87 118.5t75.5 139.5t58 145.5t37 136l15 84q-32 6 -74.5 11t-83.5 8l22 112q36 4 79 7t88.5 5t90.5 2.5t86 -1.5l-168 -874q34 -6 79.5 -11.5t86.5 -8.5z" />
<glyph unicode="v" horiz-adv-x="1044" d="M558 0h-215l-115 874q-33 6 -69 11.5t-76 8.5l20 110q71 9 148 13.5t155 1.5l75 -628q1 -22 3 -48t3 -53t2 -53.5t2 -50.5h2l439 875l181 -59z" />
<glyph unicode="w" horiz-adv-x="1522" d="M1072 0h-223l-57 538l-274 -538h-205l-97 874q-34 6 -76.5 11.5t-82.5 8.5l22 110q34 5 73 8t78.5 5t80 2.5t80.5 -0.5l71 -830h2l302 581l-11 104q-36 6 -80 11.5t-83 8.5l21 110q30 5 69 8t80.5 5t84 2.5t82.5 -0.5l67 -832h2l404 873l179 -56z" />
<glyph unicode="x" horiz-adv-x="1100" d="M660 504l161 -366q18 -2 41 -4.5t46 -6.5t44.5 -7.5t37.5 -8.5l-22 -111h-298l-153 376l-389 -436l-143 98l453 484l-150 359q-18 2 -39.5 4.5t-43.5 6t-42.5 7t-36.5 8.5l20 111h293l143 -369l382 427l139 -94z" />
<glyph unicode="y" horiz-adv-x="1067" d="M1110 1008q-67 -157 -133 -300.5t-131.5 -272t-129.5 -241t-128.5 -209.5t-128 -178t-127.5 -144q-46 -45 -92.5 -79.5t-92.5 -57.5t-92.5 -34.5t-90.5 -11.5q-20 0 -39 1t-37.5 3t-35.5 4.5t-32 6.5l31 165q30 -11 62.5 -15.5t65.5 -4.5q55 0 114 30.5t111 85.5 q30 32 51.5 66t35.5 73.5t20.5 85.5t6.5 100q0 88 -6.5 184t-19 197.5t-30 205t-38.5 206.5q-36 6 -78 11.5t-83 8.5l22 110q34 5 73 8t80 5t81.5 2.5t79.5 -0.5q21 -94 38.5 -192t30 -191t19 -176.5t6.5 -149.5q0 -53 -5 -109t-14 -108h2q62 107 117.5 216t110.5 227 t110.5 247.5t115.5 276.5l180 -52v0z" />
<glyph unicode="z" horiz-adv-x="893" d="M859 885l-623 -736q21 1 50 1.5t61 1t65.5 1t63.5 0.5h117q11 36 25 75t30 80h113l-60 -308h-708l25 134l627 744q-21 -1 -48 -1.5t-58 -1t-63.5 -1t-67.5 -0.5h-102l-25 -75t-28 -76h-113l57 295h688z" />
<glyph unicode="{" horiz-adv-x="686" d="M801 1437q-53 0 -90.5 -12t-64.5 -40.5t-45 -76.5t-32 -120l-45 -238q-14 -74 -37 -128t-54 -90.5t-69.5 -57.5t-85.5 -27v-4q42 -6 73 -28.5t47.5 -59.5t19.5 -90t-11 -121l-69 -357q-13 -72 -13.5 -120t15 -76.5t47.5 -40.5t84 -12l-27 -145h-36q-87 0 -141.5 27 t-82 78t-30 125t16.5 170l70 358q12 61 8 102.5t-25 67.5t-59 38.5t-93 16.5l28 145q60 3 103 15t73 37t49 66t30 104l45 239q16 88 45.5 161.5t76 126t112 81.5t153.5 29h41z" />
<glyph unicode="|" horiz-adv-x="571" d="M165 -505h-143l389 2048h143z" />
<glyph unicode="}" horiz-adv-x="686" d="M652 576q-60 -4 -103 -16t-73 -37.5t-48.5 -67.5t-30.5 -104l-67 -357q-20 -103 -51 -178t-78 -124t-110.5 -73t-148.5 -24h-39l27 145q53 0 90.5 12t64 40.5t44.5 76.5t32 120l67 355q13 73 36 128t54 92t70 58t86 27v5q-43 6 -73 27t-47 58t-20 89.5t11 121.5l47 239 q15 73 15 120.5t-15.5 76.5t-48 41t-84.5 12l27 143h32q88 0 143.5 -28.5t83 -81t30 -126t-15.5 -162.5l-48 -241q-12 -62 -8 -103t25 -66.5t59 -37.5t94 -15z" />
<glyph unicode="~" d="M1138 1176q-3 -74 -25.5 -133.5t-61.5 -101t-91.5 -63.5t-115.5 -22q-53 0 -92.5 15.5t-67 39t-48.5 50.5t-47.5 58.5t-52 46.5t-58.5 15q-31 0 -56 -13.5t-43 -38t-28.5 -57.5t-14.5 -73h-137q4 74 26.5 133.5t61 101.5t91 64t115.5 22q53 0 92.5 -15.5t67 -39.5 t49 -50.5t48 -58.5t51.5 -47t58 -15q31 0 56 13.5t43 38t28.5 57.5t14.5 73h137z" />
<glyph unicode="&#xa1;" horiz-adv-x="643" d="M502 920q0 -27 -10 -50t-27 -40t-40.5 -26.5t-48.5 -9.5q-26 0 -48 9t-37.5 25.5t-24.5 37.5t-9 45q0 26 10 49t27.5 40t40.5 26.5t49 9.5t47.5 -9.5t37 -25.5t24.5 -37t9 -44zM232 -422h-213l239 1096h152z" />
<glyph unicode="&#xa2;" horiz-adv-x="948" d="M916 870h-113q-1 13 -0.5 54.5t7.5 115.5q-26 8 -58 12t-68 4q-79 0 -147.5 -29.5t-119 -86t-78.5 -137.5t-28 -180q0 -53 14 -98t44.5 -79.5t79.5 -54t115 -19.5q63 0 126.5 13.5t124.5 37.5l-1 -148q-56 -23 -121.5 -37.5t-125.5 -19.5l-54 -269h-143l53 271 q-79 8 -138 37t-97.5 75.5t-57 107.5t-18.5 135q0 125 36.5 232t104 188.5t159 132.5t200.5 68l46 232h144l-43 -224q53 -1 110.5 -10.5t105.5 -24.5z" />
<glyph unicode="&#xa3;" horiz-adv-x="997" d="M-15 0l24 128q81 46 135.5 99t89 117.5t51.5 142.5t24 175h-214l27 137h193q4 82 14 159t30.5 144t54 122.5t83 94.5t119 61t161.5 22q25 0 52 -2t54 -5t52 -7.5t45 -10.5l-59 -303h-114q-2 43 -0.5 85t5.5 82q-17 6 -38.5 8.5t-38.5 2.5q-54 0 -92.5 -16.5t-63.5 -47 t-40 -72.5t-23 -92.5t-12 -107.5t-8 -117h307l-26 -137h-290q-9 -79 -20.5 -148.5t-37.5 -131.5t-72 -119t-123 -111q29 2 72 5t87 3h282q11 43 27.5 88t35.5 90h120l-66 -338h-807z" />
<glyph unicode="&#xa4;" d="M951 923q14 -24 22.5 -57.5t8.5 -78.5t-7.5 -91t-24 -90.5t-43 -88.5t-64.5 -83l132 -213l-151 -99l-123 222q-45 -24 -92.5 -36.5t-92.5 -12.5t-79 7t-58 19l-183 -198l-124 105l185 184q-20 29 -30.5 69t-10.5 91q0 47 8.5 95t26.5 94.5t46 90t69 81.5l-122 197l151 95 l113 -206q42 19 85.5 27.5t86.5 8.5q41 0 82.5 -7t74.5 -28l193 207l116 -106zM815 757q0 35 -9.5 64.5t-29.5 51t-51.5 33.5t-76.5 12q-64 0 -113 -28t-82.5 -73t-51 -102t-17.5 -115q0 -36 9 -66.5t28.5 -53t50.5 -35t75 -12.5q62 0 111.5 29t84.5 76t53.5 105t18.5 114z " />
<glyph unicode="&#xa5;" horiz-adv-x="1198" d="M1334 1271q-27 -7 -62 -13.5t-63 -9.5l-440 -631h282l-22 -115h-336l-27 -142h335l-23 -116h-334l-24 -115q45 -3 89.5 -10.5t80.5 -17.5l-19 -101h-537l20 101q41 10 87.5 17.5t91.5 10.5l24 115h-336l22 116h337l26 142h-335l22 115h282l-187 631q-26 3 -59.5 9.5 t-56.5 13.5l21 111h471l-22 -111q-35 -9 -73.5 -15t-78.5 -9l90 -346q21 -73 34.5 -122.5t24.5 -97.5h3q30 51 68 106.5t92 130.5l215 329q-39 3 -75 9t-69 15l23 111h459z" />
<glyph unicode="&#xa6;" horiz-adv-x="571" d="M410 789h-143l142 754h144zM163 -505h-143l146 774h143z" />
<glyph unicode="&#xa7;" horiz-adv-x="1042" d="M889 1335q-37 12 -68.5 16.5t-61.5 4.5q-65 0 -106.5 -20t-66 -50t-34 -64t-9.5 -62q0 -43 24 -85.5t60.5 -87t78.5 -93.5t78.5 -104t60.5 -118t24 -138q0 -49 -14 -96.5t-41.5 -91.5t-67.5 -84t-92 -75q18 -32 29.5 -70.5t11.5 -82.5q0 -71 -28.5 -138t-83.5 -118.5 t-134 -83t-180 -31.5q-45 0 -89 5t-82 16l37 158q41 -13 75.5 -20t72.5 -7q62 0 104 20t68 50t37 65t11 64q0 46 -24 90t-60 89.5t-78 94t-78 102.5t-60 114.5t-24 131.5q0 50 13.5 97.5t40 92t67 85.5t95.5 78q-24 44 -35 82t-11 79q0 33 9.5 72.5t30 79t53 76.5t79 66 t108 46t139.5 17q41 0 82 -4.5t75 -12.5zM696 505q0 46 -18.5 90.5t-48.5 90t-69.5 93.5t-80.5 103q-69 -44 -98.5 -100t-29.5 -116q0 -45 18.5 -89.5t49 -89.5t69.5 -92.5t81 -99.5q34 21 58 46.5t39.5 53t22.5 55.5t7 55z" />
<glyph unicode="&#xa8;" horiz-adv-x="1096" d="M998 1345q0 -25 -9 -46t-24.5 -36.5t-36 -24t-44.5 -8.5q-23 0 -42.5 8.5t-33.5 23t-22 34t-8 41.5q0 24 9 44.5t24.5 36t36.5 24.5t44 9t42.5 -8.5t33.5 -23.5t22 -34t8 -40zM605 1345q0 -25 -9 -46t-24.5 -36.5t-36 -24t-43.5 -8.5t-42.5 8.5t-34 23t-22.5 34t-8 40.5 q0 25 9 45.5t24.5 36t36.5 24.5t44 9t42 -8.5t33.5 -23.5t22.5 -34t8 -40z" />
<glyph unicode="&#xa9;" horiz-adv-x="1518" d="M1469 708q-2 -100 -28.5 -191.5t-73 -170t-111 -142.5t-142 -109.5t-166.5 -70t-183 -24.5q-97 0 -183 23.5t-158.5 66.5t-130.5 103.5t-98 134.5t-61 159t-19 178q1 100 27.5 191t73 169.5t111 142.5t142.5 109t167 69.5t184 24.5t179.5 -23.5t157 -66.5t131 -103 t99.5 -134t62 -159t20 -177zM1323 706q1 107 -37 202.5t-106 167t-162.5 113t-203.5 41.5q-113 0 -213 -42.5t-175 -118t-119.5 -178.5t-45.5 -222q-2 -110 36.5 -206t106.5 -168t162.5 -114t204.5 -42q75 0 145 19.5t131 55.5t111.5 87t87 114t56.5 136.5t21 154.5z M1008 785h-91q0 33 1 66.5t3 67.5q-15 2 -31 3t-31 1q-42 0 -76 -13.5t-60 -37t-44 -54.5t-30 -65.5t-18 -70t-7 -68.5q-2 -41 6 -72.5t26.5 -52t49 -31t73.5 -10.5q40 0 83 7t88 21l-9 -125q-25 -7 -51.5 -12.5t-52 -9t-50 -5.5t-46.5 -2q-80 0 -134 19.5t-86.5 55 t-45 84.5t-7.5 110q4 94 34.5 177t84.5 144.5t131.5 97.5t175.5 36q42 0 85 -5.5t76 -13.5z" />
<glyph unicode="&#xaa;" horiz-adv-x="834" d="M828 716q-32 -5 -66.5 -8t-70 -5t-70 -2t-64.5 2q7 34 22 85t38 120h-2q-52 -104 -125 -161t-161 -57q-87 0 -130 53t-43 157q0 98 28.5 187.5t84.5 159t139.5 109t188.5 39.5q58 0 116.5 -4.5t118.5 -14.5q-17 -84 -30 -150.5t-26.5 -137.5t-26 -137.5t-21.5 -118.5 q14 -2 29.5 -4.5t31.5 -4.5t31 -3.5t27 -2.5zM711 433h-601l29 144h601zM662 1261q-25 6 -49 9t-47 3q-58 0 -106 -29t-81 -78t-50.5 -109t-17.5 -122q0 -60 17 -85.5t52 -25.5q43 0 86 31.5t80.5 86.5t65 123.5t40.5 140.5z" />
<glyph unicode="&#xab;" horiz-adv-x="1012" d="M705 602l162 -291l-148 -73l-196 371l311 359l127 -78zM314 602l144 -297l-150 -72l-176 377l294 363l129 -78z" />
<glyph unicode="&#xac;" d="M934 211h-161l60 321h-740l31 155h900z" />
<glyph unicode="&#xae;" horiz-adv-x="1137" d="M1118 1106q0 -101 -39.5 -187t-104 -149t-149 -99t-174.5 -36q-91 0 -168 32t-133.5 89t-89 133.5t-32.5 165.5q0 104 39 191t104 150t149.5 98.5t175.5 35.5q90 0 167 -31.5t133.5 -88.5t89 -134.5t32.5 -169.5zM994 1101q0 63 -23 120.5t-63.5 101.5t-96.5 69.5 t-120 25.5q-66 0 -127.5 -26.5t-108 -73.5t-74.5 -111t-28 -138q0 -65 23.5 -123.5t64 -102.5t96 -70t120.5 -26q66 0 127 27t108 74t74.5 112t27.5 141zM877 1212q-1 -31 -11.5 -55.5t-28 -43t-40.5 -31t-47 -17.5q7 -8 13.5 -23.5t13.5 -31.5l28 -82q13 -2 25 -6t22 -11 l-9 -56h-119l-62 193h-27l-22 -120q13 -3 23.5 -6.5t20.5 -10.5l-9 -56h-190l10 56q13 7 25 11t27 6l59 318q-13 2 -25 7t-22 10l12 56l51 1h70h67q37 0 65.5 -6.5t46.5 -20.5t26.5 -34t6.5 -47zM779 1200q0 21 -13 32t-44 11q-14 0 -25.5 -0.5t-23.5 -0.5l-24 -124h15.5 h15.5q24 0 42 6.5t30.5 18t19 26.5t7.5 31z" />
<glyph unicode="&#xaf;" horiz-adv-x="793" d="M795 1262h-505l26 138h505z" />
<glyph unicode="&#xb0;" horiz-adv-x="754" d="M788 1267q0 -70 -25.5 -123t-66.5 -88.5t-93.5 -53.5t-106.5 -18q-62 0 -109.5 18t-79.5 50t-48.5 75.5t-16.5 96.5q0 69 26 122t67 88.5t93 53.5t105 18q66 0 114 -19t79.5 -51.5t46.5 -75.5t15 -93zM644 1256q0 20 -6 42.5t-19.5 42t-37 32.5t-58.5 13 q-28 0 -52.5 -10.5t-43 -29.5t-29.5 -46.5t-11 -62.5q0 -60 32.5 -95.5t91.5 -35.5q28 0 52 10.5t42 30t28.5 47t10.5 62.5z" />
<glyph unicode="&#xb1;" d="M1078 687h-390l-77 -401h-174l76 401h-389l28 154h389l77 399h175l-77 -399h389zM943 0h-947l30 154h947z" />
<glyph unicode="&#xb2;" horiz-adv-x="731" d="M805 1405q0 -46 -14 -91.5t-42.5 -91t-73 -91t-104.5 -91.5l-186 -145q58 3 136 3.5t224 0.5l-28 -154h-598l26 136l263 202q64 49 105.5 90.5t63.5 77t30.5 66.5t8.5 65q0 43 -29 69t-85 26q-26 0 -51.5 -3.5t-47.5 -11.5q-4 -19 -17 -61t-34 -88h-108l49 262 q28 9 58.5 16.5t62.5 13t63 8.5t60 3q70 0 121.5 -15t84 -43t47.5 -66.5t15 -86.5z" />
<glyph unicode="&#xb3;" horiz-adv-x="713" d="M788 1425q0 -40 -13.5 -77t-38 -67.5t-58.5 -53t-74 -35.5q33 -7 60 -21.5t45.5 -36.5t28.5 -49.5t10 -58.5q0 -55 -27.5 -108t-80.5 -95.5t-130.5 -67t-173.5 -24.5q-61 0 -118 5.5t-97 15.5l45 135q20 -6 43 -11t47.5 -8.5t49 -5.5t46.5 -2q109 0 161 45.5t52 108.5 q0 29 -16 50.5t-52 34.5t-96 16t-147 -7l22 123q89 0 153 11.5t104.5 33t59.5 53t19 72.5q0 22 -8.5 39t-23.5 27.5t-36.5 16t-47.5 5.5q-22 0 -46 -3t-40 -7q-7 -22 -19 -59t-22 -62h-111l45 233q48 11 109 18t112 7q68 0 118.5 -13t82.5 -38t47.5 -60t15.5 -80z" />
<glyph unicode="&#xb4;" horiz-adv-x="780" d="M412 1168l-70 101l314 254l88 -126z" />
<glyph unicode="&#xb6;" horiz-adv-x="1151" d="M1176 1239h-141l-275 -1436h-162h-146l26 144h148l273 1435h165h138zM580 507q-96 -1 -166 24.5t-116.5 71.5t-68.5 109.5t-22 138.5q0 65 16 129t47 123t77 110t106 88.5t133.5 59t159.5 21.5z" />
<glyph unicode="&#xb7;" horiz-adv-x="475" d="M391 613q0 -29 -11.5 -53.5t-30.5 -43t-44 -29t-52 -10.5q-26 0 -49.5 10.5t-40.5 27.5t-27 40.5t-10 49.5q0 28 11.5 52.5t30.5 43t43.5 29t52.5 10.5q26 0 49.5 -10t40.5 -27t27 -40.5t10 -49.5z" />
<glyph unicode="&#xb8;" horiz-adv-x="803" d="M407 -83q29 -51 36.5 -100.5t-6 -99t-45 -98.5t-80.5 -100h-157q49 53 78.5 95t41 81.5t4.5 80t-35 84.5z" />
<glyph unicode="&#xb9;" horiz-adv-x="631" d="M643 745h-522l20 105q41 10 89 17.5t98 11.5l110 567l-190 -70l-4 137l243 89h156l-137 -723q39 -6 80 -13t78 -16z" />
<glyph unicode="&#xba;" horiz-adv-x="856" d="M858 1153q0 -111 -35 -198t-94.5 -146t-134.5 -89t-154 -30q-66 0 -115.5 15t-82.5 45t-49.5 75.5t-16.5 106.5q0 94 29 178.5t83 150t129.5 102.5t165.5 37q72 0 124.5 -17t86 -49.5t49 -78t15.5 -102.5zM693 433h-578l29 144h578zM690 1131q0 29 -6.5 53t-21 42 t-38.5 28.5t-59 10.5q-57 0 -99.5 -29t-69.5 -75.5t-39.5 -99.5t-12.5 -101q0 -63 29 -98t89 -35q51 0 93 24t72.5 66.5t46.5 97.5t16 116z" />
<glyph unicode="&#xbb;" horiz-adv-x="1012" d="M654 235l-130 78l242 293l-144 297l149 71l177 -377zM245 239l-127 79l256 288l-160 291l148 73l194 -372z" />
<glyph unicode="&#xbc;" horiz-adv-x="1720" d="M643 745h-522l20 105q41 10 89 17.5t98 11.5l110 567l-190 -70l-4 137l243 89h156l-137 -723q39 -6 80 -13t78 -16zM150 -289l-105 83l1640 1853l103 -84zM1084 -216l16 84q34 9 75.5 15.5t79.5 9.5l19 100h-381l11 131l428 514h231l-97 -513h135l-26 -132h-135l-19 -100 q36 -3 68.5 -9.5t60.5 -15.5l-15 -84h-451zM1375 513l-325 -393q24 1 59 2t71 1.5t68.5 0.5h52.5z" />
<glyph unicode="&#xbd;" horiz-adv-x="1782" d="M643 745h-522l20 105q41 10 89 17.5t98 11.5l110 567l-190 -70l-4 137l243 89h156l-137 -723q39 -6 80 -13t78 -16zM150 -289l-105 83l1640 1853l103 -84zM1672 443q0 -46 -14 -91.5t-42.5 -91t-73 -91t-104.5 -91.5l-186 -145q58 3 136 3.5t224 0.5l-28 -154h-598 l26 136l263 202q64 49 105.5 90.5t63.5 77t30.5 66.5t8.5 65q0 43 -29 69t-85 26q-26 0 -51.5 -3.5t-47.5 -11.5q-4 -19 -17 -61t-34 -88h-108l49 262q28 9 58.5 16.5t62.5 13t63 8.5t60 3q70 0 121.5 -15t84 -43t47.5 -66.5t15 -86.5z" />
<glyph unicode="&#xbe;" horiz-adv-x="1698" d="M788 1425q0 -40 -13.5 -77t-38 -67.5t-58.5 -53t-74 -35.5q33 -7 60 -21.5t45.5 -36.5t28.5 -49.5t10 -58.5q0 -55 -27.5 -108t-80.5 -95.5t-130.5 -67t-173.5 -24.5q-61 0 -118 5.5t-97 15.5l45 135q20 -6 43 -11t47.5 -8.5t49 -5.5t46.5 -2q109 0 161 45.5t52 108.5 q0 29 -16 50.5t-52 34.5t-96 16t-147 -7l22 123q89 0 153 11.5t104.5 33t59.5 53t19 72.5q0 22 -8.5 39t-23.5 27.5t-36.5 16t-47.5 5.5q-22 0 -46 -3t-40 -7q-7 -22 -19 -59t-22 -62h-111l45 233q48 11 109 18t112 7q68 0 118.5 -13t82.5 -38t47.5 -60t15.5 -80zM129 -289 l-105 83l1640 1853l103 -84zM1064 -216l16 84q34 9 75.5 15.5t79.5 9.5l19 100h-381l11 131l428 514h231l-97 -513h135l-26 -132h-135l-19 -100q36 -3 68.5 -9.5t60.5 -15.5l-15 -84h-451zM1355 513l-325 -393q24 1 59 2t71 1.5t68.5 0.5h52.5z" />
<glyph unicode="&#xbf;" horiz-adv-x="893" d="M709 920q0 -27 -10 -50t-27 -40t-40 -26.5t-49 -9.5t-48 9t-38 25.5t-24.5 37.5t-8.5 45q0 26 10 49t27.5 40t40.5 26.5t49 9.5q25 0 47 -9t38 -25.5t24.5 -37.5t8.5 -44zM633 674q11 -77 0 -140.5t-38 -114t-63.5 -90.5t-88 -83t-89.5 -73.5t-69 -62.5t-50 -69.5 t-19 -81.5q0 -45 27.5 -83t76.5 -67.5t115 -49t142 -27.5l-55 -168q-119 10 -214 43t-160.5 83t-99.5 113t-34 131q0 62 20 113t53 92t66 70t93.5 78t97 84.5t65 79.5t41 99.5t3.5 123.5h180z" />
<glyph unicode="&#xc0;" horiz-adv-x="1386" d="M1279 0h-477l20 109q37 10 79.5 16.5t84.5 9.5l-34 228h-569l-123 -228q38 -3 78 -10t72 -16l-21 -109h-470l20 110q28 8 61.5 14.5t61.5 9.5l687 1248h224l209 -1247q14 -1 29.5 -3.5t31 -6t30.5 -7.5t28 -8zM850 999q-8 61 -14 110.5t-10 94.5h-2q-19 -45 -41.5 -91 t-56.5 -110l-269 -491h475zM963 1485l-389 115l65 142l368 -151z" />
<glyph unicode="&#xc1;" horiz-adv-x="1386" d="M1279 0h-477l20 109q37 10 79.5 16.5t84.5 9.5l-34 228h-569l-123 -228q38 -3 78 -10t72 -16l-21 -109h-470l20 110q28 8 61.5 14.5t61.5 9.5l687 1248h224l209 -1247q14 -1 29.5 -3.5t31 -6t30.5 -7.5t28 -8zM850 999q-8 61 -14 110.5t-10 94.5h-2q-19 -45 -41.5 -91 t-56.5 -110l-269 -491h475zM767 1485l-29 106l389 151l37 -142z" />
<glyph unicode="&#xc2;" horiz-adv-x="1386" d="M1279 0h-477l20 109q37 10 79.5 16.5t84.5 9.5l-34 228h-569l-123 -228q38 -3 78 -10t72 -16l-21 -109h-470l20 110q28 8 61.5 14.5t61.5 9.5l687 1248h224l209 -1247q14 -1 29.5 -3.5t31 -6t30.5 -7.5t28 -8zM850 999q-8 61 -14 110.5t-10 94.5h-2q-19 -45 -41.5 -91 t-56.5 -110l-269 -491h475zM1152 1482l-249 129l-286 -129l-43 100l343 174l294 -170z" />
<glyph unicode="&#xc3;" horiz-adv-x="1386" d="M1279 0h-477l20 109q37 10 79.5 16.5t84.5 9.5l-34 228h-569l-123 -228q38 -3 78 -10t72 -16l-21 -109h-470l20 110q28 8 61.5 14.5t61.5 9.5l687 1248h224l209 -1247q14 -1 29.5 -3.5t31 -6t30.5 -7.5t28 -8zM850 999q-8 61 -14 110.5t-10 94.5h-2q-19 -45 -41.5 -91 t-56.5 -110l-269 -491h475zM1253 1656q-44 -73 -103 -112t-130 -39q-51 0 -85.5 16.5t-63 36.5t-54 36.5t-57.5 16.5q-19 0 -36 -5.5t-33 -17t-31.5 -28.5t-30.5 -40l-90 68q42 72 100.5 111t130.5 39q51 0 86 -16.5t63 -36.5t53.5 -36.5t57.5 -16.5q35 0 67.5 23t63.5 68 l92 -67v0z" />
<glyph unicode="&#xc4;" horiz-adv-x="1386" d="M1279 0h-477l20 109q37 10 79.5 16.5t84.5 9.5l-34 228h-569l-123 -228q38 -3 78 -10t72 -16l-21 -109h-470l20 110q28 8 61.5 14.5t61.5 9.5l687 1248h224l209 -1247q14 -1 29.5 -3.5t31 -6t30.5 -7.5t28 -8zM850 999q-8 61 -14 110.5t-10 94.5h-2q-19 -45 -41.5 -91 t-56.5 -110l-269 -491h475zM1215 1602q0 -24 -9 -44.5t-24 -35.5t-35 -23.5t-43 -8.5q-22 0 -40.5 8.5t-32.5 22.5t-21.5 32.5t-7.5 40.5q0 23 8.5 43.5t23.5 35.5t35 23.5t42 8.5t41 -8t33 -22.5t22 -33t8 -39.5zM787 1602q0 -24 -8.5 -44.5t-23.5 -35.5t-35 -23.5 t-42 -8.5q-23 0 -41.5 8.5t-32.5 22.5t-22 32.5t-8 40.5q0 23 9 43.5t24 35.5t35 23.5t42 8.5q23 0 41.5 -8t32.5 -22.5t21.5 -33t7.5 -39.5z" />
<glyph unicode="&#xc5;" horiz-adv-x="1386" d="M1279 0h-477l20 109q37 10 79.5 16.5t84.5 9.5l-34 228h-569l-123 -228q38 -3 78 -10t72 -16l-21 -109h-470l20 110q28 8 61.5 14.5t61.5 9.5l687 1248h224l209 -1247q14 -1 29.5 -3.5t31 -6t30.5 -7.5t28 -8zM850 999q-8 61 -14 110.5t-10 94.5h-2q-19 -45 -41.5 -91 t-56.5 -110l-269 -491h475zM1125 1676q0 -48 -19.5 -88.5t-50.5 -70.5t-72 -47t-84 -17q-44 0 -80.5 15t-63.5 41t-43 62t-16 78q0 50 19 91t50.5 70.5t72.5 45.5t85 16q43 0 80 -15t64 -41.5t42.5 -62.5t15.5 -77zM1016 1670q0 20 -7 39t-20 33t-31.5 22.5t-40.5 8.5 q-23 0 -43 -9t-35.5 -25t-25 -37.5t-9.5 -45.5q0 -21 7.5 -39.5t21 -32.5t32 -22.5t40.5 -8.5t42 8.5t35.5 25t24.5 37.5t9 46z" />
<glyph unicode="&#xc6;" horiz-adv-x="1665" d="M1627 1064h-128q-1 47 -0.5 91t4.5 79h-356l-87 -453h289q12 38 26.5 73t29.5 67h111l-80 -418h-112q-4 31 -3.5 67.5t2.5 71.5h-289l-94 -491h372q13 40 28.5 85t34.5 92h129l-63 -328h-870l21 111q38 9 80 16t82 10l43 220h-446l-160 -222q37 -2 73 -9t68 -17l-21 -109 h-467l22 110q27 7 60.5 14t62.5 10l804 1111q-45 4 -88.5 11t-80.5 17l22 109h1042zM957 1229q-18 -29 -38 -59.5t-42.5 -65t-50 -73.5t-60.5 -86l-319 -439h377l139 723h-6z" />
<glyph unicode="&#xc7;" horiz-adv-x="1157" d="M1144 1020h-130q0 49 2 95t9 92q-46 13 -89.5 18t-86.5 5q-93 0 -169 -30.5t-135.5 -84t-103 -124.5t-71.5 -153.5t-42 -170.5t-14 -175q0 -76 17 -138.5t56.5 -107t104.5 -69t162 -24.5q36 0 79.5 5.5t88 15t87 23t76.5 29.5l7 -169q-90 -34 -190 -53t-195 -19 q-99 0 -174 18t-130.5 51t-93 77t-60 97t-32 112t-9.5 120q0 121 22.5 237.5t67 220.5t111 191.5t154.5 151t196.5 99.5t238.5 36q91 0 168 -10.5t145 -28.5zM584 -83q29 -51 36.5 -100.5t-6 -99t-45 -98.5t-80.5 -100h-157q49 53 78.5 95t41 81.5t4.5 80t-35 84.5z" />
<glyph unicode="&#xc8;" horiz-adv-x="1065" d="M1039 1064h-129q0 47 0.5 91t4.5 79h-362l-86 -453h290q11 38 24.5 73t31.5 67h109l-79 -418h-112q-4 31 -4.5 66.5t1.5 72.5h-287l-93 -491h363q13 40 28.5 85.5t33.5 91.5h129l-61 -328h-881l22 109q40 11 86.5 18t93.5 10l209 1108q-45 4 -88.5 11t-80.5 17l21 109 h876zM815 1485l-389 115l65 142l368 -151z" />
<glyph unicode="&#xc9;" horiz-adv-x="1065" d="M1039 1064h-129q0 47 0.5 91t4.5 79h-362l-86 -453h290q11 38 24.5 73t31.5 67h109l-79 -418h-112q-4 31 -4.5 66.5t1.5 72.5h-287l-93 -491h363q13 40 28.5 85.5t33.5 91.5h129l-61 -328h-881l22 109q40 11 86.5 18t93.5 10l209 1108q-45 4 -88.5 11t-80.5 17l21 109 h876zM627 1485l-29 106l389 151l37 -142z" />
<glyph unicode="&#xca;" horiz-adv-x="1065" d="M1039 1064h-129q0 47 0.5 91t4.5 79h-362l-86 -453h290q11 38 24.5 73t31.5 67h109l-79 -418h-112q-4 31 -4.5 66.5t1.5 72.5h-287l-93 -491h363q13 40 28.5 85.5t33.5 91.5h129l-61 -328h-881l22 109q40 11 86.5 18t93.5 10l209 1108q-45 4 -88.5 11t-80.5 17l21 109 h876zM1001 1482l-249 129l-286 -129l-43 100l343 174l294 -170z" />
<glyph unicode="&#xcb;" horiz-adv-x="1065" d="M1039 1064h-129q0 47 0.5 91t4.5 79h-362l-86 -453h290q11 38 24.5 73t31.5 67h109l-79 -418h-112q-4 31 -4.5 66.5t1.5 72.5h-287l-93 -491h363q13 40 28.5 85.5t33.5 91.5h129l-61 -328h-881l22 109q40 11 86.5 18t93.5 10l209 1108q-45 4 -88.5 11t-80.5 17l21 109 h876zM1051 1602q0 -24 -9 -44.5t-24 -35.5t-35 -23.5t-43 -8.5q-22 0 -40.5 8.5t-32.5 22.5t-21.5 32.5t-7.5 40.5q0 23 8.5 43.5t23.5 35.5t35 23.5t42 8.5t41 -8t33 -22.5t22 -33t8 -39.5zM623 1602q0 -24 -8.5 -44.5t-23.5 -35.5t-35 -23.5t-42 -8.5q-23 0 -41.5 8.5 t-32.5 22.5t-22 32.5t-8 40.5q0 23 9 43.5t24 35.5t35 23.5t42 8.5q23 0 41.5 -8t32.5 -22.5t21.5 -33t7.5 -39.5z" />
<glyph unicode="&#xcc;" horiz-adv-x="645" d="M735 1273q-41 -10 -87 -17t-92 -11l-212 -1108q45 -3 89 -10t81 -18l-20 -109h-534l20 109q42 11 88.5 18t91.5 10l211 1108q-45 4 -88 11t-80 17l20 109h533zM614 1485l-389 115l65 142l368 -151z" />
<glyph unicode="&#xcd;" horiz-adv-x="645" d="M735 1273q-41 -10 -87 -17t-92 -11l-212 -1108q45 -3 89 -10t81 -18l-20 -109h-534l20 109q42 11 88.5 18t91.5 10l211 1108q-45 4 -88 11t-80 17l20 109h533zM409 1485l-29 106l389 151l37 -142z" />
<glyph unicode="&#xce;" horiz-adv-x="645" d="M735 1273q-41 -10 -87 -17t-92 -11l-212 -1108q45 -3 89 -10t81 -18l-20 -109h-534l20 109q42 11 88.5 18t91.5 10l211 1108q-45 4 -88 11t-80 17l20 109h533zM790 1482l-249 129l-286 -129l-43 100l343 174l294 -170z" />
<glyph unicode="&#xcf;" horiz-adv-x="645" d="M735 1273q-41 -10 -87 -17t-92 -11l-212 -1108q45 -3 89 -10t81 -18l-20 -109h-534l20 109q42 11 88.5 18t91.5 10l211 1108q-45 4 -88 11t-80 17l20 109h533zM850 1602q0 -24 -9 -44.5t-24 -35.5t-35 -23.5t-43 -8.5q-22 0 -40.5 8.5t-32.5 22.5t-21.5 32.5t-7.5 40.5 q0 23 8.5 43.5t23.5 35.5t35 23.5t42 8.5t41 -8t33 -22.5t22 -33t8 -39.5zM422 1602q0 -24 -8.5 -44.5t-23.5 -35.5t-35 -23.5t-42 -8.5q-23 0 -41.5 8.5t-32.5 22.5t-22 32.5t-8 40.5q0 23 9 43.5t24 35.5t35 23.5t42 8.5q23 0 41.5 -8t32.5 -22.5t21.5 -33t7.5 -39.5z" />
<glyph unicode="&#xd0;" horiz-adv-x="1442" d="M1406 888q0 -114 -23.5 -225t-72 -210t-122.5 -183.5t-173.5 -146t-226 -96t-280.5 -34.5q-56 0 -104 1t-91 2.5t-81.5 2.5t-76.5 1h-172l20 109q42 11 87 18t91 10l96 501h-181l27 144h181l89 463q-45 4 -88 11t-80 17l20 109h171q34 0 81.5 1t101 2.5t109 3t105.5 1.5 q160 0 272.5 -36.5t184 -103t104 -158.5t32.5 -204zM1210 867q0 80 -20 147.5t-69 116t-130.5 76t-203.5 27.5q-30 0 -59.5 -0.5t-57 -1t-52.5 -1.5t-44 -2l-85 -447h290l-29 -144h-289l-90 -475q19 -3 41 -5t44 -3.5t42.5 -2.5t37.5 -1q122 0 219.5 30t172 82t128.5 122 t88 149.5t50 165t16 167.5z" />
<glyph unicode="&#xd1;" horiz-adv-x="1499" d="M1588 1271q-33 -8 -70 -15t-73 -11l-238 -1245h-175h-55l-354 866q-30 77 -56.5 155t-45.5 151q-9 -60 -18.5 -127t-21.5 -136t-24 -137.5t-23 -132.5l-91 -502q40 -3 79.5 -9.5t74.5 -16.5l-21 -111h-515l21 109q41 11 87.5 18t92.5 10l209 1108q-45 4 -88 11t-81 17 l21 109h355h53v0l352 -865q28 -71 54 -147t49 -152q8 55 18.5 119t22 131t23 134.5t22.5 127.5l93 515q-41 4 -78.5 10t-71.5 16l21 111h473zM1332 1656q-44 -73 -103 -112t-130 -39q-51 0 -85.5 16.5t-63 36.5t-54 36.5t-57.5 16.5q-19 0 -36 -5.5t-33 -17t-31.5 -28.5 t-30.5 -40l-90 68q42 72 100.5 111t130.5 39q51 0 86 -16.5t63 -36.5t53.5 -36.5t57.5 -16.5q35 0 67.5 23t63.5 68l92 -67v0z" />
<glyph unicode="&#xd2;" horiz-adv-x="1415" d="M1388 900q0 -132 -28 -251.5t-79.5 -221.5t-124 -184.5t-161 -141t-190 -90t-210.5 -31.5q-125 0 -218 34.5t-154.5 98.5t-92 157.5t-30.5 211.5q0 126 27.5 243t78 219t122 186.5t159 145t190 93.5t215.5 33q121 0 213.5 -33.5t155.5 -97.5t95 -158t32 -213zM1188 878 q0 83 -20 149t-60 113t-102 72t-145 25t-156 -26.5t-135.5 -74.5t-112.5 -115.5t-85 -148t-54 -172.5t-19 -189q0 -84 21 -151.5t61.5 -114.5t100 -72t138.5 -25q78 0 151 25.5t136 72.5t115 113.5t88.5 147.5t57 175t20.5 196zM1002 1485l-389 115l65 142l368 -151z" />
<glyph unicode="&#xd3;" horiz-adv-x="1415" d="M1388 900q0 -132 -28 -251.5t-79.5 -221.5t-124 -184.5t-161 -141t-190 -90t-210.5 -31.5q-125 0 -218 34.5t-154.5 98.5t-92 157.5t-30.5 211.5q0 126 27.5 243t78 219t122 186.5t159 145t190 93.5t215.5 33q121 0 213.5 -33.5t155.5 -97.5t95 -158t32 -213zM1188 878 q0 83 -20 149t-60 113t-102 72t-145 25t-156 -26.5t-135.5 -74.5t-112.5 -115.5t-85 -148t-54 -172.5t-19 -189q0 -84 21 -151.5t61.5 -114.5t100 -72t138.5 -25q78 0 151 25.5t136 72.5t115 113.5t88.5 147.5t57 175t20.5 196zM840 1485l-29 106l389 151l37 -142z" />
<glyph unicode="&#xd4;" horiz-adv-x="1415" d="M1388 900q0 -132 -28 -251.5t-79.5 -221.5t-124 -184.5t-161 -141t-190 -90t-210.5 -31.5q-125 0 -218 34.5t-154.5 98.5t-92 157.5t-30.5 211.5q0 126 27.5 243t78 219t122 186.5t159 145t190 93.5t215.5 33q121 0 213.5 -33.5t155.5 -97.5t95 -158t32 -213zM1188 878 q0 83 -20 149t-60 113t-102 72t-145 25t-156 -26.5t-135.5 -74.5t-112.5 -115.5t-85 -148t-54 -172.5t-19 -189q0 -84 21 -151.5t61.5 -114.5t100 -72t138.5 -25q78 0 151 25.5t136 72.5t115 113.5t88.5 147.5t57 175t20.5 196zM1189 1482l-249 129l-286 -129l-43 100 l343 174l294 -170z" />
<glyph unicode="&#xd5;" horiz-adv-x="1415" d="M1388 900q0 -132 -28 -251.5t-79.5 -221.5t-124 -184.5t-161 -141t-190 -90t-210.5 -31.5q-125 0 -218 34.5t-154.5 98.5t-92 157.5t-30.5 211.5q0 126 27.5 243t78 219t122 186.5t159 145t190 93.5t215.5 33q121 0 213.5 -33.5t155.5 -97.5t95 -158t32 -213zM1188 878 q0 83 -20 149t-60 113t-102 72t-145 25t-156 -26.5t-135.5 -74.5t-112.5 -115.5t-85 -148t-54 -172.5t-19 -189q0 -84 21 -151.5t61.5 -114.5t100 -72t138.5 -25q78 0 151 25.5t136 72.5t115 113.5t88.5 147.5t57 175t20.5 196zM1296 1656q-44 -73 -103 -112t-130 -39 q-51 0 -85.5 16.5t-63 36.5t-54 36.5t-57.5 16.5q-19 0 -36 -5.5t-33 -17t-31.5 -28.5t-30.5 -40l-90 68q42 72 100.5 111t130.5 39q51 0 86 -16.5t63 -36.5t53.5 -36.5t57.5 -16.5q35 0 67.5 23t63.5 68l92 -67v0z" />
<glyph unicode="&#xd6;" horiz-adv-x="1415" d="M1388 900q0 -132 -28 -251.5t-79.5 -221.5t-124 -184.5t-161 -141t-190 -90t-210.5 -31.5q-125 0 -218 34.5t-154.5 98.5t-92 157.5t-30.5 211.5q0 126 27.5 243t78 219t122 186.5t159 145t190 93.5t215.5 33q121 0 213.5 -33.5t155.5 -97.5t95 -158t32 -213zM1188 878 q0 83 -20 149t-60 113t-102 72t-145 25t-156 -26.5t-135.5 -74.5t-112.5 -115.5t-85 -148t-54 -172.5t-19 -189q0 -84 21 -151.5t61.5 -114.5t100 -72t138.5 -25q78 0 151 25.5t136 72.5t115 113.5t88.5 147.5t57 175t20.5 196zM1232 1602q0 -24 -9 -44.5t-24 -35.5 t-35 -23.5t-43 -8.5q-22 0 -40.5 8.5t-32.5 22.5t-21.5 32.5t-7.5 40.5q0 23 8.5 43.5t23.5 35.5t35 23.5t42 8.5t41 -8t33 -22.5t22 -33t8 -39.5zM804 1602q0 -24 -8.5 -44.5t-23.5 -35.5t-35 -23.5t-42 -8.5q-23 0 -41.5 8.5t-32.5 22.5t-22 32.5t-8 40.5q0 23 9 43.5 t24 35.5t35 23.5t42 8.5q23 0 41.5 -8t32.5 -22.5t21.5 -33t7.5 -39.5z" />
<glyph unicode="&#xd7;" d="M693 604l278 -346l-124 -100l-277 344l-409 -344l-93 111l412 345l-279 346l124 99l277 -342l407 342l93 -110z" />
<glyph unicode="&#xd8;" horiz-adv-x="1415" d="M1390 900q0 -132 -28.5 -251.5t-80.5 -221.5t-124.5 -184.5t-160.5 -141t-190 -90t-211 -31.5q-44 0 -84.5 5.5t-75.5 14.5l-111 -206l-132 55l108 201q-101 61 -150.5 170t-49.5 262q0 126 27 243t77.5 219t121.5 186.5t158.5 145t190 93.5t216.5 33q39 0 74.5 -4 t69.5 -13l104 193l131 -54l-101 -186q108 -57 164.5 -168t56.5 -270zM1195 881q0 97 -29 169.5t-89 115.5l-554 -1006q59 -16 133 -9q74 5 142.5 34t128.5 77t109 113.5t84.5 144.5t55 170.5t19.5 190.5zM949 1228q-27 5 -56.5 7.5t-63.5 0.5q-78 -5 -147.5 -34.5 t-128.5 -78.5t-107 -115.5t-81 -145.5t-51 -168.5t-18 -184.5q0 -92 24.5 -162t79.5 -115z" />
<glyph unicode="&#xd9;" horiz-adv-x="1436" d="M1527 1271q-69 -17 -142 -26l-140 -738q-26 -134 -79 -233.5t-132 -164.5t-184 -97t-235 -32q-121 0 -206.5 26t-136.5 74t-73.5 112.5t-22.5 145.5q0 31 4 64t11 79l145 764q-35 4 -69 11t-65 15l21 111h483l-23 -111q-35 -9 -78 -15.5t-85 -10.5l-144 -752 q-7 -37 -10.5 -69.5t-3.5 -60.5q0 -58 15.5 -101.5t49 -72.5t86.5 -43.5t128 -14.5q90 0 159.5 21t121.5 67t87.5 121.5t56.5 185.5l137 719q-41 4 -81 10.5t-74 15.5l21 111h479zM939 1485l-389 115l65 142l368 -151z" />
<glyph unicode="&#xda;" horiz-adv-x="1436" d="M1527 1271q-69 -17 -142 -26l-140 -738q-26 -134 -79 -233.5t-132 -164.5t-184 -97t-235 -32q-121 0 -206.5 26t-136.5 74t-73.5 112.5t-22.5 145.5q0 31 4 64t11 79l145 764q-35 4 -69 11t-65 15l21 111h483l-23 -111q-35 -9 -78 -15.5t-85 -10.5l-144 -752 q-7 -37 -10.5 -69.5t-3.5 -60.5q0 -58 15.5 -101.5t49 -72.5t86.5 -43.5t128 -14.5q90 0 159.5 21t121.5 67t87.5 121.5t56.5 185.5l137 719q-41 4 -81 10.5t-74 15.5l21 111h479zM839 1485l-29 106l389 151l37 -142z" />
<glyph unicode="&#xdb;" horiz-adv-x="1436" d="M1527 1271q-69 -17 -142 -26l-140 -738q-26 -134 -79 -233.5t-132 -164.5t-184 -97t-235 -32q-121 0 -206.5 26t-136.5 74t-73.5 112.5t-22.5 145.5q0 31 4 64t11 79l145 764q-35 4 -69 11t-65 15l21 111h483l-23 -111q-35 -9 -78 -15.5t-85 -10.5l-144 -752 q-7 -37 -10.5 -69.5t-3.5 -60.5q0 -58 15.5 -101.5t49 -72.5t86.5 -43.5t128 -14.5q90 0 159.5 21t121.5 67t87.5 121.5t56.5 185.5l137 719q-41 4 -81 10.5t-74 15.5l21 111h479zM1179 1482l-249 129l-286 -129l-43 100l343 174l294 -170z" />
<glyph unicode="&#xdc;" horiz-adv-x="1436" d="M1527 1271q-69 -17 -142 -26l-140 -738q-26 -134 -79 -233.5t-132 -164.5t-184 -97t-235 -32q-121 0 -206.5 26t-136.5 74t-73.5 112.5t-22.5 145.5q0 31 4 64t11 79l145 764q-35 4 -69 11t-65 15l21 111h483l-23 -111q-35 -9 -78 -15.5t-85 -10.5l-144 -752 q-7 -37 -10.5 -69.5t-3.5 -60.5q0 -58 15.5 -101.5t49 -72.5t86.5 -43.5t128 -14.5q90 0 159.5 21t121.5 67t87.5 121.5t56.5 185.5l137 719q-41 4 -81 10.5t-74 15.5l21 111h479zM1247 1602q0 -24 -9 -44.5t-24 -35.5t-35 -23.5t-43 -8.5q-22 0 -40.5 8.5t-32.5 22.5 t-21.5 32.5t-7.5 40.5q0 23 8.5 43.5t23.5 35.5t35 23.5t42 8.5t41 -8t33 -22.5t22 -33t8 -39.5zM819 1602q0 -24 -8.5 -44.5t-23.5 -35.5t-35 -23.5t-42 -8.5q-23 0 -41.5 8.5t-32.5 22.5t-22 32.5t-8 40.5q0 23 9 43.5t24 35.5t35 23.5t42 8.5q23 0 41.5 -8t32.5 -22.5 t21.5 -33t7.5 -39.5z" />
<glyph unicode="&#xdd;" horiz-adv-x="1192" d="M1327 1271q-30 -7 -64 -13.5t-60 -9.5l-519 -759l-66 -352q44 -3 88 -10.5t81 -17.5l-20 -109h-534l20 109q40 10 87 17.5t93 10.5l67 351l-222 760q-26 3 -58.5 9.5t-60.5 13.5l20 111h469l-22 -111q-32 -9 -71.5 -15t-82.5 -9l94 -362q8 -28 15.5 -57l15 -58t14 -58 t12.5 -56h3q17 29 36 59.5t38.5 62t39.5 63t52 81.5l205 325q-36 3 -72 9t-65 15l23 111h465zM750 1485l-29 106l389 151l37 -142z" />
<glyph unicode="&#xde;" horiz-adv-x="1135" d="M1150 813q0 -102 -41.5 -194t-122 -163.5t-196 -112.5t-258.5 -41q-42 0 -74 2.5t-80 8.5l-35 -176q45 -3 88.5 -10t80.5 -18l-20 -109h-533l21 109q42 11 88 18t92 10l210 1108q-44 4 -88.5 11t-81.5 17l21 109h534l-20 -109q-41 -10 -87.5 -17t-92.5 -11l-22 -118 q50 3 99.5 5t101.5 2q112 0 192.5 -24t129.5 -67.5t71.5 -101.5t22.5 -128zM950 787q0 46 -15 82.5t-47 62.5t-82 40t-119 14q-23 0 -47 -1t-48 -2.5t-46.5 -4t-41.5 -5.5l-97 -509q40 -6 71 -9t62 -3q97 0 174.5 27t130 74.5t79 107.5t26.5 126z" />
<glyph unicode="&#xdf;" horiz-adv-x="1200" d="M1103 323q0 -69 -30.5 -131t-87.5 -108.5t-137 -74.5t-178 -28q-29 0 -54.5 1t-49 2.5t-46 4.5t-46.5 7l57 296h109q0 -45 -1.5 -83.5t-5.5 -75.5q15 -3 35 -5t34 -2q103 0 159 44.5t56 120.5q0 43 -22 77t-55 64.5t-72 60.5t-72 65.5t-55.5 81t-22.5 105.5q0 54 14.5 95 t38.5 73t54.5 57t62 48t62 45t54 48t38 57t14.5 71q0 53 -38.5 87.5t-114.5 34.5q-59 0 -108.5 -18t-89.5 -58t-69 -100t-49 -167l-208 -1074q-25 -131 -65 -220t-97.5 -143.5t-132 -78t-167.5 -23.5q-34 0 -74 4.5t-73 11.5l41 155q32 -9 63.5 -13t66.5 -4q54 0 94.5 13.5 t70.5 49t52.5 96t40.5 153.5l180 930q-17 3 -37.5 5.5t-42 5t-43.5 4.5t-41 4l21 110q35 5 79 8t92 5q23 127 68.5 219t111.5 152t151.5 89t188.5 29q77 0 136 -18t100 -50t62 -77t21 -99q0 -75 -25 -126t-62.5 -88t-82 -64.5t-82 -56t-62.5 -63.5t-25 -87q0 -42 22 -75.5 t55 -64t71.5 -61t71.5 -67t54.5 -81.5t21.5 -105z" />
<glyph unicode="&#xe0;" horiz-adv-x="1130" d="M1002 15q-38 -5 -81.5 -8.5t-89 -5.5t-91 -3t-87.5 1q13 68 41.5 169t74.5 246l-4 1q-18 -38 -43 -86t-57.5 -96t-71.5 -94t-86 -81.5t-101 -57t-115 -21.5q-111 0 -169.5 75t-58.5 235q0 94 16.5 185.5t50 174t86 153t123.5 122t161.5 80.5t202.5 29q87 0 167 -7.5 t152 -22.5l-165 -859q35 -6 78.5 -11.5t86.5 -8.5zM817 870q-31 8 -66.5 13.5t-79.5 5.5q-76 0 -136.5 -24.5t-107.5 -66.5t-80.5 -98t-55 -118.5t-31.5 -129t-10 -129.5q0 -50 7 -85t20.5 -57.5t32.5 -32.5t43 -10q48 0 97 31t94.5 83t87 119.5t75 139.5t58 144t37.5 133z M729 1168l-280 239l110 116l259 -261z" />
<glyph unicode="&#xe1;" horiz-adv-x="1130" d="M1002 15q-38 -5 -81.5 -8.5t-89 -5.5t-91 -3t-87.5 1q13 68 41.5 169t74.5 246l-4 1q-18 -38 -43 -86t-57.5 -96t-71.5 -94t-86 -81.5t-101 -57t-115 -21.5q-111 0 -169.5 75t-58.5 235q0 94 16.5 185.5t50 174t86 153t123.5 122t161.5 80.5t202.5 29q87 0 167 -7.5 t152 -22.5l-165 -859q35 -6 78.5 -11.5t86.5 -8.5zM817 870q-31 8 -66.5 13.5t-79.5 5.5q-76 0 -136.5 -24.5t-107.5 -66.5t-80.5 -98t-55 -118.5t-31.5 -129t-10 -129.5q0 -50 7 -85t20.5 -57.5t32.5 -32.5t43 -10q48 0 97 31t94.5 83t87 119.5t75 139.5t58 144t37.5 133z M671 1168l-70 101l314 254l88 -126z" />
<glyph unicode="&#xe2;" horiz-adv-x="1130" d="M1002 15q-38 -5 -81.5 -8.5t-89 -5.5t-91 -3t-87.5 1q13 68 41.5 169t74.5 246l-4 1q-18 -38 -43 -86t-57.5 -96t-71.5 -94t-86 -81.5t-101 -57t-115 -21.5q-111 0 -169.5 75t-58.5 235q0 94 16.5 185.5t50 174t86 153t123.5 122t161.5 80.5t202.5 29q87 0 167 -7.5 t152 -22.5l-165 -859q35 -6 78.5 -11.5t86.5 -8.5zM817 870q-31 8 -66.5 13.5t-79.5 5.5q-76 0 -136.5 -24.5t-107.5 -66.5t-80.5 -98t-55 -118.5t-31.5 -129t-10 -129.5q0 -50 7 -85t20.5 -57.5t32.5 -32.5t43 -10q48 0 97 31t94.5 83t87 119.5t75 139.5t58 144t37.5 133z M886 1168l-171 174l-228 -174l-71 86l325 269l234 -266z" />
<glyph unicode="&#xe3;" horiz-adv-x="1130" d="M1002 15q-38 -5 -81.5 -8.5t-89 -5.5t-91 -3t-87.5 1q13 68 41.5 169t74.5 246l-4 1q-18 -38 -43 -86t-57.5 -96t-71.5 -94t-86 -81.5t-101 -57t-115 -21.5q-111 0 -169.5 75t-58.5 235q0 94 16.5 185.5t50 174t86 153t123.5 122t161.5 80.5t202.5 29q87 0 167 -7.5 t152 -22.5l-165 -859q35 -6 78.5 -11.5t86.5 -8.5zM817 870q-31 8 -66.5 13.5t-79.5 5.5q-76 0 -136.5 -24.5t-107.5 -66.5t-80.5 -98t-55 -118.5t-31.5 -129t-10 -129.5q0 -50 7 -85t20.5 -57.5t32.5 -32.5t43 -10q48 0 97 31t94.5 83t87 119.5t75 139.5t58 144t37.5 133z M1036 1376q-41 -77 -100.5 -118t-127.5 -41q-49 0 -82.5 17.5t-60 38.5t-50.5 38.5t-56 17.5q-34 0 -65 -24t-62 -71l-90 72q42 77 100 117.5t127 40.5q49 0 82.5 -17t61 -38t52.5 -38.5t56 -17.5q34 0 65 24t60 72l90 -73v0z" />
<glyph unicode="&#xe4;" horiz-adv-x="1130" d="M1002 15q-38 -5 -81.5 -8.5t-89 -5.5t-91 -3t-87.5 1q13 68 41.5 169t74.5 246l-4 1q-18 -38 -43 -86t-57.5 -96t-71.5 -94t-86 -81.5t-101 -57t-115 -21.5q-111 0 -169.5 75t-58.5 235q0 94 16.5 185.5t50 174t86 153t123.5 122t161.5 80.5t202.5 29q87 0 167 -7.5 t152 -22.5l-165 -859q35 -6 78.5 -11.5t86.5 -8.5zM817 870q-31 8 -66.5 13.5t-79.5 5.5q-76 0 -136.5 -24.5t-107.5 -66.5t-80.5 -98t-55 -118.5t-31.5 -129t-10 -129.5q0 -50 7 -85t20.5 -57.5t32.5 -32.5t43 -10q48 0 97 31t94.5 83t87 119.5t75 139.5t58 144t37.5 133z M1000 1345q0 -25 -9 -46t-24.5 -36.5t-36 -24t-44.5 -8.5q-23 0 -42.5 8.5t-33.5 23t-22 34t-8 41.5q0 24 9 44.5t24.5 36t36.5 24.5t44 9t42.5 -8.5t33.5 -23.5t22 -34t8 -40zM607 1345q0 -25 -9 -46t-24.5 -36.5t-36 -24t-43.5 -8.5t-42.5 8.5t-34 23t-22.5 34t-8 40.5 q0 25 9 45.5t24.5 36t36.5 24.5t44 9t42 -8.5t33.5 -23.5t22.5 -34t8 -40z" />
<glyph unicode="&#xe5;" horiz-adv-x="1130" d="M1002 15q-38 -5 -81.5 -8.5t-89 -5.5t-91 -3t-87.5 1q13 68 41.5 169t74.5 246l-4 1q-18 -38 -43 -86t-57.5 -96t-71.5 -94t-86 -81.5t-101 -57t-115 -21.5q-111 0 -169.5 75t-58.5 235q0 94 16.5 185.5t50 174t86 153t123.5 122t161.5 80.5t202.5 29q87 0 167 -7.5 t152 -22.5l-165 -859q35 -6 78.5 -11.5t86.5 -8.5zM817 870q-31 8 -66.5 13.5t-79.5 5.5q-76 0 -136.5 -24.5t-107.5 -66.5t-80.5 -98t-55 -118.5t-31.5 -129t-10 -129.5q0 -50 7 -85t20.5 -57.5t32.5 -32.5t43 -10q48 0 97 31t94.5 83t87 119.5t75 139.5t58 144t37.5 133z M921 1370q0 -51 -20.5 -94.5t-54.5 -75.5t-78 -50t-91 -18q-46 0 -86 16t-69.5 43.5t-46 66.5t-16.5 85q0 54 20.5 97.5t54.5 75t78 48.5t91 17t87 -15.5t69 -44t45.5 -67.5t16.5 -84zM803 1364q0 22 -7.5 42t-21.5 35t-33.5 24.5t-43.5 9.5t-45.5 -10t-38.5 -27t-26.5 -40 t-9.5 -48q0 -23 7.5 -43t21.5 -34.5t33.5 -23.5t43.5 -9q23 0 45 9.5t39 26t26.5 39t9.5 49.5z" />
<glyph unicode="&#xe6;" horiz-adv-x="1565" d="M1522 804q0 -48 -13.5 -91t-44 -79.5t-80.5 -67t-123.5 -53.5t-172.5 -38.5t-229 -21.5q-2 -12 -3.5 -27t-3 -31.5t-2 -33.5t-0.5 -31q0 -60 11.5 -98t37.5 -60.5t68 -31.5t104 -9q72 0 145.5 16t138.5 42l8 -144q-78 -30 -166.5 -47t-188.5 -17q-81 0 -137 17.5 t-93.5 48t-58.5 72t-31 91.5q-26 -44 -66 -85.5t-91.5 -73t-113 -51t-129.5 -19.5q-65 0 -112.5 16t-78 44.5t-45.5 67t-15 84.5q0 71 23.5 126.5t66 97t103 71t134.5 49.5t159.5 31t178.5 16l16 70q13 61 11.5 105.5t-21 74t-57 44t-96.5 14.5q-46 0 -95.5 -6t-95.5 -19 q-11 -38 -25.5 -80t-30.5 -85h-110l52 280q78 26 164.5 41t176.5 15q70 0 118 -12.5t80 -34t50.5 -50.5t30.5 -61q26 30 63.5 58t82.5 50t97 35t109 13q81 0 138.5 -19t93 -51t52 -74t16.5 -88zM1339 782q0 28 -10 49.5t-28.5 36t-44 22t-55.5 7.5q-61 0 -110.5 -24 t-89 -66.5t-69 -98.5t-46.5 -119q101 6 184.5 17t143 32.5t92.5 56t33 87.5zM677 452q-100 -6 -183 -18t-144 -35.5t-94.5 -62.5t-33.5 -100q0 -24 9 -44.5t24.5 -34.5t37.5 -22t49 -8q63 0 119 26.5t100 71.5t74 103.5t42 123.5z" />
<glyph unicode="&#xe7;" horiz-adv-x="864" d="M830 700l-111 1q-1 20 -1 42t1 44t2.5 43.5t4.5 41.5q-23 6 -48 9t-52 3q-58 0 -108 -21.5t-90 -58.5t-71.5 -87t-53 -108t-32 -121t-10.5 -124q0 -43 8.5 -83t32.5 -70t66 -48.5t110 -18.5q60 0 122.5 13.5t116.5 37.5l12 -154q-62 -24 -139.5 -39.5t-158.5 -15.5 q-102 0 -171.5 24.5t-112 69.5t-61.5 106.5t-19 135.5q0 150 42 280t118 226t183 150.5t237 54.5q65 0 126 -9t114 -26zM421 -83q29 -51 36.5 -100.5t-6 -99t-45 -98.5t-80.5 -100h-157q49 53 78.5 95t41 81.5t4.5 80t-35 84.5z" />
<glyph unicode="&#xe8;" horiz-adv-x="971" d="M927 804q0 -82 -42 -145.5t-125.5 -108.5t-207.5 -70.5t-287 -31.5q-2 -12 -4 -26.5t-3.5 -30.5t-2.5 -32t-1 -29q0 -60 11.5 -98t37 -60.5t67 -31.5t104.5 -9q72 0 146 15t141 43l7 -144q-79 -31 -168.5 -47.5t-189.5 -16.5q-88 0 -152.5 19.5t-107 59.5t-63 102.5 t-20.5 148.5q0 98 18 190.5t52 173.5t83.5 147.5t112 114.5t137.5 73.5t158 25.5q78 0 135.5 -18.5t93.5 -50.5t53 -73.5t17 -89.5zM740 782q0 28 -9.5 49.5t-28 35.5t-43.5 21.5t-56 7.5q-59 0 -109.5 -24t-90 -66.5t-68.5 -99t-47 -122.5q118 4 203.5 19t140.5 40 t81.5 59.5t26.5 79.5zM669 1168l-280 239l110 116l259 -261z" />
<glyph unicode="&#xe9;" horiz-adv-x="971" d="M927 804q0 -82 -42 -145.5t-125.5 -108.5t-207.5 -70.5t-287 -31.5q-2 -12 -4 -26.5t-3.5 -30.5t-2.5 -32t-1 -29q0 -60 11.5 -98t37 -60.5t67 -31.5t104.5 -9q72 0 146 15t141 43l7 -144q-79 -31 -168.5 -47.5t-189.5 -16.5q-88 0 -152.5 19.5t-107 59.5t-63 102.5 t-20.5 148.5q0 98 18 190.5t52 173.5t83.5 147.5t112 114.5t137.5 73.5t158 25.5q78 0 135.5 -18.5t93.5 -50.5t53 -73.5t17 -89.5zM740 782q0 28 -9.5 49.5t-28 35.5t-43.5 21.5t-56 7.5q-59 0 -109.5 -24t-90 -66.5t-68.5 -99t-47 -122.5q118 4 203.5 19t140.5 40 t81.5 59.5t26.5 79.5zM592 1168l-70 101l314 254l88 -126z" />
<glyph unicode="&#xea;" horiz-adv-x="971" d="M927 804q0 -82 -42 -145.5t-125.5 -108.5t-207.5 -70.5t-287 -31.5q-2 -12 -4 -26.5t-3.5 -30.5t-2.5 -32t-1 -29q0 -60 11.5 -98t37 -60.5t67 -31.5t104.5 -9q72 0 146 15t141 43l7 -144q-79 -31 -168.5 -47.5t-189.5 -16.5q-88 0 -152.5 19.5t-107 59.5t-63 102.5 t-20.5 148.5q0 98 18 190.5t52 173.5t83.5 147.5t112 114.5t137.5 73.5t158 25.5q78 0 135.5 -18.5t93.5 -50.5t53 -73.5t17 -89.5zM740 782q0 28 -9.5 49.5t-28 35.5t-43.5 21.5t-56 7.5q-59 0 -109.5 -24t-90 -66.5t-68.5 -99t-47 -122.5q118 4 203.5 19t140.5 40 t81.5 59.5t26.5 79.5zM836 1168l-171 174l-228 -174l-71 86l325 269l234 -266z" />
<glyph unicode="&#xeb;" horiz-adv-x="971" d="M927 804q0 -82 -42 -145.5t-125.5 -108.5t-207.5 -70.5t-287 -31.5q-2 -12 -4 -26.5t-3.5 -30.5t-2.5 -32t-1 -29q0 -60 11.5 -98t37 -60.5t67 -31.5t104.5 -9q72 0 146 15t141 43l7 -144q-79 -31 -168.5 -47.5t-189.5 -16.5q-88 0 -152.5 19.5t-107 59.5t-63 102.5 t-20.5 148.5q0 98 18 190.5t52 173.5t83.5 147.5t112 114.5t137.5 73.5t158 25.5q78 0 135.5 -18.5t93.5 -50.5t53 -73.5t17 -89.5zM740 782q0 28 -9.5 49.5t-28 35.5t-43.5 21.5t-56 7.5q-59 0 -109.5 -24t-90 -66.5t-68.5 -99t-47 -122.5q118 4 203.5 19t140.5 40 t81.5 59.5t26.5 79.5zM981 1345q0 -25 -9 -46t-24.5 -36.5t-36 -24t-44.5 -8.5q-23 0 -42.5 8.5t-33.5 23t-22 34t-8 41.5q0 24 9 44.5t24.5 36t36.5 24.5t44 9t42.5 -8.5t33.5 -23.5t22 -34t8 -40zM588 1345q0 -25 -9 -46t-24.5 -36.5t-36 -24t-43.5 -8.5t-42.5 8.5t-34 23 t-22.5 34t-8 40.5q0 25 9 45.5t24.5 36t36.5 24.5t44 9t42 -8.5t33.5 -23.5t22.5 -34t8 -40z" />
<glyph unicode="&#xec;" horiz-adv-x="590" d="M464 15q-40 -6 -84.5 -9t-90.5 -5t-92 -3t-87 1l169 877q-35 6 -77.5 10.5t-86.5 7.5l21 110q39 5 83.5 8t90.5 5t91 2.5t86 -0.5l-169 -875q18 -3 38.5 -6t42.5 -5.5l44 -5t41 -3.5zM483 1168l-280 239l110 116l259 -261z" />
<glyph unicode="&#xed;" horiz-adv-x="590" d="M464 15q-40 -6 -84.5 -9t-90.5 -5t-92 -3t-87 1l169 877q-35 6 -77.5 10.5t-86.5 7.5l21 110q39 5 83.5 8t90.5 5t91 2.5t86 -0.5l-169 -875q18 -3 38.5 -6t42.5 -5.5l44 -5t41 -3.5zM340 1168l-70 101l314 254l88 -126z" />
<glyph unicode="&#xee;" horiz-adv-x="590" d="M464 15q-40 -6 -84.5 -9t-90.5 -5t-92 -3t-87 1l169 877q-35 6 -77.5 10.5t-86.5 7.5l21 110q39 5 83.5 8t90.5 5t91 2.5t86 -0.5l-169 -875q18 -3 38.5 -6t42.5 -5.5l44 -5t41 -3.5zM628 1168l-171 174l-228 -174l-71 86l325 269l234 -266z" />
<glyph unicode="&#xef;" horiz-adv-x="590" d="M464 15q-40 -6 -84.5 -9t-90.5 -5t-92 -3t-87 1l169 877q-35 6 -77.5 10.5t-86.5 7.5l21 110q39 5 83.5 8t90.5 5t91 2.5t86 -0.5l-169 -875q18 -3 38.5 -6t42.5 -5.5l44 -5t41 -3.5zM748 1345q0 -25 -9 -46t-24.5 -36.5t-36 -24t-44.5 -8.5q-23 0 -42.5 8.5t-33.5 23 t-22 34t-8 41.5q0 24 9 44.5t24.5 36t36.5 24.5t44 9t42.5 -8.5t33.5 -23.5t22 -34t8 -40zM355 1345q0 -25 -9 -46t-24.5 -36.5t-36 -24t-43.5 -8.5t-42.5 8.5t-34 23t-22.5 34t-8 40.5q0 25 9 45.5t24.5 36t36.5 24.5t44 9t42 -8.5t33.5 -23.5t22.5 -34t8 -40z" />
<glyph unicode="&#xf0;" horiz-adv-x="1096" d="M885 1290q36 -58 65 -120.5t49 -129t30.5 -138t10.5 -147.5q0 -110 -19.5 -210.5t-56 -186.5t-89 -155.5t-117.5 -118.5t-142.5 -76t-163.5 -27q-94 0 -166 23.5t-120 70t-73 115t-25 159.5q0 92 19 179t55 163t87.5 139.5t115.5 108.5t139 70t160 25q34 0 66.5 -5.5 t59.5 -16.5t48 -28.5t32 -42.5q-10 33 -21 61t-18 44q-22 51 -45 93.5t-50 80.5l-228 -94l-58 102l209 87q-28 32 -60.5 63.5t-69.5 65.5l179 79q34 -32 66.5 -65.5t60.5 -69.5l223 92l57 -102zM843 656q0 48 -12.5 89.5t-38.5 72t-66 47.5t-95 17q-60 0 -111 -20.5 t-92.5 -56t-73.5 -83.5t-53.5 -102t-32.5 -113t-11 -116q0 -59 14.5 -105.5t41.5 -79.5t68 -50.5t95 -17.5q69 0 123.5 27t95 70.5t69 99t46 113t25.5 112t8 96.5z" />
<glyph unicode="&#xf1;" horiz-adv-x="1221" d="M1095 14q-39 -5 -82 -8.5t-88.5 -5t-91 -2.5t-88.5 1l124 653q24 120 2 174t-91 54q-47 0 -95 -30.5t-93 -81.5t-86.5 -117.5t-75 -138t-58 -142.5t-36.5 -131l-45 -239h-181l168 874q-34 6 -76 11.5t-87 8.5l21 110q39 5 82.5 8t88.5 5t89.5 2.5t86.5 -0.5 q-5 -26 -13 -61t-21 -84t-32 -112t-46 -144l4 -2q37 81 84.5 157t107 135t129 94.5t149.5 35.5q70 0 118 -24t74 -69t31 -109t-10 -143l-106 -549q34 -7 77.5 -12.5t85.5 -7.5zM1106 1376q-41 -77 -100.5 -118t-127.5 -41q-49 0 -82.5 17.5t-60 38.5t-50.5 38.5t-56 17.5 q-34 0 -65 -24t-62 -71l-90 72q42 77 100 117.5t127 40.5q49 0 82.5 -17t61 -38t52.5 -38.5t56 -17.5q34 0 65 24t60 72l90 -73v0z" />
<glyph unicode="&#xf2;" horiz-adv-x="1098" d="M1033 670q0 -158 -49 -285t-131.5 -217t-189.5 -138.5t-222 -48.5q-95 0 -165.5 24t-116.5 70t-68.5 113.5t-22.5 154.5q0 102 20.5 193t58 167.5t90.5 138.5t118.5 105t141 66t159.5 23q100 0 171.5 -27t117 -75.5t67 -115.5t21.5 -148zM842 650q0 112 -51.5 171.5 t-162.5 59.5q-85 0 -153.5 -43t-116.5 -114t-74.5 -162t-26.5 -187q0 -57 12 -100.5t38 -74t66.5 -46t97.5 -15.5q75 0 142.5 38t118.5 106t80.5 161.5t29.5 205.5zM710 1168l-280 239l110 116l259 -261z" />
<glyph unicode="&#xf3;" horiz-adv-x="1098" d="M1033 670q0 -158 -49 -285t-131.5 -217t-189.5 -138.5t-222 -48.5q-95 0 -165.5 24t-116.5 70t-68.5 113.5t-22.5 154.5q0 102 20.5 193t58 167.5t90.5 138.5t118.5 105t141 66t159.5 23q100 0 171.5 -27t117 -75.5t67 -115.5t21.5 -148zM842 650q0 112 -51.5 171.5 t-162.5 59.5q-85 0 -153.5 -43t-116.5 -114t-74.5 -162t-26.5 -187q0 -57 12 -100.5t38 -74t66.5 -46t97.5 -15.5q75 0 142.5 38t118.5 106t80.5 161.5t29.5 205.5zM609 1168l-70 101l314 254l88 -126z" />
<glyph unicode="&#xf4;" horiz-adv-x="1098" d="M1033 670q0 -158 -49 -285t-131.5 -217t-189.5 -138.5t-222 -48.5q-95 0 -165.5 24t-116.5 70t-68.5 113.5t-22.5 154.5q0 102 20.5 193t58 167.5t90.5 138.5t118.5 105t141 66t159.5 23q100 0 171.5 -27t117 -75.5t67 -115.5t21.5 -148zM842 650q0 112 -51.5 171.5 t-162.5 59.5q-85 0 -153.5 -43t-116.5 -114t-74.5 -162t-26.5 -187q0 -57 12 -100.5t38 -74t66.5 -46t97.5 -15.5q75 0 142.5 38t118.5 106t80.5 161.5t29.5 205.5zM899 1168l-171 174l-228 -174l-71 86l325 269l234 -266z" />
<glyph unicode="&#xf5;" horiz-adv-x="1098" d="M1033 670q0 -158 -49 -285t-131.5 -217t-189.5 -138.5t-222 -48.5q-95 0 -165.5 24t-116.5 70t-68.5 113.5t-22.5 154.5q0 102 20.5 193t58 167.5t90.5 138.5t118.5 105t141 66t159.5 23q100 0 171.5 -27t117 -75.5t67 -115.5t21.5 -148zM842 650q0 112 -51.5 171.5 t-162.5 59.5q-85 0 -153.5 -43t-116.5 -114t-74.5 -162t-26.5 -187q0 -57 12 -100.5t38 -74t66.5 -46t97.5 -15.5q75 0 142.5 38t118.5 106t80.5 161.5t29.5 205.5zM1071 1376q-41 -77 -100.5 -118t-127.5 -41q-49 0 -82.5 17.5t-60 38.5t-50.5 38.5t-56 17.5q-34 0 -65 -24 t-62 -71l-90 72q42 77 100 117.5t127 40.5q49 0 82.5 -17t61 -38t52.5 -38.5t56 -17.5q34 0 65 24t60 72l90 -73v0z" />
<glyph unicode="&#xf6;" horiz-adv-x="1098" d="M1033 670q0 -158 -49 -285t-131.5 -217t-189.5 -138.5t-222 -48.5q-95 0 -165.5 24t-116.5 70t-68.5 113.5t-22.5 154.5q0 102 20.5 193t58 167.5t90.5 138.5t118.5 105t141 66t159.5 23q100 0 171.5 -27t117 -75.5t67 -115.5t21.5 -148zM842 650q0 112 -51.5 171.5 t-162.5 59.5q-85 0 -153.5 -43t-116.5 -114t-74.5 -162t-26.5 -187q0 -57 12 -100.5t38 -74t66.5 -46t97.5 -15.5q75 0 142.5 38t118.5 106t80.5 161.5t29.5 205.5zM1036 1345q0 -25 -9 -46t-24.5 -36.5t-36 -24t-44.5 -8.5q-23 0 -42.5 8.5t-33.5 23t-22 34t-8 41.5 q0 24 9 44.5t24.5 36t36.5 24.5t44 9t42.5 -8.5t33.5 -23.5t22 -34t8 -40zM643 1345q0 -25 -9 -46t-24.5 -36.5t-36 -24t-43.5 -8.5t-42.5 8.5t-34 23t-22.5 34t-8 40.5q0 25 9 45.5t24.5 36t36.5 24.5t44 9t42 -8.5t33.5 -23.5t22.5 -34t8 -40z" />
<glyph unicode="&#xf7;" d="M783 1024q0 -26 -9.5 -49t-26.5 -40t-39.5 -27t-48.5 -10t-48 9.5t-38 26t-25 38.5t-9 47q0 26 9.5 49t26.5 40t40 27t48 10q26 0 48 -9.5t38 -26t25 -38.5t9 -47zM1047 532h-954l31 155h953zM624 200q0 -28 -10 -51t-27 -40t-39.5 -27t-48.5 -10t-48 10t-38 26.5 t-25 38.5t-9 47q0 26 10 49t27 40.5t39.5 27t48.5 9.5q25 0 47 -9.5t38 -26t25.5 -38.5t9.5 -46z" />
<glyph unicode="&#xf8;" horiz-adv-x="1100" d="M1035 670q0 -158 -49.5 -285t-132 -217t-189.5 -138.5t-222 -48.5q-35 0 -66.5 4t-59.5 12l-118 -208l-110 56l113 198q-67 44 -100 120t-33 180q0 148 42.5 275t120 220t186 145.5t239.5 52.5q27 0 52.5 -2.5t48.5 -6.5l115 205l108 -54l-106 -190q83 -45 122 -127.5 t39 -190.5zM854 649q0 63 -18 108.5t-55 73.5l-385 -687q40 -13 95 -11q49 3 95.5 23t86.5 53.5t73 79.5t57.5 102.5t37.5 121.5t13 136zM676 882q-16 4 -32 4.5t-34 -0.5q-79 -3 -146 -45t-115 -111t-75.5 -159t-27.5 -189q0 -57 13 -100.5t38 -72.5z" />
<glyph unicode="&#xf9;" horiz-adv-x="1221" d="M1095 15q-38 -5 -81.5 -8.5t-89 -5.5t-91 -3t-88.5 1q5 26 13 61t21 84t32 112t46 144l-4 2q-36 -81 -84 -157t-107 -135t-129 -95t-150 -36q-71 0 -118.5 24.5t-73.5 69.5t-31 109t10 143l105 547q-34 6 -76.5 12.5t-84.5 9.5l21 109q37 5 81 8.5t89.5 5.5t91 2.5 t87.5 -0.5l-125 -653q-23 -120 -1 -174t90 -54q47 0 95 30.5t93.5 82t87 118.5t75.5 139.5t58 145.5t37 136l15 84q-32 6 -74.5 11t-83.5 8l22 112q36 4 79 7t88.5 5t90.5 2.5t86 -1.5l-168 -874q34 -6 79.5 -11.5t86.5 -8.5zM749 1168l-280 239l110 116l259 -261z" />
<glyph unicode="&#xfa;" horiz-adv-x="1221" d="M1095 15q-38 -5 -81.5 -8.5t-89 -5.5t-91 -3t-88.5 1q5 26 13 61t21 84t32 112t46 144l-4 2q-36 -81 -84 -157t-107 -135t-129 -95t-150 -36q-71 0 -118.5 24.5t-73.5 69.5t-31 109t10 143l105 547q-34 6 -76.5 12.5t-84.5 9.5l21 109q37 5 81 8.5t89.5 5.5t91 2.5 t87.5 -0.5l-125 -653q-23 -120 -1 -174t90 -54q47 0 95 30.5t93.5 82t87 118.5t75.5 139.5t58 145.5t37 136l15 84q-32 6 -74.5 11t-83.5 8l22 112q36 4 79 7t88.5 5t90.5 2.5t86 -1.5l-168 -874q34 -6 79.5 -11.5t86.5 -8.5zM707 1168l-70 101l314 254l88 -126z" />
<glyph unicode="&#xfb;" horiz-adv-x="1221" d="M1095 15q-38 -5 -81.5 -8.5t-89 -5.5t-91 -3t-88.5 1q5 26 13 61t21 84t32 112t46 144l-4 2q-36 -81 -84 -157t-107 -135t-129 -95t-150 -36q-71 0 -118.5 24.5t-73.5 69.5t-31 109t10 143l105 547q-34 6 -76.5 12.5t-84.5 9.5l21 109q37 5 81 8.5t89.5 5.5t91 2.5 t87.5 -0.5l-125 -653q-23 -120 -1 -174t90 -54q47 0 95 30.5t93.5 82t87 118.5t75.5 139.5t58 145.5t37 136l15 84q-32 6 -74.5 11t-83.5 8l22 112q36 4 79 7t88.5 5t90.5 2.5t86 -1.5l-168 -874q34 -6 79.5 -11.5t86.5 -8.5zM919 1168l-171 174l-228 -174l-71 86l325 269 l234 -266z" />
<glyph unicode="&#xfc;" horiz-adv-x="1221" d="M1095 15q-38 -5 -81.5 -8.5t-89 -5.5t-91 -3t-88.5 1q5 26 13 61t21 84t32 112t46 144l-4 2q-36 -81 -84 -157t-107 -135t-129 -95t-150 -36q-71 0 -118.5 24.5t-73.5 69.5t-31 109t10 143l105 547q-34 6 -76.5 12.5t-84.5 9.5l21 109q37 5 81 8.5t89.5 5.5t91 2.5 t87.5 -0.5l-125 -653q-23 -120 -1 -174t90 -54q47 0 95 30.5t93.5 82t87 118.5t75.5 139.5t58 145.5t37 136l15 84q-32 6 -74.5 11t-83.5 8l22 112q36 4 79 7t88.5 5t90.5 2.5t86 -1.5l-168 -874q34 -6 79.5 -11.5t86.5 -8.5zM1049 1345q0 -25 -9 -46t-24.5 -36.5t-36 -24 t-44.5 -8.5q-23 0 -42.5 8.5t-33.5 23t-22 34t-8 41.5q0 24 9 44.5t24.5 36t36.5 24.5t44 9t42.5 -8.5t33.5 -23.5t22 -34t8 -40zM656 1345q0 -25 -9 -46t-24.5 -36.5t-36 -24t-43.5 -8.5t-42.5 8.5t-34 23t-22.5 34t-8 40.5q0 25 9 45.5t24.5 36t36.5 24.5t44 9t42 -8.5 t33.5 -23.5t22.5 -34t8 -40z" />
<glyph unicode="&#xfd;" horiz-adv-x="1067" d="M1110 1008q-67 -157 -133 -300.5t-131.5 -272t-129.5 -241t-128.5 -209.5t-128 -178t-127.5 -144q-46 -45 -92.5 -79.5t-92.5 -57.5t-92.5 -34.5t-90.5 -11.5q-20 0 -39 1t-37.5 3t-35.5 4.5t-32 6.5l31 165q30 -11 62.5 -15.5t65.5 -4.5q55 0 114 30.5t111 85.5 q30 32 51.5 66t35.5 73.5t20.5 85.5t6.5 100q0 88 -6.5 184t-19 197.5t-30 205t-38.5 206.5q-36 6 -78 11.5t-83 8.5l22 110q34 5 73 8t80 5t81.5 2.5t79.5 -0.5q21 -94 38.5 -192t30 -191t19 -176.5t6.5 -149.5q0 -53 -5 -109t-14 -108h2q62 107 117.5 216t110.5 227 t110.5 247.5t115.5 276.5l180 -52v0zM672 1168l-70 101l314 254l88 -126z" />
<glyph unicode="&#xfe;" horiz-adv-x="1100" d="M1039 729q0 -94 -16.5 -185.5t-50.5 -174t-86 -153t-123.5 -121.5t-162 -80t-202.5 -29q-39 0 -73 3t-70 8l-68 -365q45 -3 88.5 -10t81.5 -17l-21 -110h-528l21 110q40 10 86 17t91 10l328 1713l2 6q-35 6 -80.5 11.5t-88.5 8.5l19 109q39 5 83.5 8.5t91 5.5t93 2.5 t89.5 -0.5l-79 -409q-9 -47 -19 -93.5t-24.5 -101.5t-35 -122.5t-49.5 -155.5l5 -1q39 88 88.5 165.5t108.5 135.5t127.5 91t146.5 33q111 0 169 -74.5t58 -234.5zM851 695q0 50 -7 85t-20.5 57.5t-33 32.5t-42.5 10q-48 0 -97 -31t-94.5 -83t-87 -119t-74.5 -139 t-57.5 -143t-35.5 -131l-16 -79q16 -6 35 -10.5t38 -7.5t37.5 -4.5t34.5 -1.5q76 0 136 24.5t106.5 65.5t80 97t55.5 119t32 129t10 129z" />
<glyph unicode="&#xff;" horiz-adv-x="1067" d="M1110 1008q-67 -157 -133 -300.5t-131.5 -272t-129.5 -241t-128.5 -209.5t-128 -178t-127.5 -144q-46 -45 -92.5 -79.5t-92.5 -57.5t-92.5 -34.5t-90.5 -11.5q-20 0 -39 1t-37.5 3t-35.5 4.5t-32 6.5l31 165q30 -11 62.5 -15.5t65.5 -4.5q55 0 114 30.5t111 85.5 q30 32 51.5 66t35.5 73.5t20.5 85.5t6.5 100q0 88 -6.5 184t-19 197.5t-30 205t-38.5 206.5q-36 6 -78 11.5t-83 8.5l22 110q34 5 73 8t80 5t81.5 2.5t79.5 -0.5q21 -94 38.5 -192t30 -191t19 -176.5t6.5 -149.5q0 -53 -5 -109t-14 -108h2q62 107 117.5 216t110.5 227 t110.5 247.5t115.5 276.5l180 -52v0zM1028 1345q0 -25 -9 -46t-24.5 -36.5t-36 -24t-44.5 -8.5q-23 0 -42.5 8.5t-33.5 23t-22 34t-8 41.5q0 24 9 44.5t24.5 36t36.5 24.5t44 9t42.5 -8.5t33.5 -23.5t22 -34t8 -40zM635 1345q0 -25 -9 -46t-24.5 -36.5t-36 -24t-43.5 -8.5 t-42.5 8.5t-34 23t-22.5 34t-8 40.5q0 25 9 45.5t24.5 36t36.5 24.5t44 9t42 -8.5t33.5 -23.5t22.5 -34t8 -40z" />
<glyph unicode="&#x100;" horiz-adv-x="1386" d="M1279 0h-477l20 109q37 10 79.5 16.5t84.5 9.5l-34 228h-569l-123 -228q38 -3 78 -10t72 -16l-21 -109h-470l20 110q28 8 61.5 14.5t61.5 9.5l687 1248h224l209 -1247q14 -1 29.5 -3.5t31 -6t30.5 -7.5t28 -8zM850 999q-8 61 -14 110.5t-10 94.5h-2q-19 -45 -41.5 -91 t-56.5 -110l-269 -491h475zM1163 1532h-556l26 127h556z" />
<glyph unicode="&#x101;" horiz-adv-x="1130" d="M1002 15q-38 -5 -81.5 -8.5t-89 -5.5t-91 -3t-87.5 1q13 68 41.5 169t74.5 246l-4 1q-18 -38 -43 -86t-57.5 -96t-71.5 -94t-86 -81.5t-101 -57t-115 -21.5q-111 0 -169.5 75t-58.5 235q0 94 16.5 185.5t50 174t86 153t123.5 122t161.5 80.5t202.5 29q87 0 167 -7.5 t152 -22.5l-165 -859q35 -6 78.5 -11.5t86.5 -8.5zM817 870q-31 8 -66.5 13.5t-79.5 5.5q-76 0 -136.5 -24.5t-107.5 -66.5t-80.5 -98t-55 -118.5t-31.5 -129t-10 -129.5q0 -50 7 -85t20.5 -57.5t32.5 -32.5t43 -10q48 0 97 31t94.5 83t87 119.5t75 139.5t58 144t37.5 133z M947 1262h-505l26 138h505z" />
<glyph unicode="&#x102;" horiz-adv-x="1386" d="M1279 0h-477l20 109q37 10 79.5 16.5t84.5 9.5l-34 228h-569l-123 -228q38 -3 78 -10t72 -16l-21 -109h-470l20 110q28 8 61.5 14.5t61.5 9.5l687 1248h224l209 -1247q14 -1 29.5 -3.5t31 -6t30.5 -7.5t28 -8zM850 999q-8 61 -14 110.5t-10 94.5h-2q-19 -45 -41.5 -91 t-56.5 -110l-269 -491h475zM1187 1745q-10 -50 -34 -95t-63 -80t-93 -55.5t-123 -20.5q-67 0 -111.5 21t-70 56t-32 80t2.5 94h114q-6 -26 -0.5 -49t20 -40t39 -27.5t59.5 -10.5q33 0 61 9t49.5 25.5t35.5 40t20 52.5h126v0z" />
<glyph unicode="&#x103;" horiz-adv-x="1130" d="M1002 15q-38 -5 -81.5 -8.5t-89 -5.5t-91 -3t-87.5 1q13 68 41.5 169t74.5 246l-4 1q-18 -38 -43 -86t-57.5 -96t-71.5 -94t-86 -81.5t-101 -57t-115 -21.5q-111 0 -169.5 75t-58.5 235q0 94 16.5 185.5t50 174t86 153t123.5 122t161.5 80.5t202.5 29q87 0 167 -7.5 t152 -22.5l-165 -859q35 -6 78.5 -11.5t86.5 -8.5zM817 870q-31 8 -66.5 13.5t-79.5 5.5q-76 0 -136.5 -24.5t-107.5 -66.5t-80.5 -98t-55 -118.5t-31.5 -129t-10 -129.5q0 -50 7 -85t20.5 -57.5t32.5 -32.5t43 -10q48 0 97 31t94.5 83t87 119.5t75 139.5t58 144t37.5 133z M981 1473q-8 -55 -30.5 -104.5t-60 -87.5t-89.5 -60.5t-119 -22.5t-110.5 23t-67.5 61t-30 88t3 103h123q-5 -28 -1.5 -52.5t16 -42.5t34 -29t52.5 -11q59 0 99 35t51 100h130v0z" />
<glyph unicode="&#x104;" horiz-adv-x="1386" d="M1225 0q-41 0 -93.5 -26.5t-100.5 -70t-78 -93.5t-30 -94q0 -25 15.5 -39t49.5 -14q32 0 67 13t75 39l40 -109q-57 -43 -114.5 -64t-117.5 -21q-47 0 -83.5 12.5t-61 34.5t-37 50t-12.5 60q0 56 25.5 110.5t65.5 99t83.5 74.5t78.5 38h-195l20 109q37 10 79.5 16.5 t84.5 9.5l-34 228h-569l-123 -228q38 -3 78 -10t72 -16l-21 -109h-471l21 110q28 8 61.5 14.5t61.5 9.5l687 1248h224l209 -1248q14 -1 29.5 -3.5t31.5 -6t31 -7t27 -7.5l-22 -110h-54zM850 999q-8 61 -14 110.5t-10 94.5h-2q-19 -45 -41.5 -91t-56.5 -110l-269 -491h475z " />
<glyph unicode="&#x105;" horiz-adv-x="1130" d="M1002 15q-92 -10 -162 -44.5t-117.5 -79t-71.5 -92t-24 -83.5q0 -23 15.5 -38t50.5 -15q31 0 66.5 12.5t74.5 39.5l41 -109q-58 -43 -114.5 -64t-117.5 -21q-48 0 -84.5 12.5t-61 34.5t-36.5 50.5t-12 59.5q0 44 16 87.5t46 85.5t75 83t103 80q2 47 6 89.5t12.5 88.5 t23.5 99.5t38 122.5l-4 1q-18 -38 -43 -86t-57.5 -96t-71.5 -94t-86 -81.5t-101 -57t-115 -21.5q-111 0 -169.5 75t-58.5 235q0 94 16.5 185.5t50 174t86 153t123.5 122t161.5 80.5t202.5 29q87 0 167 -7.5t152 -22.5l-111 -580q-16 -83 -25 -156t-13 -125q31 -6 70.5 -10.5 t78.5 -7.5zM817 870q-31 8 -66.5 13.5t-79.5 5.5q-76 0 -136.5 -24.5t-107.5 -66.5t-80.5 -98t-55 -118.5t-31.5 -129t-10 -129.5q0 -50 7 -85t20.5 -57.5t32.5 -32.5t43 -10q48 0 97 31t94.5 83t87 119.5t75 139.5t58 144t37.5 133z" />
<glyph unicode="&#x106;" horiz-adv-x="1157" d="M1144 1020h-130q0 49 2 95t9 92q-46 13 -89.5 18t-86.5 5q-93 0 -169 -30.5t-135.5 -84t-103 -124.5t-71.5 -153.5t-42 -170.5t-14 -175q0 -76 17 -138.5t56.5 -107t104.5 -69t162 -24.5q36 0 79.5 5.5t88 15t87 23t76.5 29.5l7 -169q-90 -34 -190 -53t-195 -19 q-99 0 -174 18t-130.5 51t-93 77t-60 97t-32 112t-9.5 120q0 121 22.5 237.5t67 220.5t111 191.5t154.5 151t196.5 99.5t238.5 36q91 0 168 -10.5t145 -28.5zM817 1485l-29 106l389 151l37 -142z" />
<glyph unicode="&#x107;" horiz-adv-x="864" d="M830 700l-111 1q-1 20 -1 42t1 44t2.5 43.5t4.5 41.5q-23 6 -48 9t-52 3q-58 0 -108 -21.5t-90 -58.5t-71.5 -87t-53 -108t-32 -121t-10.5 -124q0 -43 8.5 -83t32.5 -70t66 -48.5t110 -18.5q60 0 122.5 13.5t116.5 37.5l12 -154q-62 -24 -139.5 -39.5t-158.5 -15.5 q-102 0 -171.5 24.5t-112 69.5t-61.5 106.5t-19 135.5q0 150 42 280t118 226t183 150.5t237 54.5q65 0 126 -9t114 -26zM616 1168l-70 101l314 254l88 -126z" />
<glyph unicode="&#x10c;" horiz-adv-x="1157" d="M1144 1020h-130q0 49 2 95t9 92q-46 13 -89.5 18t-86.5 5q-93 0 -169 -30.5t-135.5 -84t-103 -124.5t-71.5 -153.5t-42 -170.5t-14 -175q0 -76 17 -138.5t56.5 -107t104.5 -69t162 -24.5q36 0 79.5 5.5t88 15t87 23t76.5 29.5l7 -169q-90 -34 -190 -53t-195 -19 q-99 0 -174 18t-130.5 51t-93 77t-60 97t-32 112t-9.5 120q0 121 22.5 237.5t67 220.5t111 191.5t154.5 151t196.5 99.5t238.5 36q91 0 168 -10.5t145 -28.5zM888 1482l-295 170l59 104l250 -129l286 129l43 -100z" />
<glyph unicode="&#x10d;" horiz-adv-x="864" d="M830 700l-111 1q-1 20 -1 42t1 44t2.5 43.5t4.5 41.5q-23 6 -48 9t-52 3q-58 0 -108 -21.5t-90 -58.5t-71.5 -87t-53 -108t-32 -121t-10.5 -124q0 -43 8.5 -83t32.5 -70t66 -48.5t110 -18.5q60 0 122.5 13.5t116.5 37.5l12 -154q-62 -24 -139.5 -39.5t-158.5 -15.5 q-102 0 -171.5 24.5t-112 69.5t-61.5 106.5t-19 135.5q0 150 42 280t118 226t183 150.5t237 54.5q65 0 126 -9t114 -26zM636 1168l-234 266l89 89l171 -174l229 174l69 -86z" />
<glyph unicode="&#x10e;" horiz-adv-x="1419" d="M1384 888q0 -114 -23.5 -225t-72 -210t-122.5 -183.5t-173.5 -146t-226 -96t-279.5 -34.5q-57 0 -105.5 1t-91 2.5t-81 2.5t-75.5 1h-175l22 109q41 11 87 18t93 10l209 1108q-45 4 -88.5 11t-80.5 17l21 109h173q40 0 87.5 1t99.5 2.5t105 3t105 1.5q159 0 271.5 -36.5 t184 -103t104 -158.5t32.5 -204zM1188 867q0 80 -20.5 147.5t-69 116t-130 76t-203.5 27.5q-29 0 -59 -0.5t-57.5 -1t-52 -1.5t-44.5 -2l-203 -1066q19 -3 41 -5t44.5 -3.5t43 -2.5t36.5 -1q122 0 219.5 30t172 82t128 122t88 149.5t50.5 165t16 167.5zM835 1482l-295 170 l59 104l250 -129l286 129l43 -100z" />
<glyph unicode="&#x10f;" horiz-adv-x="1319" d="M857 144q35 -6 78.5 -11.5t86.5 -8.5l-20 -109q-39 -5 -82 -8.5t-88 -5.5t-90 -3t-87 1q11 67 39.5 169t74.5 246l-4 1q-18 -38 -43 -86t-57.5 -96t-71.5 -94t-86 -81.5t-101 -57t-115 -21.5q-111 0 -169.5 75t-58.5 235q0 94 16.5 185.5t50 174t86 153t123.5 122 t161.5 80.5t202.5 29q37 0 71 -3t72 -8l61 329q-35 6 -80.5 11.5t-90.5 8.5l21 109q39 5 83.5 8.5t91.5 5.5t93.5 2.5t90.5 -0.5zM817 870q-31 8 -66.5 13.5t-79.5 5.5q-76 0 -136.5 -24.5t-107.5 -66.5t-80.5 -98t-55 -118.5t-31.5 -129t-10 -129.5q0 -50 7 -85t20.5 -57.5 t32.5 -32.5t43 -10q48 0 97 31t94.5 83t87 119.5t75 139.5t58 144t37.5 133zM1442 1520l-166 -363l-120 33l137 370z" />
<glyph unicode="&#x110;" horiz-adv-x="1442" d="M1406 888q0 -114 -23.5 -225t-72 -210t-122.5 -183.5t-173.5 -146t-226 -96t-280.5 -34.5q-56 0 -104 1t-91 2.5t-81.5 2.5t-76.5 1h-172l20 109q42 11 87 18t91 10l96 501h-181l27 144h181l89 463q-45 4 -88 11t-80 17l20 109h171q34 0 81.5 1t101 2.5t109 3t105.5 1.5 q160 0 272.5 -36.5t184 -103t104 -158.5t32.5 -204zM1210 867q0 80 -20 147.5t-69 116t-130.5 76t-203.5 27.5q-30 0 -59.5 -0.5t-57 -1t-52.5 -1.5t-44 -2l-85 -447h290l-29 -144h-289l-90 -475q19 -3 41 -5t44 -3.5t42.5 -2.5t37.5 -1q122 0 219.5 30t172 82t128.5 122 t88 149.5t50 165t16 167.5z" />
<glyph unicode="&#x111;" horiz-adv-x="1130" d="M1053 1165l-194 -1021q34 -6 79.5 -11.5t89.5 -8.5l-20 -109q-39 -5 -83 -8.5t-90.5 -5.5t-92.5 -3t-89 1q12 68 41 169.5t75 245.5l-4 1q-18 -38 -43 -86t-57.5 -96t-71.5 -94t-86 -81.5t-101 -57t-115 -21.5q-111 0 -169.5 75t-58.5 235q0 94 16.5 185.5t50 174t86 153 t123.5 122t161.5 80.5t202.5 29q37 0 70.5 -3t70.5 -8l29 143h-281l21 116h281l16 87q-34 6 -80.5 11.5t-89.5 8.5l17 92q38 5 83 8.5t92 5.5t93.5 2.5t90.5 -0.5l-42 -215h172l-22 -116h-171zM817 870q-31 8 -66.5 13.5t-79.5 5.5q-76 0 -136.5 -24.5t-107.5 -66.5 t-80.5 -98t-55 -118.5t-31.5 -129t-10 -129.5q0 -50 7 -85t20.5 -57.5t32.5 -32.5t43 -10q48 0 97 31t94.5 83t87 119.5t75 139.5t58 144t37.5 133z" />
<glyph unicode="&#x112;" horiz-adv-x="1065" d="M1039 1064h-129q0 47 0.5 91t4.5 79h-362l-86 -453h290q11 38 24.5 73t31.5 67h109l-79 -418h-112q-4 31 -4.5 66.5t1.5 72.5h-287l-93 -491h363q13 40 28.5 85.5t33.5 91.5h129l-61 -328h-881l22 109q40 11 86.5 18t93.5 10l209 1108q-45 4 -88.5 11t-80.5 17l21 109 h876zM995 1532h-556l26 127h556z" />
<glyph unicode="&#x113;" horiz-adv-x="971" d="M927 804q0 -82 -42 -145.5t-125.5 -108.5t-207.5 -70.5t-287 -31.5q-2 -12 -4 -26.5t-3.5 -30.5t-2.5 -32t-1 -29q0 -60 11.5 -98t37 -60.5t67 -31.5t104.5 -9q72 0 146 15t141 43l7 -144q-79 -31 -168.5 -47.5t-189.5 -16.5q-88 0 -152.5 19.5t-107 59.5t-63 102.5 t-20.5 148.5q0 98 18 190.5t52 173.5t83.5 147.5t112 114.5t137.5 73.5t158 25.5q78 0 135.5 -18.5t93.5 -50.5t53 -73.5t17 -89.5zM740 782q0 28 -9.5 49.5t-28 35.5t-43.5 21.5t-56 7.5q-59 0 -109.5 -24t-90 -66.5t-68.5 -99t-47 -122.5q118 4 203.5 19t140.5 40 t81.5 59.5t26.5 79.5zM899 1262h-505l26 138h505z" />
<glyph unicode="&#x116;" horiz-adv-x="1065" d="M1039 1064h-129q0 47 0.5 91t4.5 79h-362l-86 -453h290q11 38 24.5 73t31.5 67h109l-79 -418h-112q-4 31 -4.5 66.5t1.5 72.5h-287l-93 -491h363q13 40 28.5 85.5t33.5 91.5h129l-61 -328h-881l22 109q40 11 86.5 18t93.5 10l209 1108q-45 4 -88.5 11t-80.5 17l21 109 h876zM854 1607q0 -25 -9.5 -47t-25.5 -37.5t-37.5 -24.5t-44.5 -9t-42.5 8.5t-33.5 23t-22 33.5t-8 40q0 25 9.5 46.5t25.5 37t37 24.5t44 9t42.5 -8.5t34 -22.5t22.5 -33t8 -40z" />
<glyph unicode="&#x117;" horiz-adv-x="971" d="M927 804q0 -82 -42 -145.5t-125.5 -108.5t-207.5 -70.5t-287 -31.5q-2 -12 -4 -26.5t-3.5 -30.5t-2.5 -32t-1 -29q0 -60 11.5 -98t37 -60.5t67 -31.5t104.5 -9q72 0 146 15t141 43l7 -144q-79 -31 -168.5 -47.5t-189.5 -16.5q-88 0 -152.5 19.5t-107 59.5t-63 102.5 t-20.5 148.5q0 98 18 190.5t52 173.5t83.5 147.5t112 114.5t137.5 73.5t158 25.5q78 0 135.5 -18.5t93.5 -50.5t53 -73.5t17 -89.5zM740 782q0 28 -9.5 49.5t-28 35.5t-43.5 21.5t-56 7.5q-59 0 -109.5 -24t-90 -66.5t-68.5 -99t-47 -122.5q118 4 203.5 19t140.5 40 t81.5 59.5t26.5 79.5zM782 1348q0 -27 -10.5 -50.5t-27.5 -41t-40 -27t-49 -9.5q-25 0 -46 9t-36.5 24.5t-24 36.5t-8.5 43q0 27 10.5 50.5t27.5 40.5t40 26.5t49 9.5q25 0 46 -9t36 -24t24 -35.5t9 -43.5z" />
<glyph unicode="&#x118;" horiz-adv-x="1063" d="M841 3q-68 -44 -115.5 -85t-75.5 -77t-40.5 -67t-12.5 -58q0 -25 16 -39t49 -14q32 0 67.5 13t74.5 39l40 -109q-56 -43 -113.5 -64t-117.5 -21q-47 0 -83.5 12.5t-61 34.5t-37 50t-12.5 60q0 43 15.5 86.5t44.5 84t69 78.5t91 73h-679l22 109q40 10 86.5 17.5t93.5 10.5 l209 1108q-44 4 -88 11t-81 17l21 109h876l-60 -318h-129q0 62 1 100.5t4 69.5h-362l-86 -453h290q13 42 26 76t30 64h109l-79 -418h-112q-4 30 -4.5 64.5t1.5 74.5h-287l-93 -491h363q11 36 26.5 80t35.5 97h129z" />
<glyph unicode="&#x119;" horiz-adv-x="971" d="M740 782q0 28 -9.5 49.5t-28 35.5t-43.5 21.5t-56 7.5q-59 0 -109.5 -24t-90 -66.5t-68.5 -99t-47 -122.5q118 4 203.5 19t140.5 40t81.5 59.5t26.5 79.5zM768 47q-81 -38 -144 -82t-105 -88t-62.5 -85.5t-20.5 -75.5q0 -24 16.5 -38.5t49.5 -14.5q32 0 67.5 13t74.5 39 l40 -109q-56 -43 -113.5 -64t-117.5 -21q-92 0 -143 45.5t-51 111.5q0 43 14.5 85t41.5 81.5t64.5 74.5t82.5 65q-13 -1 -26 -1h-34q-82 0 -144 17.5t-104.5 56.5t-64.5 101.5t-22 152.5q0 98 18 190.5t52 173.5t83.5 147.5t112 114.5t137.5 73.5t158 25.5q78 0 135.5 -18.5 t93.5 -50.5t53 -73.5t17 -89.5q0 -85 -44.5 -149.5t-130 -108t-208 -68t-279.5 -30.5q-2 -11 -4 -25.5t-3.5 -30.5t-2.5 -32t-1 -30q0 -60 11.5 -98t37 -60.5t67 -31.5t104.5 -9q72 0 146 15t141 43z" />
<glyph unicode="&#x11a;" horiz-adv-x="1065" d="M1039 1064h-129q0 47 0.5 91t4.5 79h-362l-86 -453h290q11 38 24.5 73t31.5 67h109l-79 -418h-112q-4 31 -4.5 66.5t1.5 72.5h-287l-93 -491h363q13 40 28.5 85.5t33.5 91.5h129l-61 -328h-881l22 109q40 11 86.5 18t93.5 10l209 1108q-45 4 -88.5 11t-80.5 17l21 109 h876zM721 1482l-295 170l59 104l250 -129l286 129l43 -100z" />
<glyph unicode="&#x11b;" horiz-adv-x="971" d="M927 804q0 -82 -42 -145.5t-125.5 -108.5t-207.5 -70.5t-287 -31.5q-2 -12 -4 -26.5t-3.5 -30.5t-2.5 -32t-1 -29q0 -60 11.5 -98t37 -60.5t67 -31.5t104.5 -9q72 0 146 15t141 43l7 -144q-79 -31 -168.5 -47.5t-189.5 -16.5q-88 0 -152.5 19.5t-107 59.5t-63 102.5 t-20.5 148.5q0 98 18 190.5t52 173.5t83.5 147.5t112 114.5t137.5 73.5t158 25.5q78 0 135.5 -18.5t93.5 -50.5t53 -73.5t17 -89.5zM740 782q0 28 -9.5 49.5t-28 35.5t-43.5 21.5t-56 7.5q-59 0 -109.5 -24t-90 -66.5t-68.5 -99t-47 -122.5q118 4 203.5 19t140.5 40 t81.5 59.5t26.5 79.5zM626 1168l-234 266l89 89l171 -174l229 174l69 -86z" />
<glyph unicode="&#x11e;" horiz-adv-x="1395" d="M1279 1027h-131q0 50 2 95.5t7 87.5q-52 13 -104 21t-100 8q-94 0 -179.5 -25.5t-157.5 -72t-130 -111.5t-98.5 -144t-62.5 -169.5t-22 -187.5q0 -71 21 -140t68 -123t123 -86.5t186 -32.5q76 0 140 10.5t125 28.5l72 381q-45 3 -88 10t-80 18l22 109h486l-20 -111 q-33 -9 -66.5 -15t-69.5 -11l-97 -508q-54 -20 -112.5 -34.5t-117.5 -24t-116.5 -14.5t-109.5 -5q-144 0 -250.5 39.5t-176 109.5t-103.5 167t-34 212q0 130 30.5 247t86 216t134.5 178t176 135t209.5 86t234.5 30q102 0 192 -13t176 -37zM1273 1745q-10 -50 -34 -95 t-63 -80t-93 -55.5t-123 -20.5q-67 0 -111.5 21t-70 56t-32 80t2.5 94h114q-6 -26 -0.5 -49t20 -40t39 -27.5t59.5 -10.5q33 0 61 9t49.5 25.5t35.5 40t20 52.5h126v0z" />
<glyph unicode="&#x11f;" horiz-adv-x="1102" d="M812 -94q-18 -91 -57.5 -169.5t-109.5 -136t-174 -90t-249 -32.5q-86 0 -152.5 10.5t-122.5 27.5l41 178q29 -13 62.5 -23t68.5 -17.5t70.5 -11t71.5 -3.5q79 0 142.5 16t110.5 53t79 96t49 146q11 58 22 106t24.5 98t32 109.5t45.5 141.5l-4 2q-18 -37 -42.5 -83 t-56.5 -94t-70.5 -93t-85.5 -80t-101 -56.5t-115 -21.5q-111 0 -169.5 75t-58.5 235q0 94 16.5 185.5t50.5 174t86.5 153t123.5 122t161 80.5t202 29q87 0 167 -7.5t152 -22.5zM817 870q-31 8 -66.5 13.5t-79.5 5.5q-76 0 -136.5 -24.5t-107.5 -66.5t-80.5 -98t-55 -118.5 t-31.5 -129t-10 -129.5q0 -50 7 -85t20.5 -57.5t32.5 -32.5t43 -10q48 0 97 31t94.5 83t87 119.5t75 139.5t58 144t37.5 133zM963 1473q-8 -55 -30.5 -104.5t-60 -87.5t-89.5 -60.5t-119 -22.5t-110.5 23t-67.5 61t-30 88t3 103h123q-5 -28 -1.5 -52.5t16 -42.5t34 -29 t52.5 -11q59 0 99 35t51 100h130v0z" />
<glyph unicode="&#x122;" horiz-adv-x="1395" d="M1279 1027h-131q0 50 2 95.5t7 87.5q-52 13 -104 21t-100 8q-94 0 -179.5 -25.5t-157.5 -72t-130 -111.5t-98.5 -144t-62.5 -169.5t-22 -187.5q0 -71 21 -140t68 -123t123 -86.5t186 -32.5q76 0 140 10.5t125 28.5l72 381q-45 3 -88 10t-80 18l22 109h486l-20 -111 q-33 -9 -66.5 -15t-69.5 -11l-97 -508q-54 -20 -112.5 -34.5t-117.5 -24t-116.5 -14.5t-109.5 -5q-144 0 -250.5 39.5t-176 109.5t-103.5 167t-34 212q0 130 30.5 247t86 216t134.5 178t176 135t209.5 86t234.5 30q102 0 192 -13t176 -37zM618 -100q33 0 57.5 -19t34.5 -50 t3.5 -72t-36 -84t-85 -86t-141.5 -79l-39 74q42 25 68.5 50t40 49t14.5 47t-7 43q-9 24 -6 46.5t15 40.5t33 29t48 11z" />
<glyph unicode="&#x123;" horiz-adv-x="1102" d="M884 1474q-43 -25 -69 -50t-39.5 -49t-14.5 -46.5t8 -43.5q8 -24 5.5 -46.5t-15 -40.5t-33 -29t-47.5 -11q-33 0 -57 19t-34.5 50.5t-4 72t36 83.5t84.5 86t141 79l39 -74v0zM812 -94q-18 -91 -57.5 -169.5t-109.5 -136t-174 -90t-249 -32.5q-86 0 -152.5 10.5 t-122.5 27.5l41 178q29 -13 62.5 -23t68.5 -17.5t70.5 -11t71.5 -3.5q79 0 142.5 16t110.5 53t79 96t49 146q11 58 22 106t24.5 98t32 109.5t45.5 141.5l-4 2q-18 -37 -42.5 -83t-56.5 -94t-70.5 -93t-85.5 -80t-101 -56.5t-115 -21.5q-111 0 -169.5 75t-58.5 235 q0 94 16.5 185.5t50.5 174t86.5 153t123.5 122t161 80.5t202 29q87 0 167 -7.5t152 -22.5zM817 870q-31 8 -66.5 13.5t-79.5 5.5q-76 0 -136.5 -24.5t-107.5 -66.5t-80.5 -98t-55 -118.5t-31.5 -129t-10 -129.5q0 -50 7 -85t20.5 -57.5t32.5 -32.5t43 -10q48 0 97 31 t94.5 83t87 119.5t75 139.5t58 144t37.5 133z" />
<glyph unicode="&#x12a;" horiz-adv-x="645" d="M735 1273q-41 -10 -87 -17t-92 -11l-212 -1108q45 -3 89 -10t81 -18l-20 -109h-534l20 109q42 11 88.5 18t91.5 10l211 1108q-45 4 -88 11t-80 17l20 109h533zM792 1532h-556l26 127h556z" />
<glyph unicode="&#x12b;" horiz-adv-x="590" d="M464 15q-40 -6 -84.5 -9t-90.5 -5t-92 -3t-87 1l169 877q-35 6 -77.5 10.5t-86.5 7.5l21 110q39 5 83.5 8t90.5 5t91 2.5t86 -0.5l-169 -875q18 -3 38.5 -6t42.5 -5.5l44 -5t41 -3.5zM689 1262h-505l26 138h505z" />
<glyph unicode="&#x12e;" horiz-adv-x="645" d="M403 0q-41 0 -94 -26.5t-101 -70t-78.5 -93.5t-30.5 -94q0 -24 16.5 -38.5t49.5 -14.5q32 0 67.5 13t74.5 39l40 -109q-56 -43 -113.5 -64t-118.5 -21q-47 0 -83 12.5t-60.5 34.5t-37 50t-12.5 60q0 56 25 110.5t65 99t83.5 74.5t77.5 38h-213l20 109q41 10 88 17.5 t92 10.5l211 1108q-44 4 -87.5 11t-80.5 17l20 109h533l-21 -109q-42 -10 -88 -17t-91 -11l-212 -1108q45 -3 89 -10.5t81 -17.5l-20 -109h-91z" />
<glyph unicode="&#x12f;" horiz-adv-x="590" d="M577 1348q0 -27 -10.5 -50.5t-28 -41t-40.5 -27t-47 -9.5q-26 0 -47 9t-36.5 24.5t-24 36t-8.5 42.5q0 28 11 51.5t28.5 40.5t40.5 26.5t48 9.5t46 -9t36 -24t23.5 -35.5t8.5 -43.5zM339 -394q-57 -43 -113.5 -64t-117.5 -21q-49 0 -85 12.5t-60.5 34.5t-36.5 50.5 t-12 59.5q0 43 15 86t42 84t62.5 79t76.5 73l169 876q-35 6 -77.5 10.5t-86.5 7.5l21 110q39 5 83.5 8t90.5 5t91 2.5t86 -0.5l-169 -875q35 -6 78 -11.5t88 -8.5l-20 -109q-83 -6 -151.5 -39t-117.5 -77.5t-76 -93.5t-27 -89q0 -23 15.5 -38t49.5 -15q32 0 67 12.5t75 39.5 z" />
<glyph unicode="&#x130;" horiz-adv-x="645" d="M735 1273q-41 -10 -87 -17t-92 -11l-212 -1108q45 -3 89 -10t81 -18l-20 -109h-534l20 109q42 11 88.5 18t91.5 10l211 1108q-45 4 -88 11t-80 17l20 109h533zM643 1607q0 -25 -9.5 -47t-25.5 -37.5t-37.5 -24.5t-44.5 -9t-42.5 8.5t-33.5 23t-22 33.5t-8 40 q0 25 9.5 46.5t25.5 37t37 24.5t44 9t42.5 -8.5t34 -22.5t22.5 -33t8 -40z" />
<glyph unicode="&#x131;" horiz-adv-x="590" d="M464 15q-40 -6 -84.5 -9t-90.5 -5t-92 -3t-87 1l169 877q-35 6 -77.5 10.5t-86.5 7.5l21 110q39 5 83.5 8t90.5 5t91 2.5t86 -0.5l-169 -875q18 -3 38.5 -6t42.5 -5.5l44 -5t41 -3.5z" />
<glyph unicode="&#x136;" horiz-adv-x="1335" d="M1408 1272q-67 -16 -137 -25l-607 -544l408 -568q18 -1 37 -3.5t38 -5.5t37.5 -7t33.5 -8l-21 -111h-510l21 111q32 8 67 14t67 9l-391 564l-107 -561q33 -3 73 -9.5t73 -16.5l-21 -111h-509l20 109q42 11 88.5 18t91.5 10l211 1108q-45 4 -88 11t-80 17l20 109h508 l-21 -111q-37 -10 -78 -16t-76 -10l-100 -523l578 525q-33 4 -69 9.5t-65 14.5l22 111h509zM522 -100q33 0 57.5 -19t34.5 -50t3.5 -72t-36 -84t-85 -86t-141.5 -79l-39 74q42 25 68.5 50t40 49t14.5 47t-7 43q-9 24 -6 46.5t15 40.5t33 29t48 11z" />
<glyph unicode="&#x137;" horiz-adv-x="1069" d="M1011 819q0 -66 -24.5 -122.5t-77 -103t-135.5 -82t-199 -60.5l181 -312q42 -4 83.5 -11t79.5 -15l-21 -113h-290l-260 478l-90 -478h-181l257 1351q-35 6 -80 11.5t-87 8.5l20 109q38 5 82.5 8.5t90.5 5.5t92.5 2.5t90.5 -0.5l-64 -328q-9 -49 -20 -96.5t-24.5 -96 t-29.5 -99.5t-34 -106l3 -1q29 60 67.5 109.5t85.5 84.5t105 54t126 19q62 0 110 -16.5t79.5 -45t47.5 -68.5t16 -87zM819 780q0 22 -7 41.5t-21 34t-35.5 23t-49.5 8.5q-41 0 -77.5 -16.5t-69 -43.5t-60.5 -62.5t-50.5 -74t-39.5 -76.5t-28 -71q120 18 203.5 40.5t135.5 51 t75.5 64.5t23.5 81zM401 -100q33 0 57.5 -19t34.5 -50t3.5 -72t-36 -84t-85 -86t-141.5 -79l-39 74q42 25 68.5 50t40 49t14.5 47t-7 43q-9 24 -6 46.5t15 40.5t33 29t48 11z" />
<glyph unicode="&#x139;" horiz-adv-x="954" d="M833 0h-873l20 109q42 11 88.5 18t91.5 10l211 1108q-45 4 -88 11t-80 17l20 109h533l-21 -109q-41 -10 -87 -17t-92 -11l-208 -1091h355q5 20 13.5 44.5t18 50.5t20 53t20.5 51h126zM546 1485l-29 106l389 151l37 -142z" />
<glyph unicode="&#x13a;" horiz-adv-x="557" d="M284 144q35 -6 77.5 -11.5t86.5 -8.5l-21 -109q-39 -5 -82 -8.5t-88 -5.5t-91 -3t-89 1l257 1352q-34 6 -79 11.5t-88 8.5l20 109q38 5 82 8.5t90 5.5t92.5 2.5t89.5 -0.5zM393 1569l-29 106l389 151l37 -142z" />
<glyph unicode="&#x13b;" horiz-adv-x="954" d="M833 0h-873l20 109q42 11 88.5 18t91.5 10l211 1108q-45 4 -88 11t-80 17l20 109h533l-21 -109q-41 -10 -87 -17t-92 -11l-208 -1091h355q5 20 13.5 44.5t18 50.5t20 53t20.5 51h126zM376 -100q33 0 57.5 -19t34.5 -50t3.5 -72t-36 -84t-85 -86t-141.5 -79l-39 74 q42 25 68.5 50t40 49t14.5 47t-7 43q-9 24 -6 46.5t15 40.5t33 29t48 11z" />
<glyph unicode="&#x13c;" horiz-adv-x="557" d="M284 144q35 -6 77.5 -11.5t86.5 -8.5l-21 -109q-39 -5 -82 -8.5t-88 -5.5t-91 -3t-89 1l257 1352q-34 6 -79 11.5t-88 8.5l20 109q38 5 82 8.5t90 5.5t92.5 2.5t89.5 -0.5zM148 -100q33 0 57.5 -19t34.5 -50t3.5 -72t-36 -84t-85 -86t-141.5 -79l-39 74q42 25 68.5 50 t40 49t14.5 47t-7 43q-9 24 -6 46.5t15 40.5t33 29t48 11z" />
<glyph unicode="&#x13d;" horiz-adv-x="975" d="M833 0h-873l20 109q42 11 88.5 18t91.5 10l211 1108q-45 4 -88 11t-80 17l20 109h533l-21 -109q-41 -10 -87 -17t-92 -11l-208 -1091h355q5 20 13.5 44.5t18 50.5t20 53t20.5 51h126zM1190 1548l-257 -306l-100 65l229 321z" />
<glyph unicode="&#x13e;" horiz-adv-x="748" d="M284 144q35 -6 77.5 -11.5t86.5 -8.5l-21 -109q-39 -5 -82 -8.5t-88 -5.5t-91 -3t-89 1l257 1352q-34 6 -79 11.5t-88 8.5l20 109q38 5 82 8.5t90 5.5t92.5 2.5t89.5 -0.5zM867 1520l-166 -363l-120 33l137 370z" />
<glyph unicode="&#x141;" horiz-adv-x="979" d="M855 0h-861l22 109q41 11 87 18t93 10l96 503l-185 -64l-17 138l231 80l86 451q-45 4 -88 11t-80 17l20 109h533l-20 -109q-40 -10 -86.5 -17t-93.5 -11l-74 -392l226 76l17 -140l-273 -91l-104 -544h345q12 40 29 88.5t35 98.5h128z" />
<glyph unicode="&#x142;" horiz-adv-x="598" d="M655 892l-221 -74l-127 -674q34 -6 77.5 -11.5t88.5 -8.5l-21 -109q-39 -5 -82.5 -8.5t-89.5 -5.5t-92.5 -3t-89.5 1l145 763l-186 -65l-20 137l235 80l84 437q-35 6 -80.5 11.5t-88.5 8.5l20 109q39 5 83 8.5t90.5 5.5t93 2.5t89.5 -0.5l-100 -525l171 59z" />
<glyph unicode="&#x143;" horiz-adv-x="1499" d="M1588 1271q-33 -8 -70 -15t-73 -11l-238 -1245h-175h-55l-354 866q-30 77 -56.5 155t-45.5 151q-9 -60 -18.5 -127t-21.5 -136t-24 -137.5t-23 -132.5l-91 -502q40 -3 79.5 -9.5t74.5 -16.5l-21 -111h-515l21 109q41 11 87.5 18t92.5 10l209 1108q-45 4 -88 11t-81 17 l21 109h355h53v0l352 -865q28 -71 54 -147t49 -152q8 55 18.5 119t22 131t23 134.5t22.5 127.5l93 515q-41 4 -78.5 10t-71.5 16l21 111h473zM850 1485l-29 106l389 151l37 -142z" />
<glyph unicode="&#x144;" horiz-adv-x="1221" d="M1095 14q-39 -5 -82 -8.5t-88.5 -5t-91 -2.5t-88.5 1l124 653q24 120 2 174t-91 54q-47 0 -95 -30.5t-93 -81.5t-86.5 -117.5t-75 -138t-58 -142.5t-36.5 -131l-45 -239h-181l168 874q-34 6 -76 11.5t-87 8.5l21 110q39 5 82.5 8t88.5 5t89.5 2.5t86.5 -0.5 q-5 -26 -13 -61t-21 -84t-32 -112t-46 -144l4 -2q37 81 84.5 157t107 135t129 94.5t149.5 35.5q70 0 118 -24t74 -69t31 -109t-10 -143l-106 -549q34 -7 77.5 -12.5t85.5 -7.5zM702 1168l-70 101l314 254l88 -126z" />
<glyph unicode="&#x145;" horiz-adv-x="1499" d="M1588 1271q-33 -8 -70 -15t-73 -11l-238 -1245h-175h-55l-354 866q-30 77 -56.5 155t-45.5 151q-9 -60 -18.5 -127t-21.5 -136t-24 -137.5t-23 -132.5l-91 -502q40 -3 79.5 -9.5t74.5 -16.5l-21 -111h-515l21 109q41 11 87.5 18t92.5 10l209 1108q-45 4 -88 11t-81 17 l21 109h355h53v0l352 -865q28 -71 54 -147t49 -152q8 55 18.5 119t22 131t23 134.5t22.5 127.5l93 515q-41 4 -78.5 10t-71.5 16l21 111h473zM614 -100q33 0 57.5 -19t34.5 -50t3.5 -72t-36 -84t-85 -86t-141.5 -79l-39 74q42 25 68.5 50t40 49t14.5 47t-7 43q-9 24 -6 46.5 t15 40.5t33 29t48 11z" />
<glyph unicode="&#x146;" horiz-adv-x="1221" d="M1095 14q-39 -5 -82 -8.5t-88.5 -5t-91 -2.5t-88.5 1l124 653q24 120 2 174t-91 54q-47 0 -95 -30.5t-93 -81.5t-86.5 -117.5t-75 -138t-58 -142.5t-36.5 -131l-45 -239h-181l168 874q-34 6 -76 11.5t-87 8.5l21 110q39 5 82.5 8t88.5 5t89.5 2.5t86.5 -0.5 q-5 -26 -13 -61t-21 -84t-32 -112t-46 -144l4 -2q37 81 84.5 157t107 135t129 94.5t149.5 35.5q70 0 118 -24t74 -69t31 -109t-10 -143l-106 -549q34 -7 77.5 -12.5t85.5 -7.5zM501 -100q33 0 57.5 -19t34.5 -50t3.5 -72t-36 -84t-85 -86t-141.5 -79l-39 74q42 25 68.5 50 t40 49t14.5 47t-7 43q-9 24 -6 46.5t15 40.5t33 29t48 11z" />
<glyph unicode="&#x147;" horiz-adv-x="1499" d="M1588 1271q-33 -8 -70 -15t-73 -11l-238 -1245h-175h-55l-354 866q-30 77 -56.5 155t-45.5 151q-9 -60 -18.5 -127t-21.5 -136t-24 -137.5t-23 -132.5l-91 -502q40 -3 79.5 -9.5t74.5 -16.5l-21 -111h-515l21 109q41 11 87.5 18t92.5 10l209 1108q-45 4 -88 11t-81 17 l21 109h355h53v0l352 -865q28 -71 54 -147t49 -152q8 55 18.5 119t22 131t23 134.5t22.5 127.5l93 515q-41 4 -78.5 10t-71.5 16l21 111h473zM946 1482l-295 170l59 104l250 -129l286 129l43 -100z" />
<glyph unicode="&#x148;" horiz-adv-x="1221" d="M1095 14q-39 -5 -82 -8.5t-88.5 -5t-91 -2.5t-88.5 1l124 653q24 120 2 174t-91 54q-47 0 -95 -30.5t-93 -81.5t-86.5 -117.5t-75 -138t-58 -142.5t-36.5 -131l-45 -239h-181l168 874q-34 6 -76 11.5t-87 8.5l21 110q39 5 82.5 8t88.5 5t89.5 2.5t86.5 -0.5 q-5 -26 -13 -61t-21 -84t-32 -112t-46 -144l4 -2q37 81 84.5 157t107 135t129 94.5t149.5 35.5q70 0 118 -24t74 -69t31 -109t-10 -143l-106 -549q34 -7 77.5 -12.5t85.5 -7.5zM736 1168l-234 266l89 89l171 -174l229 174l69 -86z" />
<glyph unicode="&#x14c;" horiz-adv-x="1415" d="M1388 900q0 -132 -28 -251.5t-79.5 -221.5t-124 -184.5t-161 -141t-190 -90t-210.5 -31.5q-125 0 -218 34.5t-154.5 98.5t-92 157.5t-30.5 211.5q0 126 27.5 243t78 219t122 186.5t159 145t190 93.5t215.5 33q121 0 213.5 -33.5t155.5 -97.5t95 -158t32 -213zM1188 878 q0 83 -20 149t-60 113t-102 72t-145 25t-156 -26.5t-135.5 -74.5t-112.5 -115.5t-85 -148t-54 -172.5t-19 -189q0 -84 21 -151.5t61.5 -114.5t100 -72t138.5 -25q78 0 151 25.5t136 72.5t115 113.5t88.5 147.5t57 175t20.5 196zM1176 1532h-556l26 127h556z" />
<glyph unicode="&#x14d;" horiz-adv-x="1098" d="M1033 670q0 -158 -49 -285t-131.5 -217t-189.5 -138.5t-222 -48.5q-95 0 -165.5 24t-116.5 70t-68.5 113.5t-22.5 154.5q0 102 20.5 193t58 167.5t90.5 138.5t118.5 105t141 66t159.5 23q100 0 171.5 -27t117 -75.5t67 -115.5t21.5 -148zM842 650q0 112 -51.5 171.5 t-162.5 59.5q-85 0 -153.5 -43t-116.5 -114t-74.5 -162t-26.5 -187q0 -57 12 -100.5t38 -74t66.5 -46t97.5 -15.5q75 0 142.5 38t118.5 106t80.5 161.5t29.5 205.5zM972 1262h-505l26 138h505z" />
<glyph unicode="&#x150;" horiz-adv-x="1415" d="M1388 900q0 -132 -28 -251.5t-79.5 -221.5t-124 -184.5t-161 -141t-190 -90t-210.5 -31.5q-125 0 -218 34.5t-154.5 98.5t-92 157.5t-30.5 211.5q0 126 27.5 243t78 219t122 186.5t159 145t190 93.5t215.5 33q121 0 213.5 -33.5t155.5 -97.5t95 -158t32 -213zM1188 878 q0 83 -20 149t-60 113t-102 72t-145 25t-156 -26.5t-135.5 -74.5t-112.5 -115.5t-85 -148t-54 -172.5t-19 -189q0 -84 21 -151.5t61.5 -114.5t100 -72t138.5 -25q78 0 151 25.5t136 72.5t115 113.5t88.5 147.5t57 175t20.5 196zM1104 1482l-50 96l325 190l63 -121zM715 1485 l-56 93l311 211l72 -116z" />
<glyph unicode="&#x151;" horiz-adv-x="1098" d="M1033 670q0 -158 -49 -285t-131.5 -217t-189.5 -138.5t-222 -48.5q-95 0 -165.5 24t-116.5 70t-68.5 113.5t-22.5 154.5q0 102 20.5 193t58 167.5t90.5 138.5t118.5 105t141 66t159.5 23q100 0 171.5 -27t117 -75.5t67 -115.5t21.5 -148zM842 650q0 112 -51.5 171.5 t-162.5 59.5q-85 0 -153.5 -43t-116.5 -114t-74.5 -162t-26.5 -187q0 -57 12 -100.5t38 -74t66.5 -46t97.5 -15.5q75 0 142.5 38t118.5 106t80.5 161.5t29.5 205.5zM858 1168l-83 80l297 275l98 -105zM508 1168l-86 80l280 288l103 -99z" />
<glyph unicode="&#x152;" horiz-adv-x="1735" d="M1705 1064h-129q0 54 1.5 96t4.5 74h-361l-86 -453h290q13 41 27 75.5t30 64.5h110l-80 -418h-111q-4 30 -4.5 65t1.5 74h-289l-93 -491h367q11 35 25 72.5t39 104.5h129l-63 -328h-697q-59 -10 -113.5 -15t-107.5 -5q-124 0 -217.5 34t-155 98.5t-92 157.5t-30.5 212 q0 124 27 241t78 220t122.5 187.5t160 145.5t191 93.5t213.5 32.5q56 0 106 -5t96 -15h672zM1033 1209q-42 14 -84.5 21t-87.5 7q-80 0 -154 -26.5t-136.5 -75t-112.5 -115.5t-85.5 -148t-54 -173t-18.5 -188q0 -84 20.5 -151.5t61 -114.5t100.5 -72t138 -25q59 0 113 7 t104 21z" />
<glyph unicode="&#x153;" horiz-adv-x="1710" d="M1666 804q0 -82 -42 -145t-125 -108t-206.5 -71t-286.5 -32q-2 -12 -3.5 -26.5t-3 -30.5l-3 -32t-1.5 -29q0 -60 11.5 -98t37.5 -60.5t68 -31.5t103 -9q73 0 146 16t138 42l7 -144q-77 -30 -165.5 -47t-188.5 -17q-65 0 -117 11t-90.5 34.5t-64.5 60.5t-38 90 q-37 -46 -82.5 -82.5t-97 -61.5t-107.5 -38.5t-113 -13.5q-96 0 -166.5 24t-116.5 70t-68.5 113.5t-22.5 154.5q0 102 20.5 193t58 167.5t91.5 138.5t119.5 105t141.5 66t159 23q65 0 118 -13t94.5 -38.5t71 -61.5t47.5 -81q33 44 73 80t87 61t101 39t117 14q81 0 138 -19 t92.5 -51t52 -74t16.5 -88zM1482 782q0 28 -9.5 49.5t-27.5 36t-43.5 22t-55.5 7.5q-61 0 -111 -24.5t-90 -67.5t-69 -100t-47 -121q118 4 203.5 18.5t141 39t82 59.5t26.5 81zM845 650q0 112 -51.5 171.5t-162.5 59.5q-85 0 -154 -43t-118 -114t-75.5 -162t-26.5 -187 q0 -57 12 -100.5t38 -74t66.5 -46t97.5 -15.5q75 0 143 38t119.5 106t81.5 161.5t30 205.5z" />
<glyph unicode="&#x154;" horiz-adv-x="1182" d="M1137 1083q0 -93 -36.5 -171.5t-102 -137t-152 -93.5t-185.5 -44q15 -27 34 -65.5t32 -65.5l185 -370q39 -3 81.5 -10t73.5 -16l-22 -110h-292l-281 620h-36l-92 -483q38 -3 76.5 -9.5t70.5 -16.5l-21 -111h-509l21 109q41 11 87 18t91 10l211 1108q-44 4 -87.5 11 t-80.5 17l20 109h156q32 0 63.5 1t91 3t104 3t90.5 1q105 0 182.5 -20.5t127.5 -59.5t74.5 -96t24.5 -131zM941 1060q0 92 -56.5 136.5t-184.5 44.5q-44 0 -79.5 -1.5t-65.5 -3.5l-91 -474q10 -1 19 -1.5t21.5 -1t30 -1t40.5 -0.5q78 0 144.5 20t116.5 59t77.5 95.5 t27.5 127.5zM650 1485l-29 106l389 151l37 -142z" />
<glyph unicode="&#x155;" horiz-adv-x="768" d="M794 856q-43 11 -84 0.5t-78.5 -38.5t-71.5 -69.5t-64.5 -91.5t-56.5 -105.5t-47 -112t-36 -110t-24 -98.5l-41 -231h-181l169 874q-33 6 -77 11.5t-87 8.5l21 110q38 5 81.5 8t89 5t90 2.5t85.5 -0.5q-7 -34 -16 -71.5t-21.5 -83t-30 -100.5t-39.5 -122l4 -1 q43 93 89 171t99.5 132t118.5 79t146 11zM543 1168l-70 101l314 254l88 -126z" />
<glyph unicode="&#x156;" horiz-adv-x="1182" d="M1137 1083q0 -93 -36.5 -171.5t-102 -137t-152 -93.5t-185.5 -44q15 -27 34 -65.5t32 -65.5l185 -370q39 -3 81.5 -10t73.5 -16l-22 -110h-292l-281 620h-36l-92 -483q38 -3 76.5 -9.5t70.5 -16.5l-21 -111h-509l21 109q41 11 87 18t91 10l211 1108q-44 4 -87.5 11 t-80.5 17l20 109h156q32 0 63.5 1t91 3t104 3t90.5 1q105 0 182.5 -20.5t127.5 -59.5t74.5 -96t24.5 -131zM941 1060q0 92 -56.5 136.5t-184.5 44.5q-44 0 -79.5 -1.5t-65.5 -3.5l-91 -474q10 -1 19 -1.5t21.5 -1t30 -1t40.5 -0.5q78 0 144.5 20t116.5 59t77.5 95.5 t27.5 127.5zM466 -100q33 0 57.5 -19t34.5 -50t3.5 -72t-36 -84t-85 -86t-141.5 -79l-39 74q42 25 68.5 50t40 49t14.5 47t-7 43q-9 24 -6 46.5t15 40.5t33 29t48 11z" />
<glyph unicode="&#x157;" horiz-adv-x="768" d="M794 856q-43 11 -84 0.5t-78.5 -38.5t-71.5 -69.5t-64.5 -91.5t-56.5 -105.5t-47 -112t-36 -110t-24 -98.5l-41 -231h-181l169 874q-33 6 -77 11.5t-87 8.5l21 110q38 5 81.5 8t89 5t90 2.5t85.5 -0.5q-7 -34 -16 -71.5t-21.5 -83t-30 -100.5t-39.5 -122l4 -1 q43 93 89 171t99.5 132t118.5 79t146 11zM184 -100q33 0 57.5 -19t34.5 -50t3.5 -72t-36 -84t-85 -86t-141.5 -79l-39 74q42 25 68.5 50t40 49t14.5 47t-7 43q-9 24 -6 46.5t15 40.5t33 29t48 11z" />
<glyph unicode="&#x158;" horiz-adv-x="1182" d="M1137 1083q0 -93 -36.5 -171.5t-102 -137t-152 -93.5t-185.5 -44q15 -27 34 -65.5t32 -65.5l185 -370q39 -3 81.5 -10t73.5 -16l-22 -110h-292l-281 620h-36l-92 -483q38 -3 76.5 -9.5t70.5 -16.5l-21 -111h-509l21 109q41 11 87 18t91 10l211 1108q-44 4 -87.5 11 t-80.5 17l20 109h156q32 0 63.5 1t91 3t104 3t90.5 1q105 0 182.5 -20.5t127.5 -59.5t74.5 -96t24.5 -131zM941 1060q0 92 -56.5 136.5t-184.5 44.5q-44 0 -79.5 -1.5t-65.5 -3.5l-91 -474q10 -1 19 -1.5t21.5 -1t30 -1t40.5 -0.5q78 0 144.5 20t116.5 59t77.5 95.5 t27.5 127.5zM751 1482l-295 170l59 104l250 -129l286 129l43 -100z" />
<glyph unicode="&#x159;" horiz-adv-x="768" d="M794 856q-43 11 -84 0.5t-78.5 -38.5t-71.5 -69.5t-64.5 -91.5t-56.5 -105.5t-47 -112t-36 -110t-24 -98.5l-41 -231h-181l169 874q-33 6 -77 11.5t-87 8.5l21 110q38 5 81.5 8t89 5t90 2.5t85.5 -0.5q-7 -34 -16 -71.5t-21.5 -83t-30 -100.5t-39.5 -122l4 -1 q43 93 89 171t99.5 132t118.5 79t146 11zM531 1168l-234 266l89 89l171 -174l229 174l69 -86z" />
<glyph unicode="&#x15a;" horiz-adv-x="952" d="M886 1058h-126q-1 45 1.5 95t6.5 91q-14 4 -40.5 6t-49.5 2q-70 0 -124 -19.5t-90 -52.5t-54 -74.5t-18 -86.5q0 -44 18 -80.5t48 -66t56.5 -48.5t87.5 -60t97.5 -70.5t67 -67t48.5 -85t18 -106.5q0 -95 -40.5 -178.5t-114.5 -145.5t-175.5 -96t-220.5 -34q-32 0 -65 1.5 t-66 5t-64 9t-56 13.5l62 333h131q-1 -51 -3 -101.5t-5 -90.5q20 -5 47 -8t49 -3q75 0 135.5 19.5t102 55t63.5 83.5t22 103q0 43 -17.5 78.5t-47.5 64t-52 43.5t-86.5 58t-101 73t-66.5 68t-48 87t-18 109q0 84 34 160t100.5 135t163.5 92t218 33q27 0 56 -1.5t60 -4t61 -7 t57 -10.5zM601 1485l-29 106l389 151l37 -142z" />
<glyph unicode="&#x15b;" horiz-adv-x="819" d="M711 730h-109q0 42 2 84t6 82q-18 2 -39.5 4t-41.5 2q-49 0 -87 -11t-63.5 -31.5t-39 -48t-13.5 -60.5q0 -41 26.5 -72.5t66.5 -58.5t86 -54t86 -61t66.5 -78.5t26.5 -106.5q0 -66 -31 -127.5t-89 -108.5t-142 -75t-190 -28q-27 0 -55 1.5t-55.5 4t-53 6t-48.5 7.5 l56 298h111q0 -40 -2 -84.5t-6 -81.5q8 -2 19.5 -3t24 -2.5t25 -2t23.5 -0.5q50 0 91.5 10t72 30.5t47 51t16.5 70.5q0 41 -26.5 71t-66 57t-85.5 53.5t-85.5 61t-66 80.5t-26.5 111t26.5 122.5t79 100.5t129.5 68t178 25q29 0 57 -1.5t54.5 -4t51.5 -6.5t49 -9zM510 1168 l-70 101l314 254l88 -126z" />
<glyph unicode="&#x15e;" horiz-adv-x="952" d="M886 1058h-126q-1 45 1.5 95t6.5 91q-14 4 -40.5 6t-49.5 2q-70 0 -124 -19.5t-90 -52.5t-54 -74.5t-18 -86.5q0 -44 18 -80.5t48 -66t56.5 -48.5t87.5 -60t97.5 -70.5t67 -67t48.5 -85t18 -106.5q0 -95 -40.5 -178.5t-114.5 -145.5t-175.5 -96t-220.5 -34q-32 0 -65 1.5 t-66 5t-64 9t-56 13.5l62 333h131q-1 -51 -3 -101.5t-5 -90.5q20 -5 47 -8t49 -3q75 0 135.5 19.5t102 55t63.5 83.5t22 103q0 43 -17.5 78.5t-47.5 64t-52 43.5t-86.5 58t-101 73t-66.5 68t-48 87t-18 109q0 84 34 160t100.5 135t163.5 92t218 33q27 0 56 -1.5t60 -4t61 -7 t57 -10.5zM390 -83q29 -51 36.5 -100.5t-6 -99t-45 -98.5t-80.5 -100h-157q49 53 78.5 95t41 81.5t4.5 80t-35 84.5z" />
<glyph unicode="&#x15f;" horiz-adv-x="819" d="M711 730h-109q0 42 2 84t6 82q-18 2 -39.5 4t-41.5 2q-49 0 -87 -11t-63.5 -31.5t-39 -48t-13.5 -60.5q0 -41 26.5 -72.5t66.5 -58.5t86 -54t86 -61t66.5 -78.5t26.5 -106.5q0 -66 -31 -127.5t-89 -108.5t-142 -75t-190 -28q-27 0 -55 1.5t-55.5 4t-53 6t-48.5 7.5 l56 298h111q0 -40 -2 -84.5t-6 -81.5q8 -2 19.5 -3t24 -2.5t25 -2t23.5 -0.5q50 0 91.5 10t72 30.5t47 51t16.5 70.5q0 41 -26.5 71t-66 57t-85.5 53.5t-85.5 61t-66 80.5t-26.5 111t26.5 122.5t79 100.5t129.5 68t178 25q29 0 57 -1.5t54.5 -4t51.5 -6.5t49 -9zM330 -83 q29 -51 36.5 -100.5t-6 -99t-45 -98.5t-80.5 -100h-157q49 53 78.5 95t41 81.5t4.5 80t-35 84.5z" />
<glyph unicode="&#x160;" horiz-adv-x="952" d="M886 1058h-126q-1 45 1.5 95t6.5 91q-14 4 -40.5 6t-49.5 2q-70 0 -124 -19.5t-90 -52.5t-54 -74.5t-18 -86.5q0 -44 18 -80.5t48 -66t56.5 -48.5t87.5 -60t97.5 -70.5t67 -67t48.5 -85t18 -106.5q0 -95 -40.5 -178.5t-114.5 -145.5t-175.5 -96t-220.5 -34q-32 0 -65 1.5 t-66 5t-64 9t-56 13.5l62 333h131q-1 -51 -3 -101.5t-5 -90.5q20 -5 47 -8t49 -3q75 0 135.5 19.5t102 55t63.5 83.5t22 103q0 43 -17.5 78.5t-47.5 64t-52 43.5t-86.5 58t-101 73t-66.5 68t-48 87t-18 109q0 84 34 160t100.5 135t163.5 92t218 33q27 0 56 -1.5t60 -4t61 -7 t57 -10.5zM671 1482l-295 170l59 104l250 -129l286 129l43 -100z" />
<glyph unicode="&#x161;" horiz-adv-x="819" d="M711 730h-109q0 42 2 84t6 82q-18 2 -39.5 4t-41.5 2q-49 0 -87 -11t-63.5 -31.5t-39 -48t-13.5 -60.5q0 -41 26.5 -72.5t66.5 -58.5t86 -54t86 -61t66.5 -78.5t26.5 -106.5q0 -66 -31 -127.5t-89 -108.5t-142 -75t-190 -28q-27 0 -55 1.5t-55.5 4t-53 6t-48.5 7.5 l56 298h111q0 -40 -2 -84.5t-6 -81.5q8 -2 19.5 -3t24 -2.5t25 -2t23.5 -0.5q50 0 91.5 10t72 30.5t47 51t16.5 70.5q0 41 -26.5 71t-66 57t-85.5 53.5t-85.5 61t-66 80.5t-26.5 111t26.5 122.5t79 100.5t129.5 68t178 25q29 0 57 -1.5t54.5 -4t51.5 -6.5t49 -9zM531 1168 l-234 266l89 89l171 -174l229 174l69 -86z" />
<glyph unicode="&#x162;" d="M1192 1038h-127q1 15 2.5 87.5t4.5 103.5h-278l-207 -1092q44 -3 88 -10t82 -18l-22 -109h-533l20 109q43 11 89 18t92 10l209 1092h-279q-9 -33 -27.5 -84.5t-37.5 -106.5h-128l66 344h1052zM502 -83q29 -51 36.5 -100.5t-6 -99t-45 -98.5t-80.5 -100h-157 q49 53 78.5 95t41 81.5t4.5 80t-35 84.5z" />
<glyph unicode="&#x163;" horiz-adv-x="745" d="M740 875h-276l-101 -533q-11 -59 -12 -98t9.5 -61.5t34 -32t61.5 -9.5q34 0 72 4.5t68 12.5l-12 -153q-45 -10 -95.5 -16t-94.5 -6q-78 0 -128 19t-75.5 59.5t-28 103t13.5 149.5l106 561h-205l29 143h205l62 331l190 42l-72 -373h278zM385 -83q29 -51 36.5 -100.5 t-6 -99t-45 -98.5t-80.5 -100h-157q49 53 78.5 95t41 81.5t4.5 80t-35 84.5z" />
<glyph unicode="&#x164;" d="M1192 1038h-127q1 15 2.5 87.5t4.5 103.5h-278l-207 -1092q44 -3 88 -10t82 -18l-22 -109h-533l20 109q43 11 89 18t92 10l209 1092h-279q-9 -33 -27.5 -84.5t-37.5 -106.5h-128l66 344h1052zM750 1482l-295 170l59 104l250 -129l286 129l43 -100z" />
<glyph unicode="&#x165;" horiz-adv-x="803" d="M740 875h-276l-101 -533q-11 -59 -12 -98t9.5 -61.5t34 -32t61.5 -9.5q34 0 72 4.5t68 12.5l-12 -153q-45 -10 -95.5 -16t-94.5 -6q-78 0 -128 19t-75.5 59.5t-28 103t13.5 149.5l106 561h-205l29 143h205l62 331l190 42l-72 -373h278zM942 1520l-166 -363l-120 33 l137 370z" />
<glyph unicode="&#x16a;" horiz-adv-x="1436" d="M1527 1271q-69 -17 -142 -26l-140 -738q-26 -134 -79 -233.5t-132 -164.5t-184 -97t-235 -32q-121 0 -206.5 26t-136.5 74t-73.5 112.5t-22.5 145.5q0 31 4 64t11 79l145 764q-35 4 -69 11t-65 15l21 111h483l-23 -111q-35 -9 -78 -15.5t-85 -10.5l-144 -752 q-7 -37 -10.5 -69.5t-3.5 -60.5q0 -58 15.5 -101.5t49 -72.5t86.5 -43.5t128 -14.5q90 0 159.5 21t121.5 67t87.5 121.5t56.5 185.5l137 719q-41 4 -81 10.5t-74 15.5l21 111h479zM1193 1532h-556l26 127h556z" />
<glyph unicode="&#x16b;" horiz-adv-x="1221" d="M1095 15q-38 -5 -81.5 -8.5t-89 -5.5t-91 -3t-88.5 1q5 26 13 61t21 84t32 112t46 144l-4 2q-36 -81 -84 -157t-107 -135t-129 -95t-150 -36q-71 0 -118.5 24.5t-73.5 69.5t-31 109t10 143l105 547q-34 6 -76.5 12.5t-84.5 9.5l21 109q37 5 81 8.5t89.5 5.5t91 2.5 t87.5 -0.5l-125 -653q-23 -120 -1 -174t90 -54q47 0 95 30.5t93.5 82t87 118.5t75.5 139.5t58 145.5t37 136l15 84q-32 6 -74.5 11t-83.5 8l22 112q36 4 79 7t88.5 5t90.5 2.5t86 -1.5l-168 -874q34 -6 79.5 -11.5t86.5 -8.5zM996 1262h-505l26 138h505z" />
<glyph unicode="&#x16e;" horiz-adv-x="1436" d="M1527 1271q-69 -17 -142 -26l-140 -738q-26 -134 -79 -233.5t-132 -164.5t-184 -97t-235 -32q-121 0 -206.5 26t-136.5 74t-73.5 112.5t-22.5 145.5q0 31 4 64t11 79l145 764q-35 4 -69 11t-65 15l21 111h483l-23 -111q-35 -9 -78 -15.5t-85 -10.5l-144 -752 q-7 -37 -10.5 -69.5t-3.5 -60.5q0 -58 15.5 -101.5t49 -72.5t86.5 -43.5t128 -14.5q90 0 159.5 21t121.5 67t87.5 121.5t56.5 185.5l137 719q-41 4 -81 10.5t-74 15.5l21 111h479zM1135 1645q0 -48 -19.5 -88.5t-50.5 -70.5t-72 -47t-84 -17q-44 0 -80.5 15t-63.5 41t-43 62 t-16 78q0 50 19 91t50.5 70.5t72.5 45.5t85 16q43 0 80 -15t64 -41.5t42.5 -62.5t15.5 -77zM1026 1639q0 20 -7 39t-20 33t-31.5 22.5t-40.5 8.5q-23 0 -43 -9t-35.5 -25t-25 -37.5t-9.5 -45.5q0 -21 7.5 -39.5t21 -32.5t32 -22.5t40.5 -8.5t42 8.5t35.5 25t24.5 37.5t9 46z " />
<glyph unicode="&#x16f;" horiz-adv-x="1221" d="M1095 15q-38 -5 -81.5 -8.5t-89 -5.5t-91 -3t-88.5 1q5 26 13 61t21 84t32 112t46 144l-4 2q-36 -81 -84 -157t-107 -135t-129 -95t-150 -36q-71 0 -118.5 24.5t-73.5 69.5t-31 109t10 143l105 547q-34 6 -76.5 12.5t-84.5 9.5l21 109q37 5 81 8.5t89.5 5.5t91 2.5 t87.5 -0.5l-125 -653q-23 -120 -1 -174t90 -54q47 0 95 30.5t93.5 82t87 118.5t75.5 139.5t58 145.5t37 136l15 84q-32 6 -74.5 11t-83.5 8l22 112q36 4 79 7t88.5 5t90.5 2.5t86 -1.5l-168 -874q34 -6 79.5 -11.5t86.5 -8.5zM970 1367q0 -51 -20.5 -94.5t-54.5 -75.5 t-78 -50t-91 -18q-46 0 -86 16t-69.5 43.5t-46 66.5t-16.5 85q0 54 20.5 97.5t54.5 75t78 48.5t91 17t87 -15.5t69 -44t45.5 -67.5t16.5 -84zM852 1361q0 22 -7.5 42t-21.5 35t-33.5 24.5t-43.5 9.5t-45.5 -10t-38.5 -27t-26.5 -40t-9.5 -48q0 -23 7.5 -43t21.5 -34.5 t33.5 -23.5t43.5 -9q23 0 45 9.5t39 26t26.5 39t9.5 49.5z" />
<glyph unicode="&#x170;" horiz-adv-x="1436" d="M1527 1271q-69 -17 -142 -26l-140 -738q-26 -134 -79 -233.5t-132 -164.5t-184 -97t-235 -32q-121 0 -206.5 26t-136.5 74t-73.5 112.5t-22.5 145.5q0 31 4 64t11 79l145 764q-35 4 -69 11t-65 15l21 111h483l-23 -111q-35 -9 -78 -15.5t-85 -10.5l-144 -752 q-7 -37 -10.5 -69.5t-3.5 -60.5q0 -58 15.5 -101.5t49 -72.5t86.5 -43.5t128 -14.5q90 0 159.5 21t121.5 67t87.5 121.5t56.5 185.5l137 719q-41 4 -81 10.5t-74 15.5l21 111h479zM1071 1482l-50 96l325 190l63 -121zM682 1485l-56 93l311 211l72 -116z" />
<glyph unicode="&#x171;" horiz-adv-x="1221" d="M1095 15q-38 -5 -81.5 -8.5t-89 -5.5t-91 -3t-88.5 1q5 26 13 61t21 84t32 112t46 144l-4 2q-36 -81 -84 -157t-107 -135t-129 -95t-150 -36q-71 0 -118.5 24.5t-73.5 69.5t-31 109t10 143l105 547q-34 6 -76.5 12.5t-84.5 9.5l21 109q37 5 81 8.5t89.5 5.5t91 2.5 t87.5 -0.5l-125 -653q-23 -120 -1 -174t90 -54q47 0 95 30.5t93.5 82t87 118.5t75.5 139.5t58 145.5t37 136l15 84q-32 6 -74.5 11t-83.5 8l22 112q36 4 79 7t88.5 5t90.5 2.5t86 -1.5l-168 -874q34 -6 79.5 -11.5t86.5 -8.5zM911 1168l-83 80l297 275l98 -105zM561 1168 l-86 80l280 288l103 -99z" />
<glyph unicode="&#x172;" horiz-adv-x="1436" d="M871 -394q-56 -43 -113 -64t-118 -21q-47 0 -83.5 12.5t-61 34.5t-37 50t-12.5 60q0 43 15 86t43 82.5t65.5 74t83.5 63.5l-53 -1q-132 0 -222 33.5t-138.5 98t-60 156.5t11.5 211l145 763q-35 4 -69 11t-65 15l21 111h483l-23 -111q-35 -9 -78 -15.5t-85 -10.5 l-148 -771q-16 -85 -10 -147.5t37 -105t90.5 -64t150.5 -21.5t160.5 21t122 66.5t88 120.5t55.5 182l137 719q-41 4 -81 10.5t-74 15.5l21 111h479l-21 -111q-69 -17 -142 -26l-140 -738q-23 -117 -66 -209t-114 -163q-46 -46 -171 -120.5t-178 -128.5q-27 -26 -45 -51 t-28.5 -46.5t-14.5 -39.5t-4 -33q0 -25 16 -39t49 -14q32 0 67.5 13t74.5 39z" />
<glyph unicode="&#x173;" horiz-adv-x="1221" d="M1001 420q-13 -75 -21.5 -144t-14.5 -135q32 -4 71.5 -8.5t77.5 -7.5l-20 -111q-87 -9 -157.5 -42t-119 -78t-73.5 -92.5t-25 -84.5q0 -26 15.5 -40.5t49.5 -14.5q30 0 65 13.5t77 39.5l41 -110q-57 -42 -115 -63t-119 -21q-46 0 -82.5 12.5t-60.5 34t-36.5 50 t-12.5 60.5q0 44 15.5 87.5t46 86t75 83t102.5 79.5q1 46 6.5 90.5t15 90t22.5 95t32 111.5h-4q-37 -85 -85 -160t-107.5 -134t-129.5 -93t-147 -34q-70 0 -118 24t-74 69t-31 109t10 144l104 546q-34 7 -76 12.5t-83 8.5l20 111q39 5 82.5 8.5t89.5 5.5t91 2t85 -2 l-125 -651q-22 -120 -0.5 -175t91.5 -55q45 0 93 29.5t93.5 81.5t87 119t75.5 140.5t58.5 147t36.5 136.5l16 83q-35 6 -77.5 11t-79.5 8l20 111q38 5 81 8.5t88.5 5.5t90.5 2t84 -2z" />
<glyph unicode="&#x178;" horiz-adv-x="1192" d="M1327 1271q-30 -7 -64 -13.5t-60 -9.5l-519 -759l-66 -352q44 -3 88 -10.5t81 -17.5l-20 -109h-534l20 109q40 10 87 17.5t93 10.5l67 351l-222 760q-26 3 -58.5 9.5t-60.5 13.5l20 111h469l-22 -111q-32 -9 -71.5 -15t-82.5 -9l94 -362q8 -28 15.5 -57l15 -58t14 -58 t12.5 -56h3q17 29 36 59.5t38.5 62t39.5 63t52 81.5l205 325q-36 3 -72 9t-65 15l23 111h465zM1119 1602q0 -24 -9 -44.5t-24 -35.5t-35 -23.5t-43 -8.5q-22 0 -40.5 8.5t-32.5 22.5t-21.5 32.5t-7.5 40.5q0 23 8.5 43.5t23.5 35.5t35 23.5t42 8.5t41 -8t33 -22.5t22 -33 t8 -39.5zM691 1602q0 -24 -8.5 -44.5t-23.5 -35.5t-35 -23.5t-42 -8.5q-23 0 -41.5 8.5t-32.5 22.5t-22 32.5t-8 40.5q0 23 9 43.5t24 35.5t35 23.5t42 8.5q23 0 41.5 -8t32.5 -22.5t21.5 -33t7.5 -39.5z" />
<glyph unicode="&#x179;" horiz-adv-x="1071" d="M1120 1239l-773 -958q-22 -28 -41 -50.5t-62 -72.5q15 1 43 2t67 1.5t81.5 0.5h113.5h218q13 41 29.5 87.5t36.5 97.5h126l-67 -347h-899l27 140l733 920q34 43 68.5 83t76.5 85q-60 -2 -122.5 -3t-142.5 -1h-231q-10 -36 -26 -81t-36 -96h-129l64 335h873zM674 1485 l-29 106l389 151l37 -142z" />
<glyph unicode="&#x17a;" horiz-adv-x="893" d="M859 885l-623 -736q21 1 50 1.5t61 1t65.5 1t63.5 0.5h117q11 36 25 75t30 80h113l-60 -308h-708l25 134l627 744q-21 -1 -48 -1.5t-58 -1t-63.5 -1t-67.5 -0.5h-102l-25 -75t-28 -76h-113l57 295h688zM550 1168l-70 101l314 254l88 -126z" />
<glyph unicode="&#x17b;" horiz-adv-x="1071" d="M1120 1239l-773 -958q-22 -28 -41 -50.5t-62 -72.5q15 1 43 2t67 1.5t81.5 0.5h113.5h218q13 41 29.5 87.5t36.5 97.5h126l-67 -347h-899l27 140l733 920q34 43 68.5 83t76.5 85q-60 -2 -122.5 -3t-142.5 -1h-231q-10 -36 -26 -81t-36 -96h-129l64 335h873zM858 1607 q0 -25 -9.5 -47t-25.5 -37.5t-37.5 -24.5t-44.5 -9t-42.5 8.5t-33.5 23t-22 33.5t-8 40q0 25 9.5 46.5t25.5 37t37 24.5t44 9t42.5 -8.5t34 -22.5t22.5 -33t8 -40z" />
<glyph unicode="&#x17c;" horiz-adv-x="893" d="M859 885l-623 -736q21 1 50 1.5t61 1t65.5 1t63.5 0.5h117q11 36 25 75t30 80h113l-60 -308h-708l25 134l627 744q-21 -1 -48 -1.5t-58 -1t-63.5 -1t-67.5 -0.5h-102l-25 -75t-28 -76h-113l57 295h688zM719 1348q0 -27 -10.5 -50.5t-27.5 -41t-40 -27t-49 -9.5 q-25 0 -46 9t-36.5 24.5t-24 36.5t-8.5 43q0 27 10.5 50.5t27.5 40.5t40 26.5t49 9.5q25 0 46 -9t36 -24t24 -35.5t9 -43.5z" />
<glyph unicode="&#x17d;" horiz-adv-x="1071" d="M1120 1239l-773 -958q-22 -28 -41 -50.5t-62 -72.5q15 1 43 2t67 1.5t81.5 0.5h113.5h218q13 41 29.5 87.5t36.5 97.5h126l-67 -347h-899l27 140l733 920q34 43 68.5 83t76.5 85q-60 -2 -122.5 -3t-142.5 -1h-231q-10 -36 -26 -81t-36 -96h-129l64 335h873zM738 1482 l-295 170l59 104l250 -129l286 129l43 -100z" />
<glyph unicode="&#x17e;" horiz-adv-x="893" d="M859 885l-623 -736q21 1 50 1.5t61 1t65.5 1t63.5 0.5h117q11 36 25 75t30 80h113l-60 -308h-708l25 134l627 744q-21 -1 -48 -1.5t-58 -1t-63.5 -1t-67.5 -0.5h-102l-25 -75t-28 -76h-113l57 295h688zM562 1168l-234 266l89 89l171 -174l229 174l69 -86z" />
<glyph unicode="&#x192;" horiz-adv-x="858" d="M348 196q-46 -156 -96.5 -257.5t-111.5 -161.5t-135.5 -83.5t-169.5 -23.5q-34 0 -72.5 6.5t-70.5 17.5l61 157q29 -10 64.5 -18.5t71.5 -8.5q48 0 84 15t66 52t56.5 100t55.5 159l161 547h-241l27 143h256l78 260q29 98 70 174.5t98 129.5t132 81t173 28q29 0 66.5 -3.5 t72.5 -10.5l-54 -153q-29 8 -64 12t-70 4q-83 0 -140.5 -57t-94.5 -185l-82 -280h322l-27 -143h-337z" />
<glyph unicode="&#x218;" horiz-adv-x="952" d="M886 1058h-126q-1 45 1.5 95t6.5 91q-14 4 -40.5 6t-49.5 2q-70 0 -124 -19.5t-90 -52.5t-54 -74.5t-18 -86.5q0 -44 18 -80.5t48 -66t56.5 -48.5t87.5 -60t97.5 -70.5t67 -67t48.5 -85t18 -106.5q0 -95 -40.5 -178.5t-114.5 -145.5t-175.5 -96t-220.5 -34q-32 0 -65 1.5 t-66 5t-64 9t-56 13.5l62 333h131q-1 -51 -3 -101.5t-5 -90.5q20 -5 47 -8t49 -3q75 0 135.5 19.5t102 55t63.5 83.5t22 103q0 43 -17.5 78.5t-47.5 64t-52 43.5t-86.5 58t-101 73t-66.5 68t-48 87t-18 109q0 84 34 160t100.5 135t163.5 92t218 33q27 0 56 -1.5t60 -4t61 -7 t57 -10.5zM333 -100q33 0 57.5 -19t34.5 -50t3.5 -72t-36 -84t-85 -86t-141.5 -79l-39 74q42 25 68.5 50t40 49t14.5 47t-7 43q-9 24 -6 46.5t15 40.5t33 29t48 11z" />
<glyph unicode="&#x219;" horiz-adv-x="819" d="M711 730h-109q0 42 2 84t6 82q-18 2 -39.5 4t-41.5 2q-49 0 -87 -11t-63.5 -31.5t-39 -48t-13.5 -60.5q0 -41 26.5 -72.5t66.5 -58.5t86 -54t86 -61t66.5 -78.5t26.5 -106.5q0 -66 -31 -127.5t-89 -108.5t-142 -75t-190 -28q-27 0 -55 1.5t-55.5 4t-53 6t-48.5 7.5 l56 298h111q0 -40 -2 -84.5t-6 -81.5q8 -2 19.5 -3t24 -2.5t25 -2t23.5 -0.5q50 0 91.5 10t72 30.5t47 51t16.5 70.5q0 41 -26.5 71t-66 57t-85.5 53.5t-85.5 61t-66 80.5t-26.5 111t26.5 122.5t79 100.5t129.5 68t178 25q29 0 57 -1.5t54.5 -4t51.5 -6.5t49 -9zM281 -100 q33 0 57.5 -19t34.5 -50t3.5 -72t-36 -84t-85 -86t-141.5 -79l-39 74q42 25 68.5 50t40 49t14.5 47t-7 43q-9 24 -6 46.5t15 40.5t33 29t48 11z" />
<glyph unicode="&#x21a;" d="M1192 1038h-127q1 15 2.5 87.5t4.5 103.5h-278l-207 -1092q44 -3 88 -10t82 -18l-22 -109h-533l20 109q43 11 89 18t92 10l209 1092h-279q-9 -33 -27.5 -84.5t-37.5 -106.5h-128l66 344h1052zM429 -100q33 0 57.5 -19t34.5 -50t3.5 -72t-36 -84t-85 -86t-141.5 -79 l-39 74q42 25 68.5 50t40 49t14.5 47t-7 43q-9 24 -6 46.5t15 40.5t33 29t48 11z" />
<glyph unicode="&#x21b;" horiz-adv-x="745" d="M740 875h-276l-101 -533q-11 -59 -12 -98t9.5 -61.5t34 -32t61.5 -9.5q34 0 72 4.5t68 12.5l-12 -153q-45 -10 -95.5 -16t-94.5 -6q-78 0 -128 19t-75.5 59.5t-28 103t13.5 149.5l106 561h-205l29 143h205l62 331l190 42l-72 -373h278zM301 -100q33 0 57.5 -19t34.5 -50 t3.5 -72t-36 -84t-85 -86t-141.5 -79l-39 74q42 25 68.5 50t40 49t14.5 47t-7 43q-9 24 -6 46.5t15 40.5t33 29t48 11z" />
<glyph unicode="&#x2c6;" horiz-adv-x="868" d="M764 1168l-171 174l-228 -174l-71 86l325 269l234 -266z" />
<glyph unicode="&#x2c7;" horiz-adv-x="868" d="M557 1168l-234 266l89 89l171 -174l229 174l69 -86z" />
<glyph unicode="&#x2d8;" horiz-adv-x="803" d="M837 1473q-8 -55 -30.5 -104.5t-60 -87.5t-89.5 -60.5t-119 -22.5t-110.5 23t-67.5 61t-30 88t3 103h123q-5 -28 -1.5 -52.5t16 -42.5t34 -29t52.5 -11q59 0 99 35t51 100h130v0z" />
<glyph unicode="&#x2d9;" horiz-adv-x="567" d="M560 1348q0 -27 -10.5 -50.5t-27.5 -41t-40 -27t-49 -9.5q-25 0 -46 9t-36.5 24.5t-24 36.5t-8.5 43q0 27 10.5 50.5t27.5 40.5t40 26.5t49 9.5q25 0 46 -9t36 -24t24 -35.5t9 -43.5z" />
<glyph unicode="&#x2da;" horiz-adv-x="768" d="M777 1367q0 -51 -20.5 -94.5t-54.5 -75.5t-78 -50t-91 -18q-46 0 -86 16t-69.5 43.5t-46 66.5t-16.5 85q0 54 20.5 97.5t54.5 75t78 48.5t91 17t87 -15.5t69 -44t45.5 -67.5t16.5 -84zM659 1361q0 22 -7.5 42t-21.5 35t-33.5 24.5t-43.5 9.5t-45.5 -10t-38.5 -27 t-26.5 -40t-9.5 -48q0 -23 7.5 -43t21.5 -34.5t33.5 -23.5t43.5 -9q23 0 45 9.5t39 26t26.5 39t9.5 49.5z" />
<glyph unicode="&#x2db;" horiz-adv-x="774" d="M441 -394q-56 -43 -113 -64t-118 -21q-47 0 -83.5 12.5t-61 34.5t-37 50t-12.5 60q0 44 15.5 87.5t46 85.5t75.5 83t103 80l177 -14q-66 -43 -112.5 -83.5t-74 -76t-40 -66.5t-12.5 -58q0 -25 16 -39t49 -14q32 0 67.5 13t74.5 39z" />
<glyph unicode="&#x2dc;" horiz-adv-x="995" d="M998 1376q-41 -77 -100.5 -118t-127.5 -41q-49 0 -82.5 17.5t-60 38.5t-50.5 38.5t-56 17.5q-34 0 -65 -24t-62 -71l-90 72q42 77 100 117.5t127 40.5q49 0 82.5 -17t61 -38t52.5 -38.5t56 -17.5q34 0 65 24t60 72l90 -73v0z" />
<glyph unicode="&#x2dd;" horiz-adv-x="989" d="M732 1168l-83 80l297 275l98 -105zM382 1168l-86 80l280 288l103 -99z" />
<glyph unicode="&#x312;" horiz-adv-x="608" d="M868 1474q-81 -47 -107.5 -96t-7.5 -93q8 -23 5.5 -46t-15 -41.5t-33 -29t-47.5 -10.5q-32 0 -56.5 18.5t-35.5 51t-3.5 73t37.5 84.5t86 86.5t138 76.5z" />
<glyph unicode="&#x315;" horiz-adv-x="721" d="M652 1520l-166 -363l-120 33l137 370z" />
<glyph unicode="&#x326;" horiz-adv-x="403" d="M119 -100q33 0 57.5 -19t34.5 -50t3.5 -72t-36 -84t-85 -86t-141.5 -79l-39 74q42 25 68.5 50t40 49t14.5 47t-7 43q-9 24 -6 46.5t15 40.5t33 29t48 11z" />
<glyph unicode="&#x394;" horiz-adv-x="1221" d="M-39 0l27 138l676 1244h223l205 -1244l-25 -138h-1106zM753 1057q-5 33 -8 70t-5 74h-2q-15 -37 -31.5 -73t-37.5 -75l-474 -886h699z" />
<glyph unicode="&#x3a9;" horiz-adv-x="1401" d="M46 318h111q0 -18 1 -40t1 -45.5t-1 -47t-2 -43.5h228l24 125q-39 18 -88 47.5t-91.5 77.5t-71.5 118.5t-29 168.5q0 96 25 187t71 171t112.5 147.5t151 115.5t185 75t214.5 27q63 0 125 -10.5t119 -34t105 -60t84 -87.5t56 -117t20 -149q0 -87 -21 -166t-57 -148 t-84.5 -127.5t-102.5 -104.5t-111 -79.5t-112 -51.5l-24 -125h228q13 44 31 91.5t34 84.5h110l-59 -318h-511l61 336q78 23 153.5 75.5t134 127t94.5 166t36 193.5q0 94 -29 159.5t-77.5 107t-112.5 60t-134 18.5q-78 0 -147 -20.5t-127 -57t-104 -88t-78 -113t-49 -131.5 t-17 -144q0 -71 18.5 -125.5t51 -97t76 -74.5t94.5 -56l-62 -336h-511z" />
<glyph unicode="&#x3bc;" horiz-adv-x="1231" d="M1025 410q-14 -72 -19 -122.5t-5 -77.5q0 -40 14 -55t43 -15q10 0 19.5 0.5t25.5 4.5l-8 -150q-27 -5 -53 -8t-44 -3q-41 0 -73 8t-54 26.5t-33 48.5t-11 74t11.5 107.5t45.5 153.5h-2q-34 -82 -80 -158t-101.5 -134t-119.5 -92.5t-133 -34.5q-35 0 -64 7.5t-51 23.5 t-37 41t-20 59q-1 -35 -2.5 -75t-5.5 -69q-8 -52 -14 -106t-10 -112t-6 -121.5t-2 -135.5h-180q1 129 10.5 238.5t24 205.5t33 183.5t38.5 173.5t41 174.5t40 186.5l41 215q-34 6 -79 12.5t-87 9.5l21 110q38 5 82.5 8t90.5 5t92.5 2.5t88.5 -0.5l-111 -581 q-16 -85 -17.5 -142t11 -92.5t38 -50.5t64.5 -15q45 0 92.5 30.5t92.5 82t86 118.5t74.5 139.5t57.5 145t36 135.5l16 85q-32 6 -74.5 11t-82.5 8l20 112q37 4 80 7t88 5t90 2.5t86 -1.5z" />
<glyph unicode="&#x3c0;" horiz-adv-x="1276" d="M1062 866q-12 -39 -22 -75.5t-19 -72t-15.5 -70t-11.5 -68.5q-13 -87 -18.5 -155t-5.5 -116q0 -49 5 -81.5t15 -52.5t25 -28t35 -8t42.5 3t43.5 9l-7 -150q-28 -8 -64 -12.5t-72 -4.5q-56 0 -95.5 15.5t-64.5 49.5t-36.5 88.5t-11.5 133.5q0 30 1.5 62t4.5 69t8 78t13 90 q5 33 12 69t16 73.5t20 76t22 77.5h-369q-2 -38 -7.5 -86t-14.5 -98.5t-20 -100t-23 -90.5q-24 -75 -47 -137.5t-49 -122t-57.5 -121.5t-71.5 -134l-180 48q39 72 70.5 130t58 112t50 109.5t47.5 124.5q15 39 26.5 87t20.5 97t15 96t8 86h-232l31 152h1181l-31 -152h-226z " />
<glyph unicode="&#x2013;" d="M1134 530h-1127l31 159h1126z" />
<glyph unicode="&#x2014;" horiz-adv-x="2048" d="M1813 530h-1565l31 159h1566z" />
<glyph unicode="&#x2018;" horiz-adv-x="489" d="M591 1456q-59 -49 -93.5 -91t-50 -78t-13.5 -67t17 -58q17 -27 16.5 -57.5t-14.5 -56.5t-40 -43t-61 -17q-39 0 -68.5 21t-43 58.5t-8 89t37.5 112.5t93.5 129t159.5 138l68 -80v0z" />
<glyph unicode="&#x2019;" horiz-adv-x="489" d="M424 1521q39 0 68.5 -21t43 -58.5t7.5 -88.5t-37.5 -112t-93 -128.5t-159.5 -137.5l-68 79q58 49 93 91t50.5 78.5t13 67t-17.5 57.5q-16 27 -15.5 57.5t14.5 56.5t40 42.5t61 16.5z" />
<glyph unicode="&#x201a;" horiz-adv-x="489" d="M180 233q39 0 69 -21t43.5 -59t7.5 -89.5t-37.5 -112t-93 -128t-159.5 -137.5l-68 80q58 49 93.5 91t50.5 78t13 66.5t-18 56.5q-15 28 -15 58.5t13.5 56t39.5 43t61 17.5z" />
<glyph unicode="&#x201c;" horiz-adv-x="870" d="M980 1455q-59 -49 -94 -91t-50.5 -78t-13.5 -67t18 -57q16 -27 15.5 -58t-14.5 -56.5t-39.5 -42.5t-61.5 -17q-29 0 -53 12t-40 34t-23.5 53.5t-2.5 69t23.5 82t53.5 93t87.5 99.5t126.5 104zM591 1455q-59 -49 -93.5 -91t-50 -78t-13.5 -67t17 -57q16 -27 15.5 -58 t-14.5 -56.5t-39.5 -42.5t-60.5 -17q-39 0 -68.5 21t-43 58.5t-8 89t37.5 112.5t93.5 128.5t159.5 137.5z" />
<glyph unicode="&#x201d;" horiz-adv-x="870" d="M811 1521q39 0 68.5 -21t43 -58.5t8 -88.5t-37.5 -112t-93.5 -128.5t-159.5 -137.5l-68 79q58 49 93 91t50.5 78.5t13.5 67t-17 57.5q-16 27 -16 57.5t14 56.5t40 42.5t61 16.5zM424 1521q39 0 68.5 -21t43 -58.5t7.5 -88.5t-37.5 -112t-93 -128.5t-159.5 -137.5l-68 79 q58 49 93.5 91t50.5 78.5t13 67t-18 57.5t-15.5 57.5t14.5 56.5t40 42.5t61 16.5z" />
<glyph unicode="&#x201e;" horiz-adv-x="870" d="M569 233q39 0 69 -21t43.5 -59t7.5 -89.5t-38 -112t-93.5 -128t-159.5 -137.5l-68 80q59 49 94 91t50.5 78t13 66.5t-17.5 56.5q-15 28 -15 58.5t13.5 56t39.5 43t61 17.5zM180 233q39 0 69 -21t43.5 -59t7.5 -89.5t-37.5 -112t-93 -128t-159.5 -137.5l-68 80 q58 49 93.5 91t50.5 78t13 66.5t-18 56.5q-15 28 -15 58.5t13.5 56t39.5 43t61 17.5z" />
<glyph unicode="&#x2020;" horiz-adv-x="901" d="M924 1141h-280l-5 -200l-136 -514h-135l60 514l72 200h-281l26 143h282l19 280h211l-86 -280h281z" />
<glyph unicode="&#x2021;" horiz-adv-x="901" d="M927 1155h-279l-8 -203l-70 -203h277l-27 -144h-278l-18 -266h-211l83 266h-280l28 144h279l6 203l72 203h-279l26 144h281l17 265h211l-82 -265h279z" />
<glyph unicode="&#x2022;" horiz-adv-x="860" d="M695 617q0 -54 -20 -100.5t-54.5 -81.5t-80 -54.5t-97.5 -19.5q-51 0 -95 19t-76 51.5t-50.5 76t-18.5 91.5q0 54 20 100.5t54 81.5t80 55t97 20t95.5 -19.5t77 -52t50.5 -76t18 -91.5z" />
<glyph unicode="&#x2026;" horiz-adv-x="1335" d="M1135 111q0 -28 -10 -51.5t-27.5 -41t-40.5 -27t-48 -9.5t-46.5 9.5t-37 25.5t-24 37.5t-8.5 44.5q0 28 10.5 52t27.5 41t40 27t49 10q25 0 46.5 -9.5t36.5 -25.5t23.5 -37.5t8.5 -45.5zM704 111q0 -28 -10 -51.5t-27.5 -41t-40.5 -27t-48 -9.5q-26 0 -47 9.5t-36.5 25.5 t-24 37.5t-8.5 44.5q0 28 10 52t27.5 41t40.5 27t48 10q26 0 47 -9.5t36.5 -25.5t24 -37.5t8.5 -45.5zM273 111q0 -28 -10.5 -51.5t-27.5 -41t-40.5 -27t-48.5 -9.5q-26 0 -47 9.5t-36 25.5t-23.5 37.5t-8.5 44.5q0 28 10 52t27.5 41t40.5 27t48 10t46.5 -9.5t37 -25.5 t24 -37.5t8.5 -45.5z" />
<glyph unicode="&#x2030;" horiz-adv-x="2060" d="M1945 406q0 -84 -26.5 -162.5t-77.5 -141t-123.5 -98t-160.5 -35.5q-56 0 -100.5 16t-74.5 45.5t-45.5 71.5t-15.5 93q0 83 24.5 162.5t72.5 144t119.5 102t162.5 37.5q55 0 100 -14.5t77.5 -43.5t50 -73.5t17.5 -103.5zM735 1178q0 -84 -26.5 -163t-77.5 -141t-123 -98 t-160 -36q-56 0 -100 16t-74 45.5t-45.5 71.5t-15.5 94q0 83 24 162.5t72 143.5t119.5 101.5t162.5 37.5q55 0 100 -14t77 -43t49.5 -73.5t17.5 -103.5zM138 -47l-112 93l1208 1384l112 -94zM1264 406q0 -84 -26.5 -162.5t-77.5 -141t-123.5 -98t-160.5 -35.5q-56 0 -100 16 t-74 45.5t-45.5 71.5t-15.5 93q0 83 24 162.5t72.5 144t119.5 102t162 37.5q55 0 100 -14.5t77.5 -43.5t50 -73.5t17.5 -103.5zM1780 388q0 30 -7 52.5t-20.5 37.5t-34.5 23t-49 8q-50 0 -85.5 -27t-56.5 -70.5t-30.5 -95t-9.5 -102.5q0 -26 7 -47t20.5 -36t32.5 -22.5 t43 -7.5q50 0 86.5 25t59.5 67t33.5 92.5t10.5 102.5zM571 1160q0 30 -6.5 52.5t-20.5 37.5t-35 23t-49 8q-49 0 -85 -27t-57 -71t-30.5 -95t-9.5 -102q0 -27 7 -48t20.5 -36t32 -22.5t42.5 -7.5q50 0 87 25t60 67t33.5 92.5t10.5 103.5zM1100 388q0 30 -7 52.5t-20.5 37.5 t-35 23t-49.5 8q-49 0 -84.5 -27t-57 -70.5t-31 -95t-9.5 -102.5q0 -26 7 -47t20.5 -36t32.5 -22.5t43 -7.5q50 0 87 25t60 67t33.5 92.5t10.5 102.5z" />
<glyph unicode="&#x2039;" horiz-adv-x="629" d="M310 602l148 -291l-146 -76l-183 377l303 359l128 -80z" />
<glyph unicode="&#x203a;" horiz-adv-x="629" d="M243 235l-129 81l251 288l-148 292l145 75l183 -377z" />
<glyph unicode="&#x2044;" horiz-adv-x="840" d="M-189 -289l-105 83l1640 1853l103 -84z" />
<glyph unicode="&#x2074;" horiz-adv-x="786" d="M336 746l16 84q34 9 75.5 15.5t79.5 9.5l19 100h-381l11 131l428 514h231l-97 -513h135l-26 -132h-135l-19 -100q36 -3 68.5 -9.5t60.5 -15.5l-15 -84h-451zM627 1475l-325 -393q24 1 59 2t71 1.5t68.5 0.5h52.5z" />
<glyph unicode="&#x20ac;" horiz-adv-x="1174" d="M423 470q4 -75 24.5 -137t59.5 -106.5t97 -69t136 -24.5q81 0 161 19t149 54l10 -134q-76 -41 -172.5 -66t-208.5 -26q-113 0 -199.5 32.5t-145 94.5t-88 152.5t-29.5 205.5v5h-176l22 117h159q5 46 11.5 90.5t16.5 89.5h-153l24 117h163q38 109 99.5 204t148 164.5 t199.5 109.5t255 40q72 0 146 -11.5t142 -32.5l-57 -296h-116q-1 38 1.5 78.5t7.5 79.5q-37 17 -80 25.5t-101 8.5q-95 0 -168.5 -29.5t-128.5 -80t-93 -118t-62 -142.5h474l-24 -117h-480q-9 -46 -14.5 -91t-7.5 -89h468l-22 -117h-448z" />
<glyph unicode="&#x2122;" horiz-adv-x="1673" d="M1679 1300q-22 -5 -47.5 -9.5t-51.5 -7.5l-6 -400q22 -3 41.5 -6.5t39.5 -8.5l-18 -84h-298l15 82q18 5 39 9l42 8l8 232l4 101l-39 -86l-168 -346h-140l-34 349l-5 83l-19 -68l-93 -265q20 -4 39 -8t36 -9l-16 -82h-293l17 83q20 5 43 9t44 7l144 400q-26 3 -48.5 7.5 t-43.5 9.5l16 82h284l30 -324l3 -96l34 87l163 333h294zM759 1146h-85q-1 13 -0.5 30t1 34.5t1.5 34.5t2 30h-100l-74 -388q28 -3 57.5 -8.5t52.5 -12.5l-16 -82h-361l15 82q25 7 55.5 12.5t59.5 8.5l73 388h-98q-4 -14 -9 -30.5t-10.5 -34.5t-11.5 -34.5t-13 -29.5h-87 l45 236h549z" />
<glyph unicode="&#x2202;" horiz-adv-x="1278" d="M1191 958q0 -108 -19.5 -223t-57.5 -223t-95 -204t-133.5 -168t-171.5 -113.5t-209 -41.5q-98 0 -168 27.5t-115.5 76t-67 112.5t-21.5 138q0 121 42 224t116 178t173.5 117t214.5 42q53 0 102 -12.5t89.5 -37t70.5 -60t43 -81.5q1 22 4.5 51t7.5 60.5t7 65.5t2 68 q-4 93 -32.5 167t-80 125.5t-124.5 79t-166 27.5l51 153q132 -4 232.5 -46t168.5 -114.5t102.5 -171t34.5 -216.5zM892 525q0 42 -13.5 82t-43.5 70.5t-75.5 49t-110.5 18.5q-70 0 -131 -28.5t-105.5 -78.5t-70 -118.5t-25.5 -147.5q0 -53 15 -95t43 -72t70 -46t96 -16 q69 0 132.5 29t112 80t77.5 121t29 152z" />
<glyph unicode="&#x220f;" horiz-adv-x="1573" d="M1643 1337h-211l-356 -1842h-172l355 1842h-622l-355 -1842h-174l356 1842h-213l31 158h1392z" />
<glyph unicode="&#x2211;" horiz-adv-x="1223" d="M1243 1337h-760l427 -839l-760 -839h802l-32 -164h-1037l27 142l787 876l-423 839l28 143h969z" />
<glyph unicode="&#x2212;" d="M1047 530h-954l31 159h954z" />
<glyph unicode="&#x221a;" horiz-adv-x="1221" d="M600 0h-209l-134 878h-182l28 140h326l77 -592q7 -57 13.5 -115.5t10.5 -117.5h4q24 57 46.5 108.5t49.5 109.5l533 1141h200z" />
<glyph unicode="&#x221e;" horiz-adv-x="1958" d="M1873 685q0 -75 -28.5 -149.5t-84 -133.5t-136.5 -96.5t-185 -37.5q-63 0 -122 19.5t-115.5 51.5t-110.5 74t-105 88q-69 -45 -139 -87t-139 -74.5t-135.5 -52t-129.5 -19.5q-82 0 -142 20.5t-98.5 56.5t-56.5 85.5t-18 108.5q0 60 16 114.5t44.5 101t69 83.5t87.5 63 t100.5 40t109.5 14q63 0 124 -19.5t118.5 -52.5t112 -75t106.5 -88q71 46 141.5 88t139 75t134.5 52.5t127 19.5q83 0 143 -21.5t98 -58t56 -86t18 -104.5zM1691 659q0 28 -9 52.5t-28.5 42.5t-48.5 29t-68 11q-38 0 -83 -15t-95 -40.5t-103.5 -59.5t-110.5 -71 q40 -36 79.5 -68t78.5 -56.5t77.5 -39t76.5 -14.5q51 0 94 17.5t74.5 48.5t48.5 72.5t17 90.5zM854 615q-41 36 -80.5 68t-79 56.5t-78 39.5t-77.5 15q-50 0 -92 -18t-73 -48.5t-48 -72t-17 -86.5q0 -30 9.5 -55t28 -44t46.5 -29.5t66 -10.5q39 0 84 15t95 40.5t104.5 58.5 t111.5 71z" />
<glyph unicode="&#x222b;" horiz-adv-x="680" d="M803 1333q-19 8 -44.5 12.5t-52.5 4.5q-37 0 -66.5 -14.5t-54.5 -52t-46.5 -102t-40.5 -166.5q-16 -79 -28.5 -154.5t-24.5 -151.5t-24 -154.5t-25.5 -164t-30 -180t-36.5 -201.5q-29 -152 -66 -254t-86.5 -164t-113 -88t-144.5 -26q-27 0 -53.5 3t-50.5 9l31 163 q20 -8 45 -12t50 -4q38 0 68 14.5t54.5 51.5t45 100.5t40.5 161.5q21 116 39 227t36.5 231t41 255t53.5 298q29 152 67 254.5t88.5 164t114.5 87.5t146 26q23 0 49.5 -3.5t48.5 -9.5z" />
<glyph unicode="&#x2248;" d="M1087 763q-25 -23 -55 -44.5t-65 -37.5t-73 -25.5t-80 -9.5q-47 0 -82.5 9t-65 22.5t-55.5 29.5t-53.5 29t-59.5 22.5t-74 9.5q-30 0 -59.5 -8t-57 -20.5t-51 -27.5t-42.5 -30l-62 127q27 23 58.5 43.5t67.5 37t74.5 26t79.5 9.5q46 0 82.5 -9t67 -23t57.5 -30t55 -30 t58 -23.5t67 -9.5q53 0 103 24.5t103 66.5zM1019 404q-26 -23 -58 -44t-67 -36.5t-73 -25t-77 -9.5q-48 0 -85.5 9.5t-67.5 22.5t-55.5 29t-52.5 29.5t-58 22.5t-71 9q-30 0 -59.5 -8t-56.5 -20.5t-50 -28t-42 -29.5l-64 128q25 20 56 40.5t66 37t73 27t79 10.5 q47 0 83 -9.5t66 -23t57 -30t55.5 -30t60.5 -23t74 -9.5q52 0 102.5 22.5t103.5 66.5z" />
<glyph unicode="&#x2260;" d="M1062 708h-336l-118 -198h415l-29 -152h-474l-169 -284h-166l169 284h-272l29 152h331l117 198h-410l27 151h470l172 290h167l-172 -290h276z" />
<glyph unicode="&#x2264;" d="M426 768l522 -382l-123 -127l-656 519l819 499l92 -132zM894 0h-848l29 154h849z" />
<glyph unicode="&#x2265;" d="M241 259l-94 131l654 379l-524 383l124 125l658 -518zM894 0h-848l29 154h849z" />
<glyph unicode="&#x25ca;" horiz-adv-x="1243" d="M585 -17h-114l-365 714l627 703h111l366 -714zM748 1197l-444 -500l263 -511l447 495z" />
<glyph unicode="&#x25fc;" horiz-adv-x="1075" d="M0 1075h1075v-1075h-1075v1075z" />
<glyph unicode="&#xeeee;" horiz-adv-x="358" d="M358 2007v-2662h-358v2662h358z" />
<glyph unicode="&#xf6c9;" horiz-adv-x="780" d="M411 1485l-29 106l389 151l37 -142z" />
<glyph unicode="&#xf6ca;" horiz-adv-x="868" d="M628 1482l-295 170l59 104l250 -129l286 129l43 -100z" />
<glyph unicode="&#xf6cb;" horiz-adv-x="1040" d="M1058 1602q0 -24 -9 -44.5t-24 -35.5t-35 -23.5t-43 -8.5q-22 0 -40.5 8.5t-32.5 22.5t-21.5 32.5t-7.5 40.5q0 23 8.5 43.5t23.5 35.5t35 23.5t42 8.5t41 -8t33 -22.5t22 -33t8 -39.5zM630 1602q0 -24 -8.5 -44.5t-23.5 -35.5t-35 -23.5t-42 -8.5q-23 0 -41.5 8.5 t-32.5 22.5t-22 32.5t-8 40.5q0 23 9 43.5t24 35.5t35 23.5t42 8.5q23 0 41.5 -8t32.5 -22.5t21.5 -33t7.5 -39.5z" />
<glyph unicode="&#xf6ce;" horiz-adv-x="741" d="M738 1485l-389 115l65 142l368 -151z" />
<glyph unicode="&#xf6cf;" horiz-adv-x="1036" d="M823 1482l-50 96l325 190l63 -121zM434 1485l-56 93l311 211l72 -116z" />
<glyph unicode="&#xf6d0;" horiz-adv-x="862" d="M900 1532h-556l26 127h556z" />
<glyph unicode="&#xf8ff;" horiz-adv-x="2132" d="M1627 1236q-7 8 -14.5 16.5t-15.5 17t-16 16t-16 14.5l168 191q24 -20 46 -41.5t41 -45.5zM1829 694q1 20 1 44t-1 44l258 18q2 -32 2 -63t-2 -62zM1113 1470q-24 2 -46.5 1.5t-43.5 -1.5l-18 254q31 3 62.5 2.5t61.5 -2.5zM570 1298q-9 -7 -17 -14.5t-16 -15.5 t-15.5 -16t-14.5 -15l-195 169q21 24 42 46t46 41zM1562 736q0 -52 -10.5 -101.5t-29.5 -93t-44 -81t-54 -66.5v-159l-33 -9l64 -153l-61 -15l61 -147l-62 -16l21 -51l-61 -138h-105q-2 -19 -17.5 -35.5t-39.5 -29t-56 -19.5t-68 -7q-37 0 -69 7t-56.5 19.5t-39 29 t-16.5 35.5h-106l-102 248l63 17l-63 152l69 18l-39 94v160q-29 30 -54 68.5t-43.5 82t-29 92t-10.5 98.5q0 103 39 193.5t106 158t157.5 106.5t193.5 39q102 0 192 -39t157.5 -106.5t106.5 -158t39 -193.5zM46 675q-3 31 -3 63t3 62l260 -18q-1 -22 -1 -45t1 -44zM1090 793 q3 -12 -7 -21q3 0 5 3.5t3.5 7t1 7t-2.5 3.5zM1085 786q-4 0 -4 -1.5t0.5 -3t0.5 -2.5t-3 -1v-2q5 0 5.5 1t-0.5 2.5t-1.5 3t2.5 1.5v2zM1077 786q-4 1 -6 -2t-2.5 -5.5t1 -3t5.5 4.5l-2 -4h2zM1071 793q-2 0 -4 -3.5t-3.5 -7t-1 -7t2.5 -3.5q-3 10 6 21zM1459 736 q0 82 -31 154t-84 125t-124.5 84t-152.5 31t-152.5 -31t-125 -84t-84.5 -125t-31 -154q0 -86 35.5 -164t102.5 -135h121l-31 281q-24 -5 -43.5 -11t-35.5 -11q-8 -3 -14.5 2t-10.5 14.5t-6 21.5t-0.5 23t4.5 19t9 10q61 20 128 32t134 12q69 0 135.5 -12t127.5 -32 q6 -2 9.5 -9.5t4 -18.5t-1.5 -23t-5.5 -21.5t-10 -14.5t-15.5 -3q-16 5 -36 11t-44 11l-29 -281h120q28 24 52.5 56t43.5 70t30 81.5t11 91.5zM1061 786q-2 1 -4 -1t-3 -4t0 -4t5 -1v2q-5 -2 -3 3t5 3v2zM1051 786l-2 -6q-2 -4 -2 0l2 6h-2l-3 -6q-2 -5 1.5 -4t5.5 4l2 6h-2 zM1042 778h-4l4 13h-2l-4 -13q0 -2 2 -2h4v2zM1156 731q-19 4 -41 6t-48 2q-25 0 -47.5 -2t-41.5 -6l28 -294h122zM1324 355h-514v-112l32 -78l482 123v67zM1296 203l-494 -128l33 -79l495 124zM1297 33l-494 -126l52 -127h425l28 67l-13 28l-152 -38l-26 67l213 53z" />
<glyph unicode="&#xfb00;" horiz-adv-x="1309" d="M1522 1339q-34 8 -73 13.5t-68 5.5q-59 0 -103 -17.5t-75 -52.5t-51.5 -87.5t-33.5 -125.5l-10 -57h275l-26 -143h-277l-172 -901q-23 -120 -63 -209t-100.5 -148.5t-146.5 -90t-199 -30.5q-70 0 -154 14t-154 41q-25 -18 -52.5 -31t-59 -22.5t-68 -14t-77.5 -4.5 q-48 0 -95 4.5t-86 13.5l44 157q36 -10 72.5 -15t77.5 -5q55 0 96.5 15.5t73.5 51t56 94.5t40 146l179 934h-202l28 143h202l11 63q34 192 157 300.5t341 108.5q72 0 155 -12.5t151 -39.5q50 34 115.5 51.5t149.5 17.5q38 0 81 -4.5t83 -12.5zM1018 1301q-57 20 -109 30 t-98 10q-135 0 -206 -65.5t-95 -202.5l-10 -55h427l14 72q12 63 31.5 116t45.5 95zM473 875l-178 -929q-16 -84 -38 -147.5t-51 -111.5q55 -20 109.5 -29.5t102.5 -9.5q69 0 118.5 17t85.5 54t60.5 98t41.5 151l176 907h-427z" />
<glyph unicode="&#xfb01;" horiz-adv-x="1221" d="M118 1018h202l8 48q39 222 173.5 332t370.5 110q40 0 77.5 -2.5t72.5 -7.5t67.5 -11.5t65.5 -15.5l-62 -154q-25 9 -55 16.5t-61 12.5t-61 8t-56 3q-76 0 -135.5 -18t-102.5 -52.5t-70 -85.5t-39 -118l-13 -65h617l-166 -874q37 -6 80.5 -11.5t83.5 -8.5l-21 -109 q-37 -5 -80.5 -8.5t-90 -6t-93 -2.5t-88.5 1l166 876h-436l-177 -926q-23 -124 -64 -213.5t-99 -146t-133 -83.5t-169 -27q-44 0 -89.5 5t-87.5 14l44 156q34 -10 73 -15t73 -5q56 0 98 15.5t74.5 51.5t56.5 95.5t42 148.5l178 930h-201z" />
<glyph unicode="&#xfb02;" horiz-adv-x="1219" d="M948 144q33 -6 78 -11.5t86 -8.5l-20 -109q-38 -5 -81.5 -8.5t-89.5 -6t-92.5 -2.5t-89.5 1l256 1345q-46 8 -87.5 11.5t-79.5 3.5q-135 0 -209.5 -57.5t-98.5 -181.5l-20 -102h255l-29 -143h-254l-177 -926q-23 -124 -64 -213.5t-99 -146t-133 -83.5t-169 -27 q-44 0 -89.5 5t-87.5 14l44 156q34 -10 73 -15t73 -5q56 0 98 15.5t74.5 51.5t56.5 95.5t42 148.5l178 930h-201l27 143h202l21 112q18 93 58 163.5t103.5 118t150 72t195.5 24.5q88 0 176.5 -7.5t175.5 -21.5z" />
<glyph unicode="&#xfb03;" horiz-adv-x="1829" d="M1702 15q-38 -5 -81.5 -8.5t-89.5 -6t-92.5 -2.5t-89.5 1l167 876h-436l-172 -901q-23 -120 -63 -209t-100.5 -148.5t-146.5 -90t-199 -30.5q-70 0 -154 14t-154 41q-25 -18 -53 -31t-59.5 -22.5t-67.5 -14t-77 -4.5q-48 0 -95 4.5t-86 13.5l44 157q36 -10 72.5 -15 t77.5 -5q55 0 96.5 15.5t73.5 51t56 94.5t40 146l179 934h-202l28 143h202l11 63q34 192 157 300.5t341 108.5q84 0 171 -16t157 -44q67 41 144.5 59.5t177.5 18.5q40 0 77.5 -2.5t72.5 -7.5t67.5 -11.5t65.5 -15.5l-62 -154q-25 9 -54.5 16.5t-61 12.5t-61.5 8t-56 3 q-151 0 -236.5 -69.5t-110.5 -204.5l-12 -65h616l-166 -874q18 -3 38 -6t41.5 -5.5l43 -5t41.5 -3.5zM1027 1299q-50 18 -107.5 30t-108.5 12q-135 0 -205.5 -65t-95.5 -203l-10 -55h427l13 68q12 62 35 118.5t52 94.5zM473 875l-178 -929q-16 -84 -38 -147t-51 -112 q55 -20 109.5 -29.5t102.5 -9.5q69 0 118.5 17t85.5 54t60.5 98t41.5 151l176 907h-427z" />
<glyph unicode="&#xfb04;" horiz-adv-x="1823" d="M1556 144q16 -3 36 -6t41.5 -5.5t43.5 -5t43 -3.5l-20 -109q-38 -5 -81.5 -8.5t-90 -6t-93 -2.5t-88.5 1l255 1345q-41 7 -84 11t-81 4q-148 0 -217.5 -63t-92.5 -178l-19 -100h253l-28 -143h-253l-172 -901q-23 -120 -63 -209t-100.5 -148.5t-146.5 -90t-199 -30.5 q-70 0 -154 14t-154 41q-25 -18 -53 -31t-59.5 -22.5t-67.5 -14t-77 -4.5q-48 0 -95 4.5t-86 13.5l44 157q36 -10 72.5 -15t77.5 -5q55 0 96.5 15.5t73.5 51t56 94.5t40 146l179 934h-202l28 143h202l11 63q34 192 157 300.5t341 108.5q33 0 71 -3t80 -10t84.5 -17.5 t81.5 -25.5q63 40 141 57t173 17q86 0 174.5 -7.5t173.5 -21.5zM1018 1301q-57 20 -109 30t-98 10q-135 0 -205.5 -65t-95.5 -203l-10 -55h427l21 108q11 55 29.5 99.5t40.5 75.5zM473 875l-178 -929q-16 -84 -38 -147t-51 -112q55 -20 109.5 -29.5t102.5 -9.5 q69 0 118.5 17t85.5 54t60.5 98t41.5 151l176 907h-427z" />
<glyph horiz-adv-x="1966" d="M1802 1169q0 -8 -4 -8q-22 3 -43 0.5t-43 -4.5q-35 -2 -61 -3t-47.5 -2.5t-39.5 -3.5t-36 -5q-8 -7 -10.5 -15.5t-3.5 -17t-2 -17.5t-5 -18q0 -9 3.5 -16t5.5 -15q5 -6 12.5 -9t15.5 -5q14 2 27.5 8t19.5 19q0 8 -4 13.5t-10 10.5q-5 4 -10.5 5t-11 1t-10.5 1.5t-9 7.5 q6 10 19.5 8t25.5 -2q11 -3 18.5 -12t12.5 -21q-2 -17 -12 -30.5t-25 -24.5q-11 -3 -21.5 -5t-21.5 -5q-25 6 -51 16t-41 33q-4 12 -3.5 23t2 22t4 22t3.5 23q-5 9 -13.5 7.5t-17.5 0.5l-67 -2q0 3 -2.5 4t-2.5 4q7 5 15 4.5t14 1.5q19 -3 39 -1.5t39 1.5q8 6 9 16t1 19 q6 14 7 32.5t12 29.5q5 3 9 2t7 -4t6 -7t6 -6q6 -8 6.5 -16.5t0.5 -18.5v-20t4 -19q4 -6 9.5 -7.5t11.5 -1l12 1t12 -0.5q24 1 48 1.5t52 1.5t60 3t71 7q3 -2 4.5 -2.5t3.5 -4.5zM1327 1028q-25 0 -52.5 -1t-51.5 -9q-8 3 -15 5t-12 11q5 28 7.5 57.5t-5.5 57.5 q-5 6 -13.5 0.5t-15.5 -8.5q-14 -9 -28 -19t-26 -22t-20 -26.5t-10 -31.5q-8 -8 -18.5 -11.5t-19.5 1.5q-6 7 -6.5 15t0 16t1.5 16.5t-2 16.5l-2 63q-6 6 -16 3.5t-21 0.5q-2 1 -6 1.5t-7.5 1t-6 2t-2.5 6.5q26 -2 52.5 2.5t53.5 -0.5q6 -6 6.5 -14t0 -16.5t1.5 -15.5 t11 -10q28 13 53.5 30t52.5 28q6 -4 14 -4h15t12.5 -2.5t8.5 -12.5q5 -22 3.5 -43.5t0.5 -44.5q3 -6 2.5 -12.5t5.5 -11.5q8 -2 14 -3t12 3q8 0 16 -2.5t19 -2.5q2 -2 2.5 -4.5t-2.5 -5.5zM915 1145q8 -38 -14 -64q-11 -7 -21 -15.5t-20 -16.5t-21 -14t-24 -7q-6 2 -9 -0.5 t-5 -6t-4.5 -5.5t-8.5 2q-11 8 -24.5 4t-26.5 -2q-12 0 -22 0.5t-21 5.5q-8 7 -16 14.5t-14.5 16.5t-9 20t2.5 23q7 18 18.5 34t31.5 27q21 11 44.5 22t51.5 5q16 -1 33 -2.5t32 -6t27 -12.5t20 -22zM926 1360q-11 -13 -27.5 -17.5t-32.5 0.5q-9 13 -17.5 24.5t-10.5 25.5 q-13 21 -31.5 32.5t-40 18.5t-44.5 11.5t-44 10.5l-64 4q-5 -5 -12.5 -3t-13.5 -1q-35 -11 -61.5 -20.5t-51.5 -22.5q-6 -8 -15 -14t-17 -12.5t-15 -14.5t-8 -20q-13 -31 -17 -69.5t-6 -73.5q10 -8 22 -5.5t23 0.5q44 5 87 5h89q4 -2 4.5 -7t-1.5 -8q-9 -6 -16.5 -5t-15.5 4 t-15.5 5.5t-16.5 -0.5q-20 2 -42 -1t-42 -1q-18 -3 -38 -4t-36 -10l-6 -8q-2 -19 -2 -34v-29.5t1 -30t3 -35.5q1 -7 0.5 -14.5t-0.5 -14.5t1.5 -14.5t6.5 -14.5q26 -2 41.5 -1.5t29 2t29.5 3.5t42 3q6 5 13 2t13 -5q2 -2 1 -4t1 -4l-8 -4q-24 4 -42.5 3.5t-37.5 -3t-41 -4.5 t-53 0q-22 -2 -46.5 -4t-47.5 0q-32 -2 -67 -2t-64 8l-4 6q3 3 8 6t10 5q16 -8 37 -10t43 -5q14 2 28 1t25 7q-1 26 2 49t6.5 45t8 45.5t6.5 51.5q-2 4 -6 8q-31 1 -59 -0.5t-56 10.5q-2 5 0.5 8t5.5 3q28 -8 57.5 -8.5t57.5 1.5l4 7q5 34 11.5 70.5t19.5 64.5v6 q46 54 107 86.5t136 40.5q38 5 75 -4t69 -23q9 -3 20 -3t21 -5q35 -8 69.5 -24.5t57.5 -47.5q3 -3 2.5 -8t-2.5 -10zM1571 -127q-23 1 -48.5 -1t-52 -4.5t-51.5 -4t-47 1.5q-57 2 -112.5 -1t-110.5 -7t-110 -5t-111 5q-51 -8 -99 -3.5t-98 9.5q-60 5 -122.5 3.5t-125.5 -1.5 q-21 0 -47.5 -0.5t-54.5 -2.5t-54.5 -5t-47.5 -9q-8 -2 -17 -1.5t-14 10.5q0 32 -2.5 66.5t8.5 66.5q3 40 1.5 81.5t4.5 82.5q-4 23 -3.5 45.5t2 45t2.5 45.5t-3 46q0 66 5.5 132.5t8.5 135.5q5 74 2 146.5t0 146.5q4 9 10.5 11t13.5 2t15 -0.5t15 1.5q8 -5 18 -5.5 t19.5 0.5t19.5 2.5t18 0.5q7 7 16 11.5t11 -9.5q3 -5 0.5 -12t5.5 -12q-4 -29 -3 -78.5t4 -107t7 -117t7 -109.5q32 10 61.5 25t58 31.5t57 32t60.5 26.5q11 5 20 12t23 12q3 2 8 7t13 0q10 -5 8 -15.5t-2 -19.5q-10 -28 -12.5 -61t2.5 -64q5 -9 13.5 -5.5t14.5 3.5 q17 14 35 23t35 22q20 12 41 23.5t43 19.5q25 17 48.5 33.5t49.5 25.5l41 33q3 8 12 14q7 0 12 -3.5t11 -8.5q0 -29 6 -58.5t6 -58.5q2 -6 6 -4.5t6 -3.5q8 -11 3.5 -21.5t-7.5 -19.5l4 -4q35 8 65 26.5t59.5 39t59 39t64.5 26.5q10 9 22 12.5t23 14.5q10 1 19 8.5t18 14 t19 8.5t22 -7q3 0 7.5 -1.5t6.5 -6.5q-2 -8 2 -13t7 -11q-2 -8 -1.5 -15.5t1 -14t0.5 -13.5t-4 -13q1 -13 0 -26t-1 -25.5t2.5 -24t8.5 -22.5q-2 -7 0.5 -13t4.5 -12t2.5 -11.5t-3.5 -10.5q2 -16 0.5 -29.5t7.5 -25.5q2 -10 3 -19.5t-5 -17.5q5 -23 5.5 -47.5t8.5 -47.5 q-5 -8 -2.5 -16t2.5 -16q0 -39 3.5 -76t8 -74t8.5 -74.5t5 -76.5q0 -3 2.5 -8.5t-0.5 -10.5zM870 1104q-5 22 -16 43.5t-37 26.5q-3 -11 -12.5 -8.5t-16.5 1.5q-14 7 -28.5 3t-24.5 -15q-11 -15 -11.5 -30t5 -29.5t14 -28.5t17.5 -27q3 -8 9.5 -6t14.5 0q14 -5 26.5 2.5 t25.5 12.5q6 6 13.5 11.5t13.5 11.5t8.5 13.5t-1.5 18.5zM1513 -20l-16 34t-20 31q-13 22 -27.5 42t-17.5 46q-5 9 -10.5 17.5t-2.5 17.5q14 17 34 27.5t34 25.5l-19 35q-18 -2 -33 -8.5t-30 -11.5q-4 -3 -8.5 -7t-9.5 -6.5t-10.5 -2.5t-10.5 5q2 41 3 81.5t-1 78.5l-4 6 q-16 0 -28.5 5t-26.5 10q-3 -23 -6.5 -48.5t0.5 -50.5q-3 -8 -3 -18.5t1 -21t1 -21t-4 -19.5q2 -32 0.5 -57t-3 -49t-2 -49t2.5 -56l-2 -14h49q7 2 13.5 -2t11.5 2v28t-2 29q1 8 -1.5 17t-3.5 17t1.5 14.5t13.5 9.5q11 -5 11.5 -14t7.5 -17q-1 -7 1.5 -13t6 -11.5l7 -11 t5.5 -11.5q10 -6 17 -14.5t13.5 -18t13.5 -19t16 -16.5q6 2 11.5 -2.5t14.5 -1.5q5 0 8.5 4t3.5 9zM1245 367q-3 9 -8 17t-16 13q-5 5 -11.5 6t-9.5 -6q-9 -12 -13 -30.5t5 -30.5q3 -11 15.5 -12t23.5 4q9 6 12.5 17t1.5 22zM1249 31q0 40 -2 79t-2 76q0 14 1.5 27.5 t-1.5 26.5q-7 5 -14 5.5t-14 -1t-14.5 -3.5t-14.5 -1q-7 -12 -9 -24.5t-1.5 -25.5t1 -26.5t-0.5 -26.5q-5 -11 -5 -25t-2 -28q3 -10 2.5 -21.5t-0.5 -23.5t2 -23.5t9 -21.5q15 0 31 2.5t30 7.5q3 6 3.5 13.5t0.5 13.5zM1147 252q-16 -2 -33.5 -5t-28.5 -22q-4 -4 -5.5 -10.5 t-4 -13t-7 -10t-13.5 -1.5q-5 16 -4.5 29.5t0.5 30.5q-4 2 -8 1.5t-8 -1.5t-7.5 -1.5t-7.5 1.5q-9 -5 -14.5 -12t-8.5 -15q0 -60 1 -114t8 -113l6 -8q5 -4 11.5 -4t13 1t12 2t10.5 -1q-3 11 -2.5 21.5t1.5 21t1 20.5t-4 21q5 23 11 46.5t21 43.5q13 9 27 12t27 14 q2 17 6.5 33t-0.5 33zM938 61q9 18 12 36t1.5 37t-5.5 38t-8 39q1 6 -5.5 11.5t-15.5 11t-18 9.5t-12 7t-9 3.5t-8 -5.5q-22 3 -39 -8q-11 -7 -15.5 -16.5t-12.5 -14.5q-5 -3 -10.5 -1t-8.5 7q8 37 4 75t-10 77l-4 14h-16q-9 -3 -12.5 -9t-4 -13.5t-0.5 -15t-2 -13.5 q-6 -34 -4 -69.5t-4 -70.5q3 -34 0 -67t0 -64q0 -18 -3 -35.5t-1 -37.5q14 -8 32 -2t32 12q10 4 16.5 1.5t11.5 -8t10 -12t11 -10.5h13t13 2q11 6 24 17t24 23.5t18 26t6 25.5zM682 70q-7 22 -6.5 45t1 45t-1.5 43.5t-13 40.5q-26 15 -48 24l-16 11q-9 -2 -17.5 -1.5 t-17 0.5t-17 -2t-16.5 -8q-14 -8 -14 -22.5t-2 -30.5q11 -5 24 -3.5t25.5 2.5t23.5 -1.5t19 -15.5q-1 -4 0.5 -7l3 -6t1.5 -5.5t-3 -6.5q-2 -3 -2.5 -8t4.5 -8q3 -5 1.5 -11t-7.5 -8q-14 -5 -28 -4t-29 -2q-23 -9 -34.5 -31.5t-16.5 -44.5q-3 -5 -3 -10.5t1 -11t1.5 -11 t-3.5 -10.5q0 -14 9.5 -22t20.5 -13q3 4 7.5 7t9.5 -2q8 -3 15.5 0t14.5 8.5t14 12t15 11.5q11 2 13 -2t1.5 -11t-1 -15t4.5 -13q10 -5 17 -0.5t16 4.5q8 4 16.5 5.5t14.5 7.5zM508 371q-25 5 -53 3.5t-54 -3.5q-15 -2 -29.5 -5.5t-25.5 -11.5q-2 -32 -6.5 -66.5t-7.5 -66.5 q5 -54 3 -111.5t1 -113.5q8 0 15 2.5t14 -0.5q12 3 23 -1.5t24 1.5q2 32 2 64.5t2 64.5q5 11 14 15.5l19 9.5q4 2 8 1.5l8 -1t7.5 0t6.5 5.5l-2 57q-8 9 -19 8.5t-24 -0.5q-3 -3 -6 -5.5t-8 -2.5q-8 1 -11 6.5t-4 12t-1 14t-3 12.5q-3 6 0.5 11t8.5 10q20 6 39.5 9.5 t39.5 6.5l13 8q-3 19 1.5 34t4.5 32zM881 158q14 -29 7.5 -60t-26.5 -53q-5 -8 -11.5 -9.5t-12.5 -4.5q-13 1 -19.5 8.5t-9.5 17.5t-4.5 21t-3.5 20q5 16 6 34t10 32q7 4 11.5 10l9 12t9.5 10.5t13 4.5l6 -6q-2 -7 -0.5 -12t5 -8.5t6.5 -7.5t4 -9zM604 86q0 -15 -9 -26.5 t-20 -20.5q-8 -2 -15.5 -8t-18.5 0q-7 1 -9 5.5t-1 9.5t3 11t3 11q0 6 5 11.5t13 8.5q12 0 20 8q7 -2 15.5 -1.5t13.5 -8.5z" />
<glyph horiz-adv-x="2353" d="M1897 -70q-10 -12 -23.5 -16.5t-28.5 -6t-29 -4t-26 -9.5q-17 -2 -33.5 -4.5t-32 -8.5t-27.5 -16.5t-20 -28.5q-9 -21 -22 -40.5t-24.5 -39.5t-18 -41.5t-2.5 -46.5q1 -9 7.5 -12.5t14.5 -4t16.5 1t14.5 3.5q4 0 7 3l6 6t7 4.5t9 -1.5t4 -6t-3.5 -6t-7 -6.5t-5.5 -7.5 q-17 -11 -37.5 -15.5t-40.5 4.5q-14 16 -22 34t0 40q2 8 6.5 19.5t13.5 29.5t23.5 43t36.5 60q-16 7 -32 6t-32.5 -4.5t-32.5 -5.5t-32 4q10 12 26 17.5t30 10.5q14 3 28.5 3t28.5 1.5t26.5 6.5t20.5 18q8 11 10 22.5t3 23t0.5 24t2.5 24.5q-11 3 -10 11.5t1 13.5 q-10 23 -27.5 34.5t-39 17t-44 6t-43.5 1.5q-23 -2 -45.5 -11t-42 -23.5t-35.5 -33t-25 -38.5q-16 -32 -15 -65.5t13 -67.5q-5 -25 3.5 -47t17.5 -44.5t13 -46t-10 -51.5q-11 -9 -26 -8t-27 6q-13 7 -19.5 19t-9.5 26.5t-4.5 29t-5.5 27.5q9 6 11.5 15.5t4.5 19.5t4 19.5 t8 17.5q4 11 3 27t-14 22q-18 -2 -37.5 -2.5t-39.5 -2t-38.5 -6.5t-33.5 -17q1 -22 2.5 -45.5t-1 -46t-11.5 -42t-29 -34.5q-14 -3 -25.5 -0.5t-24.5 8.5q-10 9 -13 20t-3 23.5t2.5 25.5t3.5 25q8 15 16 32t18 32.5t22.5 28t31.5 18.5q14 -10 32.5 -6.5t34.5 8.5l100 2 q4 4 6.5 11t3.5 14t2 14.5t3 13.5q11 29 29 56.5t42 48.5t52.5 35t60.5 16q34 3 67 1t63 -18q0 -11 7 -16.5t14.5 -10t14 -10t8.5 -16.5q8 -15 10 -32.5t0 -35.5t-6.5 -36.5t-8.5 -34.5q46 0 91 8t88 16zM1065 -111q-8 -6 -16.5 -3t-16 7.5t-16 7.5t-18.5 -3 q-14 -9 -20.5 -22t-11 -26.5t-9 -26.5t-14.5 -24q-4 -28 -12 -54t-10 -52q-6 -3 -12.5 -7t-16.5 -1q-6 7 -6 17t1.5 19.5t4 19t2.5 17.5q8 9 11 21t3.5 24t1.5 23.5t8 21.5q-3 6 -3.5 13t-0.5 14v13.5t-1 11.5q-5 1 -8.5 -0.5t-7 -3.5t-7.5 -2.5t-8 4.5q4 12 11.5 20 t19.5 16q17 0 23.5 -12t12.5 -24q8 3 15.5 12t16 16t17 9t18.5 -9zM799 -18q-4 -51 -4.5 -103t-2 -103.5t-6.5 -101.5t-19 -97t-39 -90t-66 -81q-67 -40 -146 -49.5t-152 10.5q-8 5 -15.5 12.5t-6.5 16.5q5 20 14 40.5t34 28.5q-7 -17 -15.5 -33t-12.5 -34q25 -17 58 -23 t68.5 -3.5t69.5 12t61 24.5q30 10 48 28.5t30 41t21 47t21 45.5q8 36 13.5 75.5t9 79t4.5 76.5t2 68q4 11 4.5 23.5t-0.5 25.5t-1.5 25.5t2.5 23.5q-3 11 -12 7.5t-12 -5.5q-8 -8 -13.5 -17t-10.5 -18t-11 -17.5t-14 -14.5q2 -15 -5.5 -24t-16.5 -16.5t-17.5 -15.5t-9.5 -22 q-44 -47 -82.5 -95t-75.5 -98q-8 -12 -15.5 -24t-23.5 -10q-9 13 -9 28.5t2.5 31t5 32t0.5 32.5q6 17 11 35.5t11.5 37t15.5 36.5t23 35q22 50 58 97.5t87 78.5q14 4 26 2t23.5 -7.5t22 -13t20.5 -14.5q10 11 16.5 24t10.5 25q24 -9 22 -41q-6 -5 -6 -8.5t2 -7.5t3 -8.5 t0 -9.5zM1482 428q-36 -5 -71.5 -16t-70.5 -21t-70 -16.5t-72 -3.5q-7 -6 -11.5 -23t-3 -33.5t9.5 -26.5t27 -3q3 4 5.5 10t5 13t6.5 12.5t10 7.5q8 -19 0.5 -36.5t-20.5 -31.5q-6 -4 -21.5 -4.5t-29 8.5t-22 31.5t-0.5 64.5q-4 7 -9 13.5t0 15.5q13 9 19 20t8.5 23t4.5 25 l4 26q-3 2 -3.5 4.5t-3.5 4.5q-19 -12 -31.5 -27.5t-24 -32t-23 -33.5t-26.5 -32q-1 -15 -10 -26.5t-18.5 -22.5t-16.5 -23.5t-5 -28.5q-6 -6 -7.5 -15.5t-3 -19.5t-6.5 -17.5t-19 -8.5q-18 4 -23.5 15t-5 24.5t3 28t1.5 26.5q-2 19 0.5 36.5t5.5 34.5t5.5 33.5t0.5 34.5 q-10 -5 -15 -13t-9.5 -16.5t-9.5 -17.5t-13 -16q-10 -12 -19.5 -28.5t-21.5 -30.5t-27 -22t-36 -3q-11 17 -11 35.5t6.5 38t17.5 38t22 35.5q9 10 20 23.5t23 24t26 15.5t30 -1q10 -5 20 0q21 43 33.5 90.5t17.5 93.5l22 16q12 -4 14 -10.5t-1.5 -14t-7.5 -16t-2 -16.5 q-11 -57 -25 -113t-22 -112q-2 -15 -5.5 -30t-6 -29.5t-3.5 -29.5t4 -30q17 21 33 45t33 49t36.5 49t42.5 45q14 17 31.5 33t37.5 29q15 -13 29 -29.5t28 -27.5q0 -19 -4 -41.5t0 -40.5q57 12 107 20.5t104 24.5q8 -5 11.5 -10.5t0.5 -16.5zM2205 1190q-1 29 -7 60t-19.5 59 t-34 51t-50.5 37q13 18 26.5 16.5t25 -12t21.5 -25.5t17 -24q30 -39 41.5 -85.5t9.5 -95.5t-15.5 -98t-34.5 -94q-17 -35 -39.5 -68t-51 -62t-62.5 -52.5t-71 -38.5q29 20 56 43.5t47 54.5q16 16 33 34t32 38t26 43t16 49q27 40 31.5 83.5t2.5 86.5zM2010 983 q-7 -15 -20 -30.5t-32 -20.5q-15 5 -22.5 13.5t-16.5 21.5l6 28q5 -2 6.5 -6t2.5 -9t3 -10t9 -7q10 -4 19 6t14 16q11 47 6.5 92.5t-26.5 85.5l-13 -6q-26 -23 -48.5 -42t-38.5 -50l-17 -8q-29 -28 -51 -60t-49 -55q-12 -2 -17.5 3.5t-7.5 13.5t-2.5 17.5t-4.5 16.5 q4 8 3 18.5t-7 16.5q-6 1 -9 -1.5t-4.5 -6t-3.5 -7.5t-5 -5q-15 -16 -30 -23.5t-36 -9.5q-23 6 -28 18t-2 28t10 34t7 35q10 30 29.5 53.5t43.5 48.5q11 2 22.5 6.5t23 6t22 -1.5t18.5 -15l7 -12q-13 -35 -18 -73t-12 -75q1 -6 4 -13t11 -7q12 0 18 5.5t11 13t9 16t12 14.5 q47 38 88 78.5t80 81.5q13 -5 17 -16t4.5 -24t1 -25.5t5.5 -21.5q10 -5 5 -16q14 -31 12 -64t-9 -67zM1754 1384q-6 -11 -20 -20.5t-30 -7.5q-3 6 -7.5 13.5t-16.5 -1.5q-30 -23 -60.5 -47.5t-57.5 -51.5t-48.5 -57.5t-35.5 -64.5q-9 -42 -15 -86.5t-2.5 -87.5t18.5 -80.5 t49 -65.5q9 -8 20 -10.5t23 -2.5t25 1t25 0q12 8 22 17.5t23 17.5q0 -9 -4.5 -15.5t-11.5 -11.5t-15.5 -9.5t-14.5 -10.5q-31 -13 -66.5 -5t-58.5 29q-21 20 -34 43.5t-16 51.5q-10 4 -10 9.5t3 12t4 12.5t-6 11q4 7 2.5 14t-4 14.5t-3 15.5t4.5 17q2 61 24.5 114t58 98.5 t80 85.5t91.5 75q7 1 18 3.5t21 2.5t17 -4.5t8 -18.5zM1361 1020q-8 -17 -21 -32.5t-28.5 -27.5t-34 -19t-37.5 -7q-40 0 -75.5 15.5t-51.5 49.5q-15 23 -13.5 49t8.5 54q2 9 6.5 16.5t10 14t9.5 14t6 16.5q29 23 63 30t69 -5q7 -6 15 -9t6 -16q-3 -4 -6.5 -3t-7.5 3.5 t-8.5 5t-9.5 2.5q-28 8 -55 -1.5t-49 -30.5q-17 -25 -27 -54.5t0 -58.5q41 -60 107 -70q9 4 19.5 5.5l21 3t20.5 6t18 14.5q6 4 10.5 11.5t9.5 14t10.5 10t14.5 -0.5zM1043 963q-13 -25 -22 -50.5t-29 -48.5q-14 -6 -25 1t-17 20q-13 35 -16 75t5 78q-3 2 -1 17t4.5 33.5 t3.5 36t-5 26.5q-14 -31 -17 -63.5t-5.5 -64t-11.5 -62t-35 -56.5q-3 -3 -14.5 -6t-24.5 2.5t-24.5 23.5t-15.5 58q8 38 12.5 74t11.5 73q2 7 0.5 14.5t-2.5 15t0 15t10 13.5q6 3 13.5 0.5t11.5 -8.5q0 -32 -5 -65.5t-9 -65t-4.5 -59.5t10.5 -48q13 -10 20.5 -4t11.5 18 t6.5 25t7.5 18q5 21 7 43t3.5 43.5t5 43t10.5 42.5q5 6 9.5 15.5t10 17t12.5 10t19 -5.5q11 -40 10 -78.5t-4.5 -76.5t-5.5 -77t9 -79q2 -6 9 -8t13 6q1 1 5 11.5t10 23t14.5 23t17.5 10.5zM721 901q-4 -3 -8.5 -7t-20.5 -8.5t-49.5 -9.5t-94.5 -10q-70 -6 -133.5 -17.5 t-128.5 -33.5q-7 -11 -14.5 -14t-15 -2t-15 5t-13.5 7q-2 9 3 15t11.5 11t12.5 10t8 13q13 25 24 49.5t21 48.5q-3 13 5.5 27t15.5 27q50 103 96.5 208.5t77.5 217.5q-2 12 -1 23.5t10 19.5q6 2 10 0.5t6.5 -5t4.5 -7.5t5 -7q-19 -79 -49.5 -153.5t-65.5 -147t-69 -146 t-58 -151.5l4 -4q77 13 150.5 27t154.5 16q24 -5 54.5 -4t56.5 10zM1391 -315q6 13 7.5 27.5t-1 29t-8.5 28t-12 25.5q-11 -12 -14.5 -26.5t-5.5 -28.5q0 -9 1.5 -18t5.5 -16.5t10 -13.5t17 -7zM1124 -188q-6 -23 -10 -48t3 -47q6 -6 16.5 -5.5t20 7t14.5 18t-1 27.5 q2 9 5.5 23t3.5 27t-4.5 23.5t-16.5 12.5zM725 -12q-2 11 -10 17.5t-18.5 8.5t-22.5 1t-21 -5q-22 -18 -45 -38.5t-42 -43.5q-11 -32 -27 -62t-30 -60.5t-22.5 -62.5t-6.5 -67q6 -2 7.5 2t4.5 7q30 37 63.5 72t65.5 71.5t59.5 75.5t44.5 84zM1213 426q3 5 6 13t4.5 15.5 t-1 13t-10.5 7.5l-13 -59q11 2 11 4.5t3 5.5zM934 471q-14 3 -27 -6.5t-22 -22.5q-12 -14 -23 -29.5t-19 -32t-11 -33.5t3 -34q11 -5 15.5 1.5t8.5 13.5q22 23 41.5 47t34.5 55zM1722 1178q-4 4 -7 2.5t-5.5 -4t-5.5 -5t-6 -0.5q-24 -11 -40 -29.5t-26 -40.5t-14 -46t-5 -47 q7 -2 13 1t12 7t12 6.5t13 1.5q6 14 19 29t23.5 31.5t13.5 33t-10 33.5q6 0 8.5 3t4 7.5t1 9t-0.5 7.5z" />
<glyph horiz-adv-x="868" d="M895 1482l-249 129l-286 -129l-43 100l343 174l294 -170z" />
<glyph horiz-adv-x="995" d="M1086 1656q-44 -73 -103 -112t-130 -39q-51 0 -85.5 16.5t-63 36.5t-54 36.5t-57.5 16.5q-19 0 -36 -5.5t-33 -17t-31.5 -28.5t-30.5 -40l-90 68q42 72 100.5 111t130.5 39q51 0 86 -16.5t63 -36.5t53.5 -36.5t57.5 -16.5q35 0 67.5 23t63.5 68l92 -67v0z" />
<glyph horiz-adv-x="817" d="M905 1745q-10 -50 -34 -95t-63 -80t-93 -55.5t-123 -20.5q-67 0 -111.5 21t-70 56t-32 80t2.5 94h114q-6 -26 -0.5 -49t20 -40t39 -27.5t59.5 -10.5q33 0 61 9t49.5 25.5t35.5 40t20 52.5h126v0z" />
<glyph horiz-adv-x="594" d="M681 1607q0 -25 -9.5 -47t-25.5 -37.5t-37.5 -24.5t-44.5 -9t-42.5 8.5t-33.5 23t-22 33.5t-8 40q0 25 9.5 46.5t25.5 37t37 24.5t44 9t42.5 -8.5t34 -22.5t22.5 -33t8 -40z" />
<glyph horiz-adv-x="797" d="M801 1586q0 -48 -19.5 -88.5t-50.5 -70.5t-72 -47t-84 -17q-44 0 -80.5 15t-63.5 41t-43 62t-16 78q0 50 19 91t50.5 70.5t72.5 45.5t85 16q43 0 80 -15t64 -41.5t42.5 -62.5t15.5 -77zM692 1580q0 20 -7 39t-20 33t-31.5 22.5t-40.5 8.5q-23 0 -43 -9t-35.5 -25 t-25 -37.5t-9.5 -45.5q0 -21 7.5 -39.5t21 -32.5t32 -22.5t40.5 -8.5t42 8.5t35.5 25t24.5 37.5t9 46z" />
<glyph horiz-adv-x="862" d="M1021 1548l-257 -306l-100 65l229 321z" />
<glyph horiz-adv-x="618" d="M748 1345q0 -25 -9 -46t-24.5 -36.5t-36 -24t-44.5 -8.5q-23 0 -42.5 8.5t-33.5 23t-22 34t-8 41.5q0 24 9 44.5t24.5 36t36.5 24.5t44 9t42.5 -8.5t33.5 -23.5t22 -34t8 -40zM386 1345q0 -25 -9 -46t-24.5 -36.5t-36.5 -24t-44 -8.5t-42.5 8.5t-33.5 23t-22.5 34 t-8.5 40.5q0 25 9.5 45.5t25 36t36 24.5t43.5 9t42.5 -8.5t34 -23.5t22.5 -34t8 -40z" />
<glyph horiz-adv-x="1415" d="M1388 900q0 -132 -28 -251.5t-79.5 -221.5t-124 -184.5t-161 -141t-190 -90t-210.5 -31.5q-125 0 -218 34.5t-154.5 98.5t-92 157.5t-30.5 211.5q0 126 27 243t77.5 219t121.5 186.5t158.5 145t190 93.5t216.5 33q121 0 213.5 -33.5t155.5 -97.5t95.5 -158t32.5 -213z M1246 -373q-89 -13 -159 -10t-129.5 13.5t-113 25t-107.5 26t-114 16t-132 -5.5l30 161q83 11 149 7t122.5 -15t109.5 -25t109 -25t120.5 -14.5t145.5 7.5zM1189 878q0 83 -20 149t-60.5 113t-102 72t-145.5 25q-82 0 -155.5 -26.5t-136 -74.5t-112.5 -115.5t-85 -148 t-53.5 -172.5t-18.5 -189q0 -84 20.5 -151.5t61 -114.5t100 -72t138.5 -25t151.5 25.5t135.5 72.5t115 113.5t89 147.5t57.5 175t20.5 196z" />
</font>
</defs>
</svg>
