<?xml version="1.0" standalone="no"?>
<!DOCTYPE svg PUBLIC "-//W3C//DTD SVG 1.1//EN" "http://www.w3.org/Graphics/SVG/1.1/DTD/svg11.dtd" >
<svg xmlns="http://www.w3.org/2000/svg">
<metadata>
Copyright   : Copyright 2014 Luc(as) de Groot. All rights reserved. Published by LucasFonts.com
Designer    : Luc(as) de Groot
Foundry     : LucasFonts
Foundry URL : http://lucasfonts.com
</metadata>
<defs>
<font id="TheSerif_300i" horiz-adv-x="1126" >
<font-face units-per-em="2048" ascent="1516" descent="-532" />
<missing-glyph horiz-adv-x="446" />
<glyph unicode="fi" horiz-adv-x="1190" d="M109 1018h217l10 55q39 216 165.5 324t350.5 108q37 0 73 -2.5t69.5 -7.5t64 -12t59.5 -15l-45 -110q-25 9 -55 16.5t-61.5 13t-61.5 8.5t-55 3q-81 0 -144.5 -20t-110 -59.5t-76 -96.5t-44.5 -131l-12 -74h616l-172 -914q37 -6 82 -11.5t86 -8.5l-12 -70 q-32 -4 -70.5 -7t-79.5 -5t-80.5 -2.5t-72.5 0.5l174 915h-492l-188 -976q-25 -126 -65 -215t-96 -144.5t-129 -81.5t-165 -26q-45 0 -91 4.5t-87 13.5l33 113q39 -12 81.5 -17.5t81.5 -5.5q64 0 112.5 18.5t86 59t65 108t46.5 166.5l188 983h-217z" />
<glyph unicode="fl" horiz-adv-x="1192" d="M895 104q36 -6 82 -11.5t88 -8.5l-14 -70q-31 -4 -69.5 -7t-79.5 -5t-81 -2.5t-73 0.5l264 1384q-48 9 -94 13t-93 4q-156 0 -240 -64t-112 -207l-20 -112h286l-22 -103h-285l-188 -976q-25 -126 -65 -215t-96 -144.5t-129 -81.5t-165 -26q-45 0 -91 4.5t-87 13.5l33 113 q39 -12 81.5 -17.5t81.5 -5.5q64 0 112.5 18.5t86 59t65 108t46.5 166.5l188 983h-217l21 103h217l22 115q18 91 56.5 160.5t98.5 116.5t143 71t188 24q82 0 161.5 -7t159.5 -19z" />
<glyph unicode="fb" horiz-adv-x="1747" d="M1671 733q0 -94 -16 -184.5t-49.5 -174t-84.5 -154t-121.5 -122.5t-161 -81t-198.5 -29q-79 0 -150 7.5t-140 20.5l262 1368q-47 9 -93.5 13t-93.5 4q-154 0 -238.5 -64.5t-113.5 -206.5l-20 -112h286l-22 -103h-285l-188 -976q-25 -126 -65 -215t-96 -144.5t-129 -81.5 t-165 -26q-45 0 -91 4.5t-87 13.5l33 113q39 -12 81.5 -17.5t81.5 -5.5q64 0 112.5 18.5t86 59t65 108t46.5 166.5l190 983h-221l23 103h217l22 115q18 91 56.5 160.5t98.5 116.5t143 71t188 24q83 0 163 -7t158 -19l-98 -523q-6 -27 -13 -56t-19.5 -74.5t-33 -114 t-49.5 -164.5l4 -2q42 104 94 192.5t116 156t138 105t156 37.5q109 0 165 -73.5t56 -229.5zM1538 711q0 57 -8.5 98.5t-24.5 67.5t-38 38.5t-50 12.5q-55 0 -110.5 -34t-107.5 -92.5t-98 -133t-83.5 -155.5t-64.5 -159.5t-40 -144.5l-18 -98q38 -12 78 -17.5t90 -5.5 q84 0 153.5 25.5t122.5 71.5t90.5 107t61.5 130.5t35.5 142.5t11.5 146z" />
<glyph unicode="fh" horiz-adv-x="1835" d="M1542 104q18 -3 38 -6t42 -5.5l44 -5t44 -3.5l-14 -70q-32 -4 -69 -7t-77 -5t-79.5 -2.5t-73.5 0.5l127 659q26 138 -0.5 203.5t-108.5 65.5q-54 0 -109.5 -33.5t-107.5 -92t-98 -133t-83.5 -156t-64 -160.5t-39.5 -146l-39 -207h-126l264 1384q-48 9 -94 13t-93 4 q-156 0 -240 -64t-112 -207l-20 -112h286l-22 -103h-285l-188 -976q-25 -126 -65 -215t-96 -144.5t-129 -81.5t-165 -26q-45 0 -91 4.5t-87 13.5l33 113q39 -12 81.5 -17.5t81.5 -5.5q64 0 112 18.5t85 59t65 108t48 166.5l188 983h-219l23 103h217l22 115q18 91 56.5 160.5 t98.5 116.5t143 71t188 24q82 0 162.5 -7t158.5 -19l-94 -496q-5 -29 -12.5 -63t-20.5 -82.5t-33.5 -117.5t-50.5 -163l4 -2q39 96 90 181.5t114.5 153t138.5 107t157 39.5q68 0 115 -23.5t73 -68.5t30.5 -110t-11.5 -148z" />
<glyph unicode="fj" horiz-adv-x="1169" d="M1069 1360q-25 9 -54.5 16t-60 12.5t-60 8t-54.5 2.5q-81 0 -144.5 -20t-110 -59.5t-76 -96.5t-44.5 -131l-12 -74h618l-221 -1159q-19 -98 -48 -166.5t-73 -114t-108 -68t-152 -22.5q-34 0 -67.5 4t-59.5 10l25 117q29 -10 61.5 -16t58.5 -6q59 0 97.5 15.5t65 50t45 92 t36.5 149.5l195 1011h-494l-188 -976q-25 -126 -65 -215t-96 -144.5t-129 -81.5t-165 -26q-45 0 -91 4.5t-87 13.5l33 113q39 -12 81.5 -17.5t81.5 -5.5q64 0 112.5 18.5t86 59t65 108t46.5 166.5l188 983h-217l21 103h219l8 51q32 216 161.5 326t354.5 110q37 0 73 -2.5 t69.5 -7.5t64 -12t59.5 -15z" />
<glyph unicode="fk" horiz-adv-x="1686" d="M1612 825q0 -61 -27 -114.5t-83.5 -99t-145 -81t-209.5 -59.5l213 -371q42 -4 84.5 -11.5t79.5 -16.5l-13 -72h-256l-280 520l-101 -520h-126l264 1384q-47 9 -93.5 13t-93.5 4q-156 0 -240 -64t-112 -207l-20 -112h286l-22 -103h-285l-188 -976q-25 -126 -65 -215 t-96 -144.5t-129 -81.5t-165 -26q-45 0 -91 4.5t-87 13.5l33 113q39 -12 81.5 -17.5t81.5 -5.5q64 0 112 18.5t85 59t65 108t48 166.5l188 983h-219l23 103h217l22 115q18 91 56.5 160.5t98.5 116.5t143 71t188 24q82 0 162.5 -7t158.5 -19l-49 -262q-10 -56 -22.5 -111.5 t-27.5 -112t-33.5 -116.5t-41.5 -129l4 -3q29 67 66 119.5t83.5 90.5t103 58.5t122.5 20.5q56 0 102.5 -15t80 -43t51.5 -66.5t18 -84.5zM1475 799q0 27 -9.5 50.5t-27.5 42t-44 28.5t-57 10q-45 0 -87 -18.5t-78.5 -51t-67 -73t-54.5 -84t-41 -85.5t-26 -77q132 21 225 46 t152 56t87 69.5t28 86.5z" />
<glyph unicode=" "  horiz-adv-x="446" />
<glyph unicode="&#x09;" horiz-adv-x="446" />
<glyph unicode="&#xa0;" horiz-adv-x="446" />
<glyph unicode="!" horiz-adv-x="639" d="M351 316h-102l188 1117h150zM353 83q0 -20 -7.5 -38t-20.5 -31.5t-31 -21t-38 -7.5t-37.5 7.5t-30.5 20.5t-20 30.5t-7 36.5q0 21 7.5 39t20.5 31t31 21t38 8t37.5 -7.5t30.5 -21t20 -31t7 -36.5z" />
<glyph unicode="&#x22;" horiz-adv-x="678" d="M540 992h-91l57 435h143zM236 992h-91l57 435h143z" />
<glyph unicode="#" horiz-adv-x="1327" d="M911 412l-77 -412h-105l76 412h-327l-77 -412h-106l77 412h-315l18 90h314l82 431h-314l17 89h315l68 360h106l-68 -360h327l69 360h106l-69 -360h314l-17 -89h-315l-82 -431h315l-17 -90h-315zM904 933h-327l-82 -431h327z" />
<glyph unicode="$" horiz-adv-x="979" d="M371 157q70 0 130.5 16t107 49t72.5 85t26 122q0 59 -32.5 99.5t-75.5 64.5t-126.5 63t-133.5 72.5t-83 86t-33 128.5q0 77 29.5 144t83.5 118.5t127 84t158 41.5l48 242h100l-44 -237q61 -1 114.5 -8t98.5 -19l-57 -286h-80q2 67 4 110.5t6 79.5q-30 7 -64 11t-67 4 q-86 0 -149 -21t-101 -56t-55.5 -78t-17.5 -88q0 -57 33 -97.5t76.5 -65t128 -64.5t135 -74t84 -86.5t33.5 -126.5q0 -78 -29 -148t-83.5 -126.5t-132.5 -94t-173 -51.5l-55 -277h-100l53 272q-38 0 -70.5 2t-63 6t-58.5 11t-56 16l57 293h81q0 -50 -2 -96.5t-6 -97.5 q40 -10 83.5 -16.5t78.5 -6.5z" />
<glyph unicode="%" horiz-adv-x="1491" d="M761 1177q0 -79 -28.5 -156t-80.5 -138.5t-125 -100t-162 -38.5q-51 0 -96 12t-77.5 38.5t-51 68.5t-18.5 102q0 51 12 102.5t35 100.5t57.5 91.5t77.5 74.5t95 50.5t112 18.5q54 0 99.5 -13t79 -40.5t52.5 -70t19 -102.5zM390 840q62 0 108 28.5t76.5 75t45.5 104.5 t15 117q0 67 -41 104t-110 37q-58 0 -102.5 -31.5t-74 -80t-45 -106.5t-15.5 -110q0 -67 36 -102.5t107 -35.5zM1365 412q0 -78 -28.5 -155.5t-80.5 -139t-125 -99.5t-162 -38q-52 0 -96 12t-77 38.5t-51.5 68.5t-18.5 102q0 50 12 102t35.5 100.5t57.5 91.5t77 75t95.5 50 t112.5 18q54 0 99.5 -12.5t79 -40t52 -70t18.5 -103.5zM994 77q62 0 108.5 28.5t76.5 74.5t45.5 104t15.5 117q0 67 -41 104t-110 37q-60 0 -104 -31.5t-74 -80.5t-45 -106.5t-15 -109.5q0 -67 36.5 -102t106.5 -35zM175 -43l-78 64l1210 1404l78 -64z" />
<glyph unicode="&#x26;" horiz-adv-x="1634" d="M1605 938q-40 -10 -84.5 -17t-87.5 -10q-17 -99 -46 -190.5t-67.5 -172t-84.5 -148.5t-98 -122q54 -52 102.5 -96.5t91.5 -81.5q22 -2 43 -5t41 -7t38.5 -8.5t35.5 -9.5l-16 -70h-225q-48 43 -93 86t-111 107q-129 -106 -276.5 -158t-304.5 -52q-93 0 -164 25t-117.5 69 t-69 100.5t-22.5 119.5q0 93 31.5 171.5t85 142.5t118 117t153.5 115q-64 102 -96.5 179t-32.5 144q0 68 26.5 129.5t76.5 108.5t119 73.5t151 26.5q68 0 119 -17t83.5 -47.5t48.5 -71.5t16 -89q0 -66 -24 -123.5t-68.5 -109.5t-104.5 -101.5t-149 -113.5 q40 -57 88.5 -118.5t102.5 -123.5t111 -122.5t116 -117.5q45 47 84 107.5t71 132.5t53.5 154t31.5 169q-41 2 -82.5 9t-78.5 17l13 72h467zM858 1260q0 66 -38 103.5t-112 37.5q-53 0 -95.5 -16.5t-72 -47t-45 -70.5t-15.5 -87q0 -52 27 -115t80 -150q72 50 121 90 t82.5 79.5t50.5 82.5t17 93zM967 264q-57 58 -113.5 118t-112 123.5t-107.5 127.5t-95 125q-73 -52 -125.5 -95.5t-95.5 -93.5t-67.5 -108.5t-24.5 -124.5q0 -48 15 -91.5t47.5 -78t84 -54t120.5 -19.5q123 0 244 41t230 130z" />
<glyph unicode="'" horiz-adv-x="373" d="M236 992h-91l57 435h143z" />
<glyph unicode="(" horiz-adv-x="604" d="M747 1543q-64 -78 -123.5 -170.5t-113 -194.5t-97.5 -212t-76 -224.5t-50 -231t-18 -232.5q0 -89 6 -174t20 -166t36 -158t53 -150l-100 -49q-38 88 -64 173t-43 169t-24 169t-7 174q0 175 36.5 350.5t103.5 344.5t163 328.5t214 304.5l84 -51v0z" />
<glyph unicode=")" horiz-adv-x="604" d="M503 909q0 -173 -36 -348.5t-104 -345t-163.5 -329.5t-214.5 -305l-84 51q64 79 124 171.5t113.5 195t97.5 213t75.5 225t49 231t17.5 229.5q0 92 -6 176.5t-19.5 165t-35.5 157.5t-53 149l100 49q37 -88 63.5 -172.5t43 -168t24.5 -168.5t8 -176z" />
<glyph unicode="*" horiz-adv-x="735" d="M557 1202l188 -109l-60 -86l-172 138l-31 -240l-102 16l59 219l-197 -126l-43 93l226 96l-188 109l59 82l170 -134l32 240l102 -15l-62 -222l204 127l43 -92z" />
<glyph unicode="+" d="M1043 555h-412l-83 -433h-122l82 433h-410l22 109h410l83 431h121l-82 -431h413z" />
<glyph unicode="," horiz-adv-x="418" d="M123 181q31 0 54.5 -17.5t32.5 -49.5t2 -76t-36 -96t-82 -110t-136 -118l-49 58q57 48 91 89.5t48.5 76.5t14 64t-13.5 52q-11 22 -10 44.5t11.5 40.5t29 30t43.5 12z" />
<glyph unicode="-" horiz-adv-x="655" d="M562 548h-458l21 108h459z" />
<glyph unicode="&#xad;" horiz-adv-x="655" d="M562 548h-458l21 108h459z" />
<glyph unicode="." horiz-adv-x="418" d="M223 88q0 -22 -7.5 -41t-21 -33t-31.5 -21.5t-39 -7.5q-19 0 -36.5 7.5t-30.5 20.5t-20 30t-7 36q0 22 7.5 41t21 33t32 21.5t38.5 7.5t37 -7.5t30 -20.5t20 -30t7 -36z" />
<glyph unicode="/" horiz-adv-x="844" d="M-16 -330h-123l1062 1880h123z" />
<glyph unicode="0" horiz-adv-x="1239" d="M1140 683q0 -102 -23.5 -193.5t-66.5 -169t-102.5 -140.5t-131 -106.5t-153 -67t-167.5 -23.5q-97 0 -170.5 25.5t-123 74.5t-74.5 119.5t-25 161.5q0 103 22 196.5t63 173.5t99 144t128 110t151.5 70t170.5 24q98 0 173 -28.5t126 -81.5t77.5 -126.5t26.5 -162.5z M1009 661q0 69 -18 126.5t-54 99t-92 64.5t-134 23q-104 0 -191.5 -47.5t-151 -127.5t-99 -185t-35.5 -219q0 -67 17 -122.5t53 -96t90.5 -63t129.5 -22.5q95 0 182.5 45t155 123t107.5 181.5t40 220.5z" />
<glyph unicode="1" horiz-adv-x="720" d="M550 0h-546l12 73q56 11 116.5 19t117.5 10l162 839l-268 -108v117l313 117h108l-182 -965q21 -2 44 -4.5t45.5 -6t45 -8t44.5 -10.5z" />
<glyph unicode="2" horiz-adv-x="969" d="M858 820q0 -69 -22 -130t-64.5 -119t-105.5 -115.5t-145 -117.5l-299 -224v-3q27 1 85 2.5t133.5 2.5t163.5 1.5t176 0.5l-23 -118h-736l17 103l366 276q86 66 146.5 119t98 102t54.5 96t17 101q0 31 -9.5 63t-32.5 57.5t-60.5 42t-93.5 16.5q-50 0 -99.5 -9.5 t-92.5 -25.5q-14 -46 -28.5 -92.5t-35.5 -96.5h-74l52 272q34 13 71.5 24t76 18.5t78.5 11.5t79 4q76 0 134 -21t96 -56.5t57.5 -83t19.5 -101.5z" />
<glyph unicode="3" horiz-adv-x="932" d="M825 820q0 -77 -25.5 -143t-71 -120t-107 -96.5t-135.5 -72.5v-2q47 -5 89.5 -26t74 -56t50.5 -82.5t19 -105.5q0 -112 -47.5 -207.5t-131 -165.5t-197 -110t-243.5 -40q-49 0 -86 4t-75 15l26 123q34 -13 75 -20t82 -7q100 0 183.5 28t144.5 79.5t95 123t34 157.5 q0 69 -30.5 116t-88 72.5t-139 32t-184.5 -3.5l18 104q117 0 215.5 28t169 78.5t109.5 121.5t39 156q0 84 -49.5 129t-150.5 45q-47 0 -89.5 -8.5t-81.5 -23.5q-12 -47 -28.5 -94.5t-34.5 -94.5h-74l53 274q70 29 139.5 41.5t139.5 12.5q82 0 141.5 -20t97.5 -55t56 -82.5 t18 -104.5z" />
<glyph unicode="4" horiz-adv-x="1078" d="M643 -296q45 -3 88.5 -10.5t79.5 -18.5l-13 -68h-474l13 68q42 11 88 18.5t92 10.5l56 296h-622v108l769 957h55h127l-179 -947h248l-24 -118h-248zM749 939l-665 -825q34 1 79.5 1.5t95 1t100.5 1t96.5 0.5h82.5h59l155 821h-3z" />
<glyph unicode="5" horiz-adv-x="944" d="M860 938h-478l-84 -418q103 -6 186 -37.5t141 -82.5t89.5 -120t31.5 -152q0 -85 -25.5 -158t-70.5 -132.5t-107 -105t-133.5 -76.5t-150 -47t-158.5 -16q-36 0 -69 2.5t-68 7.5l26 123q27 -6 61.5 -11t67.5 -5q100 0 189 26.5t155.5 76.5t104.5 122.5t38 165.5 q0 59 -23.5 114.5t-77 98t-140 68.5t-211.5 26l129 657h602z" />
<glyph unicode="6" horiz-adv-x="1169" d="M1076 1334q-24 3 -45.5 4.5t-46.5 1.5q-117 0 -215 -39.5t-177 -112t-139.5 -173t-102.5 -221.5q-6 -18 -15.5 -39.5t-20.5 -54.5v-2q30 47 72.5 85t93 64t107 40t116.5 14q94 0 160.5 -29t109 -75t62 -105.5t19.5 -121.5q0 -90 -21.5 -168.5t-60 -144t-90.5 -116 t-114.5 -86t-132 -54t-140.5 -18.5q-97 0 -164 30t-109.5 83t-61 125t-18.5 156q0 71 10.5 154.5t34 172t60 178.5t88 172.5t119 154.5t153 125t188.5 83.5t226 30.5q14 0 38 -1t39 -3zM914 550q0 48 -15 91.5t-45 76.5t-76 52.5t-108 19.5q-78 0 -149.5 -35t-125.5 -93.5 t-85.5 -136.5t-31.5 -165q0 -24 3.5 -53.5t12.5 -59.5t25.5 -58.5t42 -50.5t61.5 -35.5t84 -13.5q87 0 161 32.5t128.5 92t86 145t31.5 191.5z" />
<glyph unicode="7" horiz-adv-x="925" d="M965 1065l-22 -112q-98 -148 -191.5 -306.5t-182 -327t-170.5 -347t-156 -365.5h-155q84 195 172 376t177 349t179 321.5t181 292.5q-12 -1 -50 -2t-91.5 -1.5t-115.5 -1t-119.5 -0.5h-104.5h-71q-12 -47 -30 -99.5t-35 -94.5h-82l62 318h805z" />
<glyph unicode="8" horiz-adv-x="1097" d="M1055 1177q0 -77 -29.5 -139t-79 -114t-115.5 -96t-138 -85q47 -31 91.5 -68t77.5 -81t53.5 -95.5t20.5 -112.5q0 -91 -39 -165.5t-106 -127.5t-155.5 -81.5t-188.5 -28.5q-97 0 -164.5 20t-110.5 57.5t-63 89.5t-20 118q0 86 33 155t87 125t124.5 102t143.5 87 q-44 30 -83.5 64.5t-70 75t-48.5 89t-18 107.5q0 81 34.5 151t96 120t146 79t184.5 29q83 0 146.5 -19.5t105.5 -55t63.5 -86.5t21.5 -114zM922 1152q0 40 -13.5 75.5t-41 62t-69.5 42t-100 15.5q-71 0 -128 -22t-96 -58.5t-60 -84t-21 -98.5q0 -45 16.5 -82.5t45 -71 t66.5 -64t80 -59.5q64 35 122.5 72t103 79t70 89.5t25.5 104.5zM800 357q0 55 -19 99.5t-50.5 82.5t-73.5 71t-88 64q-68 -36 -129.5 -77t-108.5 -88.5t-75.5 -104t-28.5 -124.5q0 -34 12.5 -68t42 -61.5t76.5 -44t116 -16.5q64 0 123 21t104 57t72 85t27 104z" />
<glyph unicode="9" horiz-adv-x="1169" d="M1028 687q0 -69 -10.5 -152.5t-33 -173t-59 -181.5t-88 -176.5t-120 -159.5t-155.5 -130t-194.5 -87t-235.5 -32q-11 0 -25 0.5t-29.5 1.5t-30.5 3t-28 4l23 120q14 -3 29 -5.5t30 -4t30 -2t30 -0.5q119 0 216.5 36t177 103.5t141.5 164t111 218.5q6 17 11.5 31 t10.5 27.5t10 26.5t11 27v2q-35 -47 -79 -82t-94 -58t-105 -34.5t-111 -11.5q-89 0 -153.5 25.5t-107 69.5t-63 104.5t-20.5 130.5q0 115 39 221.5t110 188.5t171 131t222 49q99 0 168.5 -28.5t114.5 -80t65.5 -124.5t20.5 -162zM891 704q0 57 -15.5 106.5t-47 86t-79 58 t-110.5 21.5q-82 0 -152 -38t-121 -102.5t-80 -149.5t-29 -177q0 -51 16 -93t46 -72.5t73 -47t96 -16.5q79 0 152.5 27.5t129 81t88.5 133t33 182.5z" />
<glyph unicode=":" horiz-adv-x="563" d="M443 697q0 -20 -7.5 -38t-21 -32t-31.5 -21.5t-38 -7.5t-37.5 7.5t-30.5 21t-20.5 31t-7.5 37.5q0 21 7.5 39t21 32t31.5 21.5t38 7.5t37.5 -7.5t30.5 -21t20.5 -31.5t7.5 -38zM325 84q0 -20 -7.5 -38t-21 -32t-31 -21.5t-37.5 -7.5t-38 7.5t-31 21t-20.5 31t-7.5 37.5 q0 21 7.5 39t21 32t31.5 21.5t38 7.5t37.5 -7.5t30.5 -21t20.5 -31.5t7.5 -38z" />
<glyph unicode=";" horiz-adv-x="563" d="M443 697q0 -20 -7.5 -38.5t-20.5 -32t-31 -21t-39 -7.5q-20 0 -37.5 7.5t-30.5 21t-20.5 31.5t-7.5 37q0 21 7.5 39t20.5 31.5t31 21.5t39 8q20 0 37.5 -8t30.5 -21.5t20.5 -31t7.5 -37.5zM230 181q33 0 56 -17.5t32.5 -49.5t2 -76t-36.5 -96t-82.5 -110t-135.5 -118 l-50 58q57 48 91 89.5t49.5 76.5t14.5 64t-14 52q-10 22 -10 44.5t10.5 40.5t29 30t43.5 12z" />
<glyph unicode="&#x3c;" d="M347 623l475 -482l-92 -82l-549 574l737 554l74 -88z" />
<glyph unicode="=" d="M1049 714h-891l19 110h891zM987 395h-891l21 109h892z" />
<glyph unicode="&#x3e;" d="M252 59l-74 87l645 476l-476 482l92 83l550 -575z" />
<glyph unicode="?" horiz-adv-x="885" d="M851 1080q0 -62 -21 -111t-56 -90t-78.5 -77t-87.5 -72.5t-85.5 -76.5t-70.5 -89t-42.5 -109.5t-3.5 -138.5h-127q-11 82 2 148t41 119t68 96t83 80t85.5 72t76 71.5t54.5 77t21 91.5q0 47 -28 89t-77.5 75.5t-115.5 56t-143 33.5l39 119q106 -12 192.5 -46t147.5 -83 t93.5 -109t32.5 -126zM395 83q0 -20 -7.5 -38t-20.5 -31.5t-31 -21t-38 -7.5t-37.5 7.5t-30.5 20.5t-20 30.5t-7 36.5q0 21 7.5 39t20.5 31t31 21t38 8t37.5 -7.5t30.5 -21t20 -31t7 -36.5z" />
<glyph unicode="@" horiz-adv-x="1974" d="M1827 894q0 -92 -17.5 -174.5t-48.5 -152.5t-75 -126t-98 -95.5t-116.5 -60.5t-129.5 -21q-70 0 -114.5 21.5t-67.5 56t-26.5 77.5t10.5 86h-6q-13 -31 -46 -72.5t-78 -79t-99 -63.5t-109 -26q-46 0 -79 13.5t-54.5 40.5t-31.5 66t-10 89q0 60 12 128t37 135.5t64.5 129 t94.5 109t126.5 76t161.5 28.5q36 0 71 -1.5t67 -4.5t61 -7.5t53 -9.5l-129 -457q-16 -56 -15.5 -98t15 -70t43.5 -42t71 -14q75 0 138.5 38.5t109.5 107.5t72 163t26 206q0 95 -30 186t-97 161.5t-172.5 113.5t-257.5 43q-112 0 -218 -32t-199 -91.5t-170 -142.5t-132 -184 t-85.5 -216.5t-30.5 -239.5q0 -127 38.5 -230.5t113 -176.5t184.5 -113t252 -40q46 0 89 3t84.5 9t82.5 15.5t84 21.5l6 -111q-44 -12 -91.5 -21.5t-94.5 -16t-93.5 -9.5t-87.5 -3q-163 0 -291.5 46t-216.5 131.5t-134.5 208t-46.5 276.5q0 141 36 271.5t100.5 244 t154.5 206t197.5 158.5t229.5 102.5t253 36.5q114 0 207.5 -22.5t166.5 -62.5t127.5 -95.5t89.5 -122.5t52 -143t17 -157zM1237 968q-27 7 -60 10t-66 3q-45 0 -89.5 -16.5t-84 -48t-73 -75t-58.5 -97t-38.5 -115t-13.5 -127.5q0 -60 20.5 -91.5t63.5 -31.5q44 0 94.5 29 t100 87.5t94 146t77.5 205.5z" />
<glyph unicode="A" horiz-adv-x="1378" d="M1268 0h-441l13 70q40 10 85.5 17.5t89.5 10.5l-42 264h-624l-146 -264q40 -3 83.5 -10.5t78.5 -17.5l-13 -70h-440l13 70q29 8 66 15.5t67 10.5l725 1286h143l228 -1284q14 -1 31 -4t34.5 -7t34 -8.5t29.5 -8.5zM854 1053l-16.5 121t-9.5 72h-2q-17 -39 -38.5 -80.5 t-56.5 -107.5l-326 -589h551z" />
<glyph unicode="B" horiz-adv-x="1174" d="M1112 1130q0 -82 -25 -148.5t-66.5 -116.5t-95.5 -84t-112 -53v-2q53 -9 96 -33.5t72.5 -59t45 -77t15.5 -89.5q0 -95 -37.5 -180.5t-112.5 -151t-186 -103.5t-258 -38q-31 0 -69 1t-78.5 2t-82.5 2t-80 1h-174l13 70q41 10 87.5 17.5t93.5 10.5l223 1186q-45 4 -88 11 t-80 17l15 70h171q33 0 68.5 0.5t77 1.5t91 2t109.5 1q100 0 169 -19.5t113.5 -54t64.5 -81.5t20 -102zM976 1104q0 38 -11 70.5t-41 56.5t-82.5 37.5t-134.5 13.5q-55 0 -102.5 -1t-94.5 -3l-98 -509q33 -2 63.5 -2h71.5q95 0 174 22t135.5 64.5t88 105.5t31.5 145z M905 452q0 105 -83.5 159.5t-262.5 54.5h-45.5h-46t-42 -0.5t-32.5 -1.5l-104 -551q14 -2 33 -4.5t42.5 -4t52.5 -2.5t64 -1q103 0 182.5 28.5t133 76.5t81 111.5t27.5 134.5z" />
<glyph unicode="C" horiz-adv-x="1171" d="M1151 1060h-81q0 51 1.5 99.5t9.5 97.5q-57 17 -109.5 23t-107.5 6q-104 0 -190 -32t-153.5 -89.5t-117 -134.5t-81.5 -167.5t-47.5 -189.5t-15.5 -199q0 -82 18 -150.5t61 -118t114.5 -77t178.5 -27.5q37 0 83.5 6.5t94.5 17t93 25t81 31.5l14 -116q-88 -37 -191 -58 t-203 -21q-94 0 -166.5 17t-127 48t-91 73.5t-59.5 94.5t-33 112t-10 124q0 124 22.5 242t66.5 222t110 192t153 151.5t194.5 99t234.5 35.5q91 0 166.5 -11.5t146.5 -30.5z" />
<glyph unicode="D" horiz-adv-x="1421" d="M1373 886q0 -113 -23.5 -223t-72 -209t-123 -183t-175.5 -145.5t-229 -96.5t-286 -35q-54 0 -99 1t-84 2t-74 2t-67 1h-176l15 70q41 10 87 17.5t93 10.5l224 1186q-45 4 -89 11t-81 17l15 70h173q40 0 86 1t94.5 2.5t97.5 2.5t96 1q168 0 283 -39t185 -107t100 -160 t30 -197zM1236 869q0 88 -23 163.5t-78 131t-148 87t-232 31.5q-32 0 -66 -0.5t-66 -1.5t-60.5 -2t-50.5 -2l-222 -1160q23 -3 49.5 -5.5t52.5 -4.5t50 -3t41 -1q135 0 243 31t191 84.5t143.5 127t99.5 159t57.5 178.5t18.5 187z" />
<glyph unicode="E" horiz-adv-x="1057" d="M1011 1086h-82q0 53 0.5 103t5.5 89h-427l-97 -514h339q14 43 28.5 83t35.5 76h70l-79 -419h-72q-6 35 -6.5 75.5t2.5 83.5h-336l-106 -556h427q14 42 32.5 94t37.5 103h82l-57 -304h-847l15 70q41 10 87.5 17.5t93.5 10.5l223 1186q-45 4 -89 11t-81 17l15 70h842z" />
<glyph unicode="F" horiz-adv-x="993" d="M1015 1085h-83q2 54 2.5 101t3.5 91h-428l-101 -524h347q13 43 29 83t35 75h72l-80 -420h-74q-3 36 -4 75.5t2 82.5h-346l-106 -551q45 -3 89 -10.5t81 -17.5l-13 -70h-479l13 70q42 10 89 17.5t92 10.5l225 1186q-45 4 -88 11t-80 17l13 70h846z" />
<glyph unicode="G" horiz-adv-x="1407" d="M1267 1059h-83q0 55 2.5 103t7.5 92q-62 17 -125 26.5t-120 9.5q-99 0 -190 -27t-168.5 -76.5t-140.5 -119.5t-108 -155.5t-69 -184.5t-24 -206q0 -78 23 -154t75.5 -136.5t136.5 -98t205 -37.5q91 0 165.5 13t145.5 35l85 448q-45 3 -88.5 10.5t-81.5 18.5l15 69h447 l-13 -70q-36 -9 -73.5 -16t-77.5 -12l-102 -535q-54 -18 -111.5 -32t-115 -23t-113 -13.5t-104.5 -4.5q-140 0 -244.5 39.5t-173.5 110t-103.5 167.5t-34.5 211q0 132 30.5 249t86.5 216t135 177t174.5 133t205 84t226.5 29q100 0 187 -12.5t170 -36.5z" />
<glyph unicode="H" horiz-adv-x="1507" d="M1593 1312q-42 -10 -88 -17t-92 -11l-225 -1186q45 -3 88.5 -10.5t81.5 -17.5l-14 -70h-475l13 70q41 11 86.5 18t89.5 10l109 566h-775l-108 -566q44 -3 87 -10t79 -18l-13 -70h-475l13 70q42 10 88.5 17.5t92.5 10.5l225 1186q-45 4 -88 11t-80 17l13 70h474l-13 -70 q-42 -11 -87 -17.5t-89 -10.5l-97 -511h774l96 511q-44 4 -85.5 10.5t-79.5 17.5l14 70h473z" />
<glyph unicode="I" horiz-adv-x="604" d="M691 1312q-42 -10 -88 -17t-92 -11l-227 -1186q45 -3 89 -10.5t81 -17.5l-13 -70h-479l13 70q42 10 89 17.5t92 10.5l225 1186q-45 4 -88 11t-80 17l13 70h477z" />
<glyph unicode="J" horiz-adv-x="674" d="M761 1312q-34 -9 -74 -16t-79 -12l-178 -944q-17 -87 -46.5 -153t-75.5 -110.5t-110.5 -67t-149.5 -22.5q-20 0 -39.5 1.5t-38 3.5t-34.5 5t-31 6l24 122q28 -11 64 -18.5t71 -7.5q44 0 82 11.5t67.5 39.5t52 75t35.5 118l178 941q-45 4 -87.5 11t-80.5 17l14 70h451z " />
<glyph unicode="K" horiz-adv-x="1294" d="M1364 1312q-71 -17 -149 -28l-660 -582l449 -604q19 -2 39.5 -4.5t41 -6.5t39.5 -8t35 -9l-14 -70h-468l13 70q36 10 74.5 16.5t76.5 9.5l-441 609l-116 -607q35 -3 78.5 -10t79.5 -18l-13 -70h-467l13 70q42 10 89 17.5t92 10.5l225 1186q-45 4 -88 11t-80 17l13 70h465 l-13 -70q-41 -11 -86 -17.5t-81 -10.5l-110 -573l644 573q-40 4 -80.5 10.5t-73.5 17.5l13 70h475z" />
<glyph unicode="L" horiz-adv-x="918" d="M791 0h-829l13 70q42 10 89 17.5t92 10.5l225 1186q-45 4 -88 11t-80 17l13 70h477l-12 -70q-42 -10 -88 -17t-92 -11l-224 -1177h411q6 21 14.5 46t18 51t19.5 53.5t20 53.5h82z" />
<glyph unicode="M" horiz-adv-x="1855" d="M1295 0l14 70q20 5 41 9.5t43 8t44.5 6t44.5 4.5l44 810q3 58 5.5 106.5t4.5 91t5 80t6 73.5h-2q-16 -39 -42.5 -94.5t-61.5 -120.5l-565 -1044h-117l-156 984q-6 37 -10.5 74t-8 72.5t-6.5 68t-4 60.5h-2q-10 -38 -21.5 -79t-24 -86.5t-27.5 -94.5t-31 -102l-247 -799 q44 -3 84.5 -10.5t76.5 -17.5l-14 -70h-436l13 70q15 4 32.5 7.5t36 7.5t36.5 6.5t33 4.5l389 1188q-45 4 -88.5 11t-80.5 17l16 70h354l146 -946q11 -75 17 -143t8 -122h4q23 54 54 118.5t65 130.5l519 962h377l-13 -70q-42 -10 -88 -17t-91 -11l-58 -1188q29 -3 66 -10.5 t65 -15.5l-14 -70h-435z" />
<glyph unicode="N" horiz-adv-x="1485" d="M1568 1312q-35 -9 -74 -16t-78 -12l-245 -1284h-160l-412 962q-31 75 -60 148.5t-50 143.5q-10 -69 -22 -145t-26 -154.5t-27.5 -156.5t-27.5 -150l-99 -550q43 -3 85.5 -10t78.5 -18l-13 -70h-474l13 70q42 10 88.5 17.5t92.5 10.5l223 1186q-45 4 -88 11t-80 17l13 70 h336l411 -960q30 -69 58 -141.5t53 -145.5q10 61 22 130t25 141.5t26 146t25 142.5l106 589q-44 4 -85.5 10.5t-78.5 17.5l14 70h443z" />
<glyph unicode="O" horiz-adv-x="1417" d="M1375 901q0 -131 -27.5 -250t-78.5 -221t-122.5 -184.5t-159 -141t-187.5 -90t-209 -31.5q-121 0 -212 33.5t-151 97.5t-90 157t-30 212q0 126 27 243t76.5 218.5t120 185.5t157 144t187.5 93t212 33q118 0 208.5 -33.5t152.5 -97.5t94 -157t32 -211zM1233 886 q0 93 -23 167.5t-68 126.5t-114 80t-162 28q-89 0 -168.5 -28.5t-148 -79.5t-124 -123.5t-94.5 -160t-60.5 -188t-21.5 -208.5q0 -92 23.5 -167t68.5 -127.5t111.5 -80.5t154.5 -28q84 0 164 27.5t149 77t127 121t99 159t64 190t23 214.5z" />
<glyph unicode="P" horiz-adv-x="1122" d="M1157 1040q0 -117 -46.5 -217.5t-130.5 -174t-198.5 -113.5t-246.5 -40q-57 0 -95 2.5t-78 6.5l-80 -406q45 -3 90.5 -10.5t81.5 -17.5l-13 -70h-479l13 70q42 11 88 18t91 10l227 1186q-45 4 -89.5 11t-80.5 17l15 70h174q25 0 132 3.5t185 3.5q100 0 181.5 -23.5 t139.5 -68.5t88.5 -110t30.5 -147zM1019 1031q0 58 -21 104.5t-62.5 79t-102 49.5t-138.5 17q-74 0 -114.5 -0.5t-72.5 -3.5l-127 -662q14 -3 33.5 -5t42.5 -4t47.5 -3t47.5 -1q84 0 152.5 17.5t120.5 48.5t89 72.5t60 89.5t34 99t11 102z" />
<glyph unicode="Q" horiz-adv-x="1417" d="M1233 886q0 94 -22.5 168.5t-68 126.5t-115 79.5t-161.5 27.5q-87 0 -167 -28t-149 -80t-124.5 -124t-94.5 -160t-60 -188.5t-21 -207.5q0 -92 23 -166.5t68.5 -127.5t112.5 -81t153 -28q84 0 163.5 27t149.5 77.5t127.5 121.5t99 159.5t64 190.5t22.5 213zM870 57 q45 -2 100 -18.5t106 -32.5t110 -24t132 0l-24 -119q-72 -9 -129.5 -4.5t-102 16.5t-107.5 36.5t-101 37.5t-95 23.5t-128 10.5h-40q-120 0 -211 33t-151.5 97.5t-90.5 157.5t-30 212q0 124 26.5 241t76.5 220t120 186.5t157.5 144t188.5 93t211 32.5q116 0 207 -33 t153.5 -97.5t94.5 -157.5t32 -211q0 -153 -38.5 -290.5t-107.5 -249t-161 -189t-198 -115.5z" />
<glyph unicode="R" horiz-adv-x="1147" d="M1084 1096q0 -99 -42 -180.5t-115.5 -139t-167.5 -88t-196 -31.5q15 -26 31 -57.5t36 -69.5l223 -432q40 -3 85.5 -11t80.5 -17l-15 -70h-258l-321 654h-35l-106 -556q45 -3 88 -10t77 -18l-13 -70h-472l13 70q42 11 88 18t91 10l225 1186q-44 4 -87.5 11t-80.5 17l13 70 h155q28 0 54.5 1t80 2.5t94.5 2.5t84 1q100 0 174 -19.5t122 -57.5t71 -92t23 -124zM949 1083q0 104 -64.5 152.5t-209.5 48.5q-52 0 -91 -1.5t-74 -4.5l-99 -520q12 -1 21 -1.5t23 -1t34 -1t47 -0.5q87 0 162 20.5t131.5 62t88 104t31.5 142.5z" />
<glyph unicode="S" horiz-adv-x="936" d="M851 1084h-81q0 53 2.5 105.5t7.5 94.5q-20 4 -51 7t-55 3q-84 0 -145.5 -24t-102.5 -61.5t-61 -84.5t-20 -94q0 -53 19 -93.5t50.5 -74.5t71.5 -63t81.5 -58.5t81.5 -60t71.5 -69t50.5 -85.5t19 -108q0 -93 -39 -172.5t-108.5 -138t-166.5 -91.5t-213 -33 q-25 0 -53.5 1.5t-58.5 4.5t-58.5 9t-52.5 14l57 305h83q-1 -57 -3.5 -109.5t-5.5 -95.5q24 -7 54.5 -10.5t55.5 -3.5q89 0 158.5 22.5t117 62t73 95t25.5 120.5q0 50 -19 89t-50 71t-70.5 59.5t-81 56.5t-80.5 60t-70 70t-50 87t-19 111q0 80 32 152t94.5 126.5t152.5 87 t207 32.5q23 0 48 -1t51.5 -3.5t53.5 -6t54 -9.5z" />
<glyph unicode="T" horiz-adv-x="1090" d="M1155 1071h-81q2 67 2.5 116.5t5.5 89.5h-330l-223 -1179q45 -3 88.5 -10.5t81.5 -17.5l-14 -70h-478l13 70q42 10 88 17.5t92 10.5l226 1179h-329q-11 -40 -29 -89.5t-42 -116.5h-82l60 311h1010z" />
<glyph unicode="U" horiz-adv-x="1444" d="M1529 1312q-72 -18 -152 -28l-147 -778q-26 -134 -77 -232.5t-128.5 -163t-180.5 -96t-231 -31.5q-123 0 -205.5 25.5t-132 71.5t-70 108.5t-20.5 137.5q0 33 4.5 67.5t10.5 69.5l155 821q-37 5 -73.5 12t-68.5 16l13 70h448l-16 -70q-39 -11 -84.5 -17.5t-89.5 -10.5 l-152 -800q-8 -37 -12 -72t-4 -67q0 -63 17.5 -111t55 -80t97 -48.5t145.5 -16.5q97 0 174.5 22t136.5 73t99.5 134t64.5 205l144 761q-43 4 -86 10.5t-80 17.5l13 70h445z" />
<glyph unicode="V" horiz-adv-x="1356" d="M1495 1312q-14 -4 -31.5 -8t-36 -7t-36.5 -6t-32 -5l-715 -1286h-142l-212 1286q-14 2 -31.5 5l-35 6t-33.5 7t-28 8l12 70h443l-13 -70q-41 -10 -85.5 -17t-88.5 -11l126 -847q4 -32 10 -67t11.5 -73.5t10.5 -78.5t9 -80h2q34 77 75 155.5t84 154.5l458 836 q-44 4 -87 11t-79 17l13 70h445z" />
<glyph unicode="W" horiz-adv-x="1972" d="M2112 1312q-15 -4 -32.5 -8t-36 -7t-36.5 -6t-33 -5l-569 -1286h-164l-121 1002q-6 55 -10 108.5t-3 105.5h-2q-19 -51 -41 -103t-47 -106l-482 -1007h-163l-82 1286q-28 4 -64.5 11t-62.5 15l13 70h439l-13 -70q-41 -10 -87.5 -17t-96.5 -11l58 -911q5 -70 6 -131 t0 -122h2q25 63 52 125t55 122l487 1015h122l124 -1026q8 -57 12.5 -118.5t6.5 -117.5h2q17 51 35.5 97.5t41.5 102.5l417 964q-39 4 -80 11t-77 17l13 70h430z" />
<glyph unicode="X" horiz-adv-x="1311" d="M1411 1312q-38 -9 -78.5 -16t-81.5 -12l-486 -573l297 -615q39 -3 75 -9.5t68 -16.5l-13 -70h-470l13 70q40 11 84 18t87 10l-231 517l-423 -517q39 -3 79 -10t75 -18l-13 -70h-469l12 70q39 10 78.5 16.5t80.5 9.5l525 625l-274 565q-39 4 -75.5 10.5t-68.5 15.5l13 70 h471l-14 -70q-39 -11 -85 -17.5t-91 -10.5l214 -469l387 469q-44 4 -82 10.5t-73 17.5l13 70h469z" />
<glyph unicode="Y" horiz-adv-x="1167" d="M1307 1312q-29 -8 -66.5 -15t-68.5 -11l-530 -785l-76 -403q45 -3 88 -10.5t81 -17.5l-13 -70h-478l13 70q40 10 87 17.5t93 10.5l76 403l-223 785q-30 4 -66 11t-64 15l13 70h441l-13 -70q-36 -11 -81.5 -17.5t-94.5 -10.5l110 -425q9 -30 17 -61l16 -62t15.5 -61.5 t13.5 -60.5h3q20 32 40.5 64.5t42.5 68t47.5 75.5t55.5 86l239 376q-36 4 -77.5 10.5t-74.5 17.5l14 70h434z" />
<glyph unicode="Z" horiz-adv-x="1061" d="M1111 1289l-828 -1036q-29 -38 -58.5 -72.5t-60.5 -70.5q18 2 52 3t81 1.5t105 0.5h123h257q14 43 31.5 92t39.5 106h80l-60 -313h-879l17 93l784 987q43 53 83.5 99t84.5 94q-59 -2 -134 -3t-181 -1h-280q-11 -39 -28 -87.5t-37 -105.5h-82l58 306h850z" />
<glyph unicode="[" horiz-adv-x="637" d="M738 1475h-245l-339 -1774h247l-19 -99h-364l376 1970h364z" />
<glyph unicode="\" horiz-adv-x="834" d="M573 -330l-346 1880h110l351 -1880h-115z" />
<glyph unicode="]" horiz-adv-x="637" d="M268 -398h-364l19 99h245l339 1774h-247l20 97h364z" />
<glyph unicode="^" d="M873 712l-199 567l-404 -567l-85 49l453 621h108l230 -619z" />
<glyph unicode="_" d="M926 -514h-1104l19 100h1104z" />
<glyph unicode="`" horiz-adv-x="735" d="M545 1184l-228 247l98 77l207 -263z" />
<glyph unicode="a" horiz-adv-x="1112" d="M972 14q-31 -4 -69.5 -7t-78.5 -5t-80.5 -3t-76.5 1q14 72 46.5 189.5t86.5 288.5l-4 2q-17 -40 -41.5 -92.5t-58 -108t-75.5 -109t-93 -95.5t-111 -68t-129 -26q-107 0 -163.5 72.5t-56.5 231.5q0 91 16 182.5t48.5 174t83.5 154t121 123.5t160 82t201 30q83 0 155 -8 t135 -21l-172 -897q34 -6 79.5 -11.5t89.5 -8.5zM844 908q-35 9 -76 15t-92 6q-88 0 -157 -26.5t-122 -72t-91 -107t-61.5 -130.5t-34.5 -142.5t-11 -143.5q0 -59 9 -100t25 -66.5t38 -37.5t50 -12q57 0 112.5 35t107.5 93.5t98 134t83.5 156t64 159.5t40.5 146z" />
<glyph unicode="b" horiz-adv-x="1092" d="M1016 733q0 -91 -15.5 -182.5t-49 -174.5t-84 -154t-121 -123t-160 -82t-200.5 -30q-85 0 -156.5 8t-133.5 21l262 1374q-36 6 -81 11.5t-88 8.5l13 71q30 4 69 7t79.5 5t80.5 2.5t75 -0.5l-104 -539q-6 -33 -15 -67t-22 -80t-32 -109.5t-46 -152.5l4 -2q40 101 92 190 t115.5 156.5t138 106.5t159.5 39q106 0 163 -72.5t57 -231.5zM885 711q0 58 -9 99.5t-25 67t-39 37.5t-49 12q-57 0 -113 -35t-107.5 -93.5t-97.5 -133.5t-83 -155t-63.5 -158t-38.5 -144l-20 -98q38 -10 78 -15.5t89 -5.5q88 0 157.5 26.5t122.5 72t90.5 107t61 130.5 t35 142.5t11.5 143.5z" />
<glyph unicode="c" horiz-adv-x="856" d="M819 718l-73 2q-2 24 -2 48.5t1 49.5t3 49t6 47q-28 8 -58.5 11.5t-64.5 3.5q-70 0 -129 -25t-105.5 -68t-81.5 -101t-59 -123t-35.5 -134.5t-11.5 -135.5q0 -44 8 -88t33.5 -78t72 -55.5t123.5 -21.5q64 0 130 15t123 40l15 -106q-58 -24 -136 -41.5t-162 -17.5 q-99 0 -165 25t-105.5 68.5t-56.5 102.5t-17 127q0 146 39.5 277t113.5 229t180 155.5t241 57.5q61 0 118.5 -10t107.5 -27z" />
<glyph unicode="d" horiz-adv-x="1112" d="M816 105q34 -6 79.5 -11.5t89.5 -8.5l-13 -71q-32 -4 -69.5 -7t-77.5 -5t-80 -3t-76 1q12 72 44.5 189.5t86.5 288.5l-4 2q-17 -40 -41.5 -92.5t-58 -108t-75.5 -109t-93 -95.5t-111 -68t-129 -26q-107 0 -163.5 72.5t-56.5 231.5q0 91 16 182.5t48.5 174t83.5 154 t121 123.5t160 82t201 30q45 0 85 -4t82 -9l69 372q-34 6 -79.5 11.5t-90.5 8.5l14 71q31 4 69.5 7t79 5t80 2.5t75.5 -0.5zM844 908q-35 9 -76 15t-92 6q-88 0 -157 -26.5t-122 -72t-91 -107t-61.5 -130.5t-34.5 -142.5t-11 -143.5q0 -59 9 -100t25 -66.5t38 -37.5t50 -12 q57 0 112.5 35t107.5 93.5t98 134t83.5 156t64 159.5t40.5 146z" />
<glyph unicode="e" horiz-adv-x="952" d="M896 815q0 -76 -40.5 -136t-124 -104t-211 -70.5t-299.5 -33.5q-3 -14 -5.5 -32t-4.5 -38t-3 -39.5t-1 -35.5q0 -71 13 -116t41.5 -71t74 -36.5t115.5 -10.5q72 0 143.5 15.5t134.5 42.5l9 -105q-72 -30 -155.5 -46t-180.5 -16q-83 0 -144 17.5t-102.5 55t-62.5 98.5 t-21 148q0 94 16 185t47.5 173t78.5 150.5t108 119t136 78t161 27.5q70 0 122.5 -17t87 -47t51 -70t16.5 -86zM762 800q0 32 -12 57t-33.5 41.5t-51 25t-64.5 8.5q-67 0 -124 -26.5t-102.5 -74t-78.5 -111.5t-54 -140q138 5 236.5 22t161.5 44.5t92.5 65.5t29.5 88z" />
<glyph unicode="f" horiz-adv-x="684" d="M914 1378q-38 11 -77.5 16.5t-75.5 5.5q-63 0 -111.5 -18t-85.5 -56.5t-61.5 -97t-38.5 -139.5l-12 -71h306l-18 -101h-307l-189 -979q-24 -127 -64.5 -216t-97.5 -144.5t-131 -81t-164 -25.5q-45 0 -89 4.5t-86 13.5l32 114q42 -13 84 -18t78 -5q62 0 111 18t86.5 59 t65.5 108.5t47 165.5l190 986h-217l19 101h218l12 68q19 107 56 185.5t92 130.5t129 77t167 25q44 0 82 -4.5t83 -13.5z" />
<glyph unicode="g" horiz-adv-x="1090" d="M774 -115q-16 -88 -53.5 -161.5t-103.5 -130.5t-167 -89.5t-239 -32.5q-80 0 -142 9t-118 26l27 133q29 -12 61.5 -21.5t67 -16.5t70 -10.5t70.5 -3.5q87 0 153.5 18t117.5 58.5t86 108t54 165.5q13 72 25 126.5t26.5 110.5t34.5 123.5t52 168.5l-4 3q-20 -46 -43.5 -95 t-56.5 -103t-74.5 -106t-92.5 -93.5t-111 -66t-126 -24.5q-109 0 -164.5 74t-55.5 230q0 94 16 185t49.5 174t85 153.5t121.5 123t160 81.5t198 29q79 0 151 -7.5t139 -21.5zM844 908q-42 10 -82 15.5t-86 5.5q-85 0 -154.5 -25.5t-122.5 -71.5t-91 -106.5t-62 -130.5 t-35.5 -143t-11.5 -145q0 -57 8.5 -98.5t24.5 -67.5t38.5 -38t50.5 -12q55 0 110.5 34t107.5 92.5t98.5 133t84.5 156.5t65 161.5t40 146.5z" />
<glyph unicode="h" horiz-adv-x="1182" d="M1044 14q-31 -4 -68.5 -7.5t-78 -5.5t-80 -2t-73.5 1l126 661q26 137 -0.5 201.5t-109.5 64.5q-54 0 -109.5 -33.5t-107 -92t-98 -133t-84 -155.5t-64 -160t-38.5 -146l-38 -207h-127l264 1390q-34 6 -80.5 11.5t-88.5 8.5l13 71q32 4 70.5 7t79.5 5t80.5 2.5t73.5 -0.5 l-99 -511q-6 -33 -13.5 -66t-20.5 -81.5t-33.5 -117.5t-50.5 -162l4 -2q39 95 90.5 180.5t115 153.5t138 108t155.5 40q68 0 115.5 -23.5t73.5 -68.5t31 -110t-11 -149l-112 -581q36 -7 80.5 -12.5t88.5 -8.5z" />
<glyph unicode="i" horiz-adv-x="559" d="M529 1354q0 -21 -7.5 -39t-20.5 -31t-30 -20t-35 -7q-20 0 -36 6.5t-27.5 18.5t-18.5 27.5t-7 32.5q0 22 8 40t21.5 31t30.5 20.5t36 7.5t35 -7t27.5 -18.5t17.5 -27.5t6 -34zM422 14q-32 -4 -70.5 -7t-79 -5t-80.5 -3t-74 1l177 915q-35 7 -80 11t-88 7l13 71q31 4 69 7 t78.5 5t79.5 2.5t74 -0.5l-177 -913q18 -3 38.5 -6.5t43 -6t45 -4.5t43.5 -3z" />
<glyph unicode="j" horiz-adv-x="541" d="M528 1354q0 -20 -7.5 -38t-21 -31.5t-30.5 -20.5t-35 -7q-19 0 -35 6.5t-28 18.5t-18.5 27.5t-6.5 32.5q0 21 7.5 39.5t21 31.5t31 20.5t36.5 7.5t34.5 -7t27.5 -19t18 -27.5t6 -33.5zM217 -157q-18 -98 -46.5 -167t-73.5 -114.5t-109 -67.5t-152 -22q-36 0 -69.5 4 t-59.5 10l25 117q28 -11 61 -17t62 -6q59 0 96.5 15.5t64.5 51t45.5 92.5t32.5 128l201 1046q-34 6 -80.5 12t-89.5 9l12 70q32 4 70.5 7t79.5 5t80.5 2.5t72.5 -0.5z" />
<glyph unicode="k" horiz-adv-x="1028" d="M953 834q0 -63 -24.5 -118.5t-78.5 -101.5t-142.5 -82t-214.5 -61l212 -371q44 -5 86 -11.5t79 -16.5l-13 -72h-255l-282 521l-99 -521h-127l264 1390q-34 6 -80 11.5t-89 8.5l13 71q30 4 69 7t79.5 5t80.5 2.5t75 -0.5l-54 -278q-10 -57 -23 -112.5t-28 -112.5 t-33.5 -117.5t-40.5 -127.5l4 -1q28 63 66 116.5t85 91.5t105.5 59.5t129.5 21.5q58 0 102 -15t74 -41.5t45 -63t15 -81.5zM817 807q0 24 -8 46.5t-24 39.5t-41 27t-57 10q-48 0 -91 -19.5t-80 -51.5t-67 -73.5t-54.5 -85t-41 -85t-25.5 -75.5q136 22 229 47.5t151 57 t83.5 71.5t25.5 91z" />
<glyph unicode="l" horiz-adv-x="537" d="M240 105q35 -6 79 -11.5t87 -8.5l-13 -71q-31 -4 -68.5 -7t-77 -5t-79.5 -3t-74 1l264 1390q-34 6 -80 11.5t-89 8.5l13 71q30 4 68.5 7t78.5 5t80 2.5t74 -0.5z" />
<glyph unicode="m" horiz-adv-x="1825" d="M1685 14q-30 -4 -67.5 -7t-77.5 -5t-79.5 -3t-73.5 1l126 661q27 139 1 203.5t-103 64.5q-49 0 -99.5 -29.5t-100 -81t-95.5 -121t-85 -150t-69 -167.5t-45 -173l-39 -207h-126l127 661q26 139 1.5 203.5t-103.5 64.5q-49 0 -99.5 -29.5t-100 -81t-95.5 -121t-85.5 -150 t-69 -167.5t-44.5 -173l-39 -207h-126l175 913q-17 3 -38 6t-43 5.5t-44.5 4.5t-40.5 4l13 71q25 4 62.5 7t78.5 5t83.5 2.5t76.5 -0.5q-23 -118 -56.5 -232t-70.5 -229l4 -2q35 89 85 175.5t112.5 154.5t136 110t157.5 42q51 0 89 -14t62.5 -40t37 -62.5t12.5 -82.5 q0 -29 -3.5 -59t-11.5 -63.5t-19.5 -72.5t-27.5 -87l4 -2q35 90 85 176.5t112.5 154.5t136.5 110t158 42q65 0 110.5 -24t71 -69t30 -110t-11.5 -148l-112 -581q35 -6 79 -11.5t88 -8.5z" />
<glyph unicode="n" horiz-adv-x="1208" d="M1069 14q-31 -4 -68.5 -7t-77.5 -5t-80 -3t-74 1l126 661q27 138 0.5 202t-109.5 64q-56 0 -111.5 -35t-107 -92.5t-97 -131.5t-82.5 -153t-63.5 -156t-38.5 -139l-42 -220h-126l175 913q-34 6 -77.5 11.5t-88.5 8.5l13 71q31 4 69 7t78 5t80 2.5t74 -0.5 q-5 -27 -13.5 -66t-23.5 -94.5t-36.5 -129.5t-51.5 -171l4 -2q36 90 86.5 176.5t114 154.5t138.5 109.5t160 41.5q68 0 115 -24t73 -69t31 -110t-11 -148l-112 -581q35 -7 79.5 -12.5t86.5 -8.5z" />
<glyph unicode="o" horiz-adv-x="1087" d="M1008 671q0 -157 -48 -284.5t-129 -217.5t-185 -138t-216 -48q-88 0 -154.5 23t-111 68t-67.5 112.5t-23 155.5q0 99 19 188.5t54 166t86 139t114.5 106.5t138 68.5t159.5 24.5q94 0 162.5 -27t113 -74.5t66 -114.5t21.5 -148zM873 660q0 130 -60 199.5t-187 69.5 q-94 0 -171 -46.5t-132 -124.5t-85.5 -179t-30.5 -211q0 -68 14 -119.5t44.5 -86.5t78 -53t112.5 -18q81 0 156 40.5t133 114.5t93 179t35 235z" />
<glyph unicode="p" horiz-adv-x="1118" d="M1042 733q0 -91 -16 -182.5t-49 -174t-83.5 -153.5t-120.5 -122.5t-160.5 -81.5t-201.5 -30q-48 0 -87.5 4t-79.5 9l-78 -417q22 -2 44.5 -4.5t44.5 -6t42.5 -7.5t38.5 -10l-13 -70h-458l13 70q35 10 76 17.5t86 10.5l253 1328q-17 3 -37.5 6t-43 5.5t-44.5 4.5t-41 4 l12 71q28 4 66 7t79 5t82 2.5t75 -0.5q-7 -36 -16 -76.5t-24 -95t-36.5 -127.5t-50.5 -172l4 -2q39 101 91 190t115.5 156.5t138 106.5t159.5 39q105 0 162.5 -72.5t57.5 -231.5zM911 711q0 58 -9 99.5t-25.5 67t-38.5 37.5t-49 12q-57 0 -113 -35t-107.5 -93t-97.5 -133.5 t-83 -155.5t-63.5 -158t-39.5 -143l-17 -89q18 -7 40 -12.5t44.5 -9t44 -5.5t38.5 -2q86 0 155 26.5t122 72t90.5 106.5t62 130t35.5 142t11 143z" />
<glyph unicode="q" horiz-adv-x="1092" d="M718 -415q45 -3 87.5 -10.5t79.5 -17.5l-13 -70h-473l13 70q42 10 88 17.5t92 10.5l77 405q9 49 19.5 95.5t25 102t35.5 125t51 165.5l-4 2q-17 -40 -41.5 -92.5t-58 -108t-75.5 -109t-93 -95.5t-111 -68t-129 -26q-107 0 -163.5 72.5t-56.5 231.5q0 91 16 182.5 t48.5 174t83.5 154t121 123.5t160 82t201 30q83 0 155 -8t135 -22zM844 908q-35 9 -76 15t-92 6q-88 0 -157 -26.5t-122 -72t-91 -107t-61.5 -130.5t-34.5 -142.5t-11 -143.5q0 -59 9 -100t25 -66.5t39 -37.5t51 -12q57 0 112 35t107 93.5t97.5 134t83 156t64 159.5 t40.5 146z" />
<glyph unicode="r" horiz-adv-x="743" d="M776 907q-47 12 -91.5 -2.5t-85.5 -47.5t-78 -81.5t-69 -105t-59.5 -117.5t-48.5 -119t-35.5 -108.5t-21.5 -88.5l-43 -237h-126l177 913q-34 6 -79 11.5t-89 8.5l13 71q30 4 68.5 7t79 5t80 2.5t73.5 -0.5q-7 -36 -16.5 -77.5t-24 -92.5t-34 -114t-45.5 -141l4 -2 q45 102 92.5 189t103.5 148t124.5 90t154.5 14z" />
<glyph unicode="s" horiz-adv-x="799" d="M672 740h-73q0 47 2.5 94.5t6.5 93.5q-20 3 -42.5 4.5t-44.5 1.5q-57 0 -100.5 -13.5t-73 -37.5t-44.5 -56.5t-15 -70.5q0 -47 26 -82.5t65.5 -65.5t85 -58.5t85 -63t65.5 -78.5t26 -103q0 -64 -29 -122t-84.5 -102.5t-134.5 -71t-179 -26.5q-27 0 -51 1t-47 2.5t-45 4.5 t-41 6l53 290h73q0 -46 -1.5 -96t-6.5 -91q9 -2 21 -3t24.5 -2.5t25.5 -2t24 -0.5q58 0 107 12t84.5 36t55.5 60t20 84q0 45 -26 79t-65.5 63.5t-84.5 58.5t-84.5 64t-65.5 81t-26 108t25 116t73 94t118.5 63.5t163.5 23.5q29 0 54 -1.5t48 -3.5t44 -5.5t42 -7.5z" />
<glyph unicode="t" horiz-adv-x="741" d="M735 917h-302l-111 -585q-13 -69 -14.5 -113.5t10 -71t38 -37.5t69.5 -11q35 0 76.5 5t73.5 13l-3 -113q-42 -8 -88.5 -13.5t-88.5 -5.5q-75 0 -122.5 18.5t-71.5 57.5t-26 99t13 143l117 614h-229l21 101h229l65 343l135 34l-74 -377h305z" />
<glyph unicode="u" horiz-adv-x="1208" d="M1069 14q-32 -4 -70 -7t-78.5 -5t-80.5 -3t-77 1q5 27 14 66t24 94.5t37 129.5t53 171l-4 2q-37 -90 -87.5 -176.5t-113.5 -154.5t-138 -109.5t-161 -41.5q-68 0 -115 24t-73 69t-31 110t11 148l111 579q-34 6 -77.5 12.5t-87.5 9.5l13 71q30 4 68.5 7t78 5t78.5 2.5 t74 -0.5l-126 -661q-27 -138 0 -202t109 -64q56 0 111.5 35t107 93t97.5 133t83 155.5t63.5 159t39.5 144.5l18 102q-34 6 -79.5 11.5t-88.5 8.5l14 71q31 4 69 7t78 5t79.5 2.5t73.5 -0.5l-175 -913q34 -6 81 -11.5t89 -8.5z" />
<glyph unicode="v" horiz-adv-x="1020" d="M516 0h-139l-137 913q-35 6 -71.5 11.5t-79.5 8.5l13 71q61 8 126.5 12.5t132.5 1.5l97 -721q1 -19 3.5 -41t4.5 -43.5t3 -43t3 -41.5h2l485 931l120 -47z" />
<glyph unicode="w" horiz-adv-x="1477" d="M1011 0h-154l-69 607l-309 -607h-149l-105 913q-34 6 -79 11.5t-87 8.5l13 71q30 4 64.5 7t70.5 5t72.5 2.5t71.5 -0.5l79 -886h2l332 655l-13 126q-36 6 -81.5 11.5t-87.5 8.5l13 71q26 4 60 7t70.5 5t73.5 2.5t72 -0.5l87 -888h2l447 929l119 -45z" />
<glyph unicode="x" horiz-adv-x="1104" d="M618 508l179 -408q19 -2 43.5 -5.5t50 -7t48.5 -8t40 -9.5l-15 -70h-275l-167 411l-428 -467l-92 78l470 497l-164 401q-19 2 -42.5 4.5t-47 6.5t-45.5 8t-39 9l13 70h268l153 -403l422 456l90 -73z" />
<glyph unicode="y" horiz-adv-x="1049" d="M1082 1020q-65 -152 -129.5 -293t-130 -271t-131.5 -247.5t-132 -220t-132.5 -188t-131.5 -149.5q-43 -42 -87 -75.5t-88.5 -56t-88 -34.5t-84.5 -12q-20 0 -38.5 1t-36 2.5t-33.5 4t-30 6.5l24 122q28 -10 61 -15t69 -5q57 0 124 37.5t125 102.5q35 39 59.5 79t40.5 84 t23.5 95t7.5 112q0 85 -7.5 181.5t-21.5 201t-34.5 213t-46.5 218.5q-35 7 -79.5 12t-90.5 8l14 71q33 4 67 7t69.5 5t71 2.5t67.5 -0.5q26 -108 48 -221.5t37.5 -223t24 -207t8.5 -173.5q0 -41 -5.5 -88.5t-15.5 -91.5h2q68 115 130.5 232.5t124 243t123.5 265t132 305.5z " />
<glyph unicode="z" horiz-adv-x="872" d="M836 928l-668 -818q24 1 57.5 1.5t71.5 1t78 1t76 0.5h138q12 40 28 84.5t35 89.5h72l-55 -288h-672l17 92l668 821q-26 -1 -57 -1.5t-66.5 -1t-73.5 -1t-81 -0.5h-121q-14 -43 -27.5 -83.5t-31.5 -84.5h-74l54 277h650z" />
<glyph unicode="{" horiz-adv-x="655" d="M774 1475q-55 0 -95 -13.5t-68.5 -43.5t-47 -78.5t-31.5 -118.5l-54 -283q-13 -66 -34.5 -116.5t-52 -86t-69.5 -57t-88 -27.5v-4q44 -6 75 -28.5t47.5 -58t19.5 -84.5t-9 -108l-80 -414q-13 -71 -13 -119.5t16.5 -78t50 -42.5t87.5 -13l-18 -99h-32q-78 0 -126 26 t-71.5 73t-25 113t14.5 147l82 416q12 59 8.5 100t-24.5 67t-61 38.5t-100 16.5l21 108q65 4 110.5 16.5t75.5 38t48 66t29 101.5l54 284q13 71 38 136t65.5 114.5t99 79t139.5 29.5h36z" />
<glyph unicode="|" horiz-adv-x="567" d="M137 -513h-100l389 2048h100z" />
<glyph unicode="}" horiz-adv-x="657" d="M623 599q-66 -4 -111 -16t-75 -37.5t-47.5 -66.5t-29.5 -102l-78 -414q-17 -90 -44 -157.5t-68 -112t-97.5 -67t-132.5 -22.5h-36l19 99q55 0 94.5 13t67.5 42.5t46.5 78t31.5 118.5l78 413q12 66 33.5 117t51.5 86.5t70 56.5t89 27v5q-44 7 -74.5 28.5t-47.5 57.5 t-20 84.5t9 107.5l56 285q14 70 14 118.5t-16.5 78.5t-50.5 43.5t-88 13.5l18 97h27q79 0 128 -28.5t73 -77.5t25.5 -114.5t-13.5 -138.5l-58 -286q-12 -60 -8 -100t24.5 -66t60.5 -39t100 -17z" />
<glyph unicode="~" d="M1116 1162q-3 -65 -23.5 -118.5t-56 -91t-83 -58.5t-105.5 -21q-55 0 -93.5 17t-66.5 43.5t-50.5 56.5t-46 56t-51.5 43.5t-69 17.5q-36 0 -64 -16t-48.5 -42t-32 -61.5t-14.5 -74.5h-97q3 65 24 118t56 91.5t83 59t105 20.5q55 0 93.5 -17t66.5 -43t50.5 -57t46 -57 t51.5 -43t69 -17q37 0 65 15.5t48 42t31.5 62t14.5 74.5h97v0z" />
<glyph unicode="&#xa1;" horiz-adv-x="639" d="M472 938q0 -21 -7.5 -39t-20.5 -31t-31 -21t-38 -8t-37.5 7.5t-30 21t-20 30.5t-7.5 37t7.5 38t20.5 31.5t31 21t38 7.5t38 -7.5t30.5 -20.5t19.5 -30.5t7 -36.5zM196 -415h-151l237 1117h102z" />
<glyph unicode="&#xa2;" horiz-adv-x="938" d="M684 1100q-94 0 -173 -33.5t-136.5 -97.5t-89 -154t-31.5 -201q0 -58 15.5 -108.5t48.5 -89.5t86.5 -61t127.5 -22q66 0 132.5 15t130.5 41l5 -101q-29 -13 -60.5 -23t-64.5 -18t-65.5 -13t-64.5 -8l-55 -278h-105l53 277q-83 6 -144.5 33.5t-101 73.5t-59 108.5 t-19.5 138.5q0 128 37.5 236t107 189t163.5 130.5t205 63.5l47 234h106l-44 -229q28 0 58 -3t60 -8t57 -11.5t50 -14.5l-55 -276h-75q-1 14 -0.5 59.5t8.5 129.5q-31 10 -70.5 15.5t-84.5 5.5z" />
<glyph unicode="&#xa3;" horiz-adv-x="983" d="M-13 0l17 91q51 32 91.5 64.5t72 67.5t55.5 73.5t41 81t29 90.5t20 102t13 118h-229l20 98h213q5 79 12 144.5t20 125.5t34 112.5t53 94.5t76.5 72.5t104.5 46.5t136 16q46 0 95.5 -6t84.5 -16l-54 -277h-76q-1 45 0 91t4 91q-18 6 -43 9.5t-45 3.5q-73 0 -122 -25.5 t-77 -71.5t-42 -107.5t-19.5 -118.5t-13.5 -185h327l-19 -98h-316q-7 -63 -13 -107.5t-15.5 -88t-23 -85t-34 -81t-49 -77t-67 -73.5t-88.5 -71q43 4 89 7t88 3h340q11 42 28 89t38 100h79l-59 -304h-776z" />
<glyph unicode="&#xa4;" d="M919 927q16 -25 25.5 -60.5t9.5 -84.5q0 -44 -8 -90t-24.5 -91t-44 -88.5t-66.5 -81.5l138 -222l-99 -69l-127 230q-50 -30 -103 -45t-102 -15q-54 0 -92 8t-64 24l-188 -201l-83 73l192 190q-22 29 -34.5 71t-12.5 98q0 47 9 96.5t28 97.5t49 91.5t73 80.5l-128 203 l101 66l116 -212q46 23 93.5 33.5t93.5 10.5q47 0 94.5 -9t83.5 -35l202 213l75 -73zM833 761q0 38 -10 70.5t-32.5 56.5t-57.5 38t-86 14q-71 0 -125 -31t-90 -80.5t-54.5 -111.5t-18.5 -124q0 -39 10 -72.5t31.5 -58t56.5 -38.5t86 -14q63 0 116.5 30.5t92 81t60 113 t21.5 126.5z" />
<glyph unicode="&#xa5;" horiz-adv-x="1182" d="M1323 1312q-28 -7 -67 -14.5t-70 -11.5l-485 -711h312l-18 -93h-346l-30 -159h345l-18 -93h-344l-28 -134q45 -3 89.5 -10.5t80.5 -18.5l-12 -67h-482l13 67q40 11 87 18.5t93 10.5l27 134h-346l17 93h348l29 159h-345l18 93h311l-199 711q-30 4 -66.5 11.5t-60.5 14.5 l13 70h445l-14 -70q-38 -10 -82 -17t-90 -11l106 -420q19 -70 34 -129t27 -115h2q34 57 75 119.5t97 143.5l260 401q-45 4 -86 11t-77 17l15 70h435z" />
<glyph unicode="&#xa6;" horiz-adv-x="567" d="M382 781h-100l142 754h101zM135 -513h-100l146 774h100z" />
<glyph unicode="&#xa7;" horiz-adv-x="1030" d="M858 1376q-37 12 -67 17t-58 5q-70 0 -114.5 -24t-71 -58.5t-36.5 -73.5t-10 -69q0 -47 24 -94.5t60.5 -96.5t78.5 -101t78.5 -109t60.5 -120t24 -134q0 -47 -13 -92.5t-40 -89t-68.5 -84t-96.5 -77.5q19 -36 30.5 -74t11.5 -83q0 -67 -26.5 -130.5t-75 -112.5 t-117.5 -78.5t-154 -29.5q-40 0 -81 5t-78 17l25 111q41 -13 74.5 -20t70.5 -7q62 0 106 22.5t72 57t40.5 74t12.5 72.5q0 50 -24 98.5t-60 98.5t-77.5 102.5t-77.5 109t-60 118.5t-24 132q0 47 12.5 92t38.5 88.5t67.5 84.5t99.5 81q-25 47 -36 85t-11 76q0 31 8.5 68 t26.5 74.5t47 73t70 63t95.5 44t124.5 16.5q35 0 73.5 -4.5t68.5 -13.5zM700 500q0 53 -21.5 104.5t-55 103t-74 103.5t-77.5 107q-82 -50 -116 -113.5t-34 -129.5q0 -53 21.5 -104.5t54.5 -102.5t73.5 -102.5t78.5 -104.5q41 24 69 53.5t46 60.5t26.5 62.5t8.5 62.5z" />
<glyph unicode="&#xa8;" horiz-adv-x="1096" d="M966 1353q0 -20 -7.5 -37t-19.5 -29.5t-28.5 -19t-35.5 -6.5q-18 0 -33.5 6.5t-27 18t-18 27t-6.5 32.5q0 20 7.5 36.5t19.5 29.5t28.5 19.5t35.5 6.5t34.5 -6.5t27 -18.5t17.5 -27t6 -32zM588 1353q0 -20 -7 -37t-19.5 -29.5t-29 -19t-34.5 -6.5q-19 0 -34.5 6.5t-27 18 t-18 27t-6.5 32.5q0 20 7 36.5t19.5 29.5t29 19.5t35.5 6.5q18 0 33.5 -6.5t27 -18.5t18 -27t6.5 -32z" />
<glyph unicode="&#xa9;" horiz-adv-x="1509" d="M1446 716q0 -100 -25.5 -191.5t-71 -169.5t-108.5 -141.5t-139.5 -108.5t-164 -69t-180.5 -24q-95 0 -180 22.5t-156 64.5t-127.5 101t-96 131t-60.5 155.5t-21 174.5q1 100 26.5 191t70.5 168.5t108 141t140 108.5t164.5 69t182.5 24q92 0 175.5 -22.5t154.5 -64.5 t128 -100.5t97.5 -131t62 -155.5t20.5 -173zM1338 714q0 112 -40 211.5t-111.5 173.5t-170 118t-213.5 44q-119 0 -223.5 -45.5t-183 -124.5t-124.5 -188.5t-46 -237.5q0 -114 40 -214.5t111.5 -175.5t170 -119t214.5 -44q78 0 151.5 20.5t137 58.5t116.5 92t91 121 t58.5 145t21.5 165zM991 798h-64q0 38 1 77.5t4 78.5q-19 3 -38 4.5t-37 1.5q-53 0 -93.5 -17t-72 -45t-52 -65.5t-34 -78t-19.5 -81.5t-6 -78q-1 -42 8.5 -75t30 -55t52 -33.5t76.5 -11.5q44 0 90 7.5t91 22.5l-2 -95q-24 -8 -50 -13.5t-52 -9t-50.5 -5.5t-45.5 -2 q-76 0 -127.5 18t-83 51t-44.5 78.5t-12 100.5q1 100 30.5 187t82.5 151.5t130 102t172 37.5q42 0 86.5 -5.5t74.5 -11.5z" />
<glyph unicode="&#xaa;" horiz-adv-x="793" d="M797 739q-25 -3 -54.5 -5.5t-60 -4t-59.5 -1.5t-54 1q6 34 22.5 90t41.5 131h-2q-50 -109 -125.5 -170t-165.5 -61q-85 0 -124.5 49t-39.5 147q0 94 27 179.5t80 152.5t132 105.5t179 38.5q54 0 105 -4t102 -13q-20 -104 -31.5 -163t-25.5 -132t-26 -140t-20 -116 q15 -2 29.5 -4.5t29 -4t28.5 -3t26 -2.5zM694 485h-559l21 103h559zM678 1288q-28 7 -55 9.5t-54 2.5q-65 0 -117.5 -30.5t-89 -82t-55 -115.5t-18.5 -130q0 -68 20 -97.5t60 -29.5q49 0 96 33.5t87 92t69.5 133t44.5 153.5z" />
<glyph unicode="&#xab;" horiz-adv-x="973" d="M637 603l176 -288l-103 -58l-207 351l314 344l87 -63zM280 603l159 -289l-103 -58l-189 353l297 344l87 -62z" />
<glyph unicode="&#xac;" d="M922 223h-111l63 332h-776l22 109h886z" />
<glyph unicode="&#xae;" horiz-adv-x="1128" d="M1092 1102q0 -96 -37.5 -178.5t-99.5 -143.5t-142.5 -95.5t-165.5 -34.5q-88 0 -161.5 30.5t-127.5 85.5t-84.5 128.5t-30.5 159.5q0 98 37 182t99 145t143 95t168 34q86 0 159.5 -30.5t127.5 -85t84.5 -129.5t30.5 -163zM995 1097q0 65 -24 124t-65 103.5t-98 71 t-122 26.5q-68 0 -130 -27t-109.5 -75t-76 -112.5t-28.5 -140.5q0 -66 24 -125.5t65 -104.5t97.5 -72t122.5 -27q68 0 130 27.5t109.5 75.5t76 113.5t28.5 142.5zM863 1220q0 -35 -11.5 -61.5t-31 -46t-44.5 -32t-52 -16.5q6 -9 14 -27.5t16 -37.5l33 -88q13 -2 27 -7.5 t26 -12.5l-7 -44h-110l-76 208h-26l-26 -144q14 -4 25.5 -8.5t23.5 -11.5l-7 -44h-184l7 44q14 8 26.5 13t29.5 7l64 345q-15 3 -28 8.5t-23 10.5l10 46h51h68h66q36 0 63 -6.5t43.5 -20t25 -32t7.5 -42.5zM780 1209q0 24 -15 35t-48 11h-29h-28l-27 -143h17.5h16.5 q27 0 48 8t35.5 21.5t22 31t7.5 36.5z" />
<glyph unicode="&#xaf;" horiz-adv-x="793" d="M783 1287h-481l20 100h480z" />
<glyph unicode="&#xb0;" horiz-adv-x="737" d="M755 1278q0 -61 -22 -110t-60 -82.5t-85 -50.5t-97 -17q-55 0 -99 16.5t-74 46.5t-45.5 71t-15.5 90q0 61 22 110t60 82.5t85 50.5t97 17q56 0 100.5 -16.5t74 -47t44.5 -71.5t15 -89zM646 1269q0 24 -6.5 49t-21.5 46.5t-41.5 35t-64.5 13.5q-30 0 -56.5 -11t-46.5 -32 t-31.5 -51t-11.5 -67q0 -66 36 -105.5t99 -39.5q30 0 56.5 11t46.5 32.5t31 51.5t11 67z" />
<glyph unicode="&#xb1;" d="M1067 672h-412l-80 -421h-122l81 421h-412l19 108h412l80 419h122l-81 -419h412zM938 0h-943l21 109h943z" />
<glyph unicode="&#xb2;" horiz-adv-x="686" d="M754 1405q0 -91 -59 -185.5t-181 -189.5l-211 -166q66 3 150.5 3.5t236.5 0.5l-20 -114h-551l18 94l279 223q121 96 163 171t42 155q0 48 -34 78t-98 30q-28 0 -56 -4.5t-52 -13.5q-5 -19 -19.5 -64t-35.5 -96h-78l47 242q47 17 106 27t107 10q124 0 185 -54t61 -147z " />
<glyph unicode="&#xb3;" horiz-adv-x="672" d="M739 1423q0 -42 -14 -79t-40 -67.5t-61 -53t-77 -35.5q72 -13 112.5 -57t40.5 -109q0 -50 -24.5 -100.5t-72.5 -92t-119 -66t-160 -24.5q-53 0 -106 6t-89 15l35 106q37 -11 85.5 -18.5t88.5 -7.5q120 0 175.5 52t55.5 122q0 32 -16 56.5t-52 40t-94.5 20t-140.5 -4.5 l19 97q172 0 250.5 49t78.5 137q0 51 -35 75.5t-98 24.5q-21 0 -47.5 -3t-44.5 -7q-10 -35 -21.5 -67t-25.5 -66h-76l41 217q37 10 92 16.5t99 6.5q61 0 107 -13t75.5 -36.5t44 -57.5t14.5 -76z" />
<glyph unicode="&#xb4;" horiz-adv-x="772" d="M404 1184l-58 70l276 254l75 -89z" />
<glyph unicode="&#xb6;" horiz-adv-x="1128" d="M1141 1286h-150l-283 -1483h-123h-151l18 97h152l282 1482h126h146zM575 532q-92 -1 -158.5 23.5t-109.5 69.5t-64 105.5t-21 131.5q0 60 15 122t44 120t73 108.5t101.5 88t127.5 59.5t154 22z" />
<glyph unicode="&#xb7;" horiz-adv-x="428" d="M332 612q0 -22 -8.5 -41.5t-24 -34.5t-35 -23.5t-40.5 -8.5q-20 0 -38.5 8t-32 22t-21.5 32t-8 38q0 22 9 42t24 35t35 23t41 8q20 0 38 -7.5t32 -21.5t21.5 -32.5t7.5 -38.5z" />
<glyph unicode="&#xb8;" horiz-adv-x="803" d="M406 -84q30 -49 37.5 -97.5t-6 -97.5t-45 -99.5t-79.5 -104.5h-123q49 54 80.5 99t44.5 85.5t6 80.5t-35 83l120 51v0z" />
<glyph unicode="&#xb9;" horiz-adv-x="588" d="M598 754h-473l14 69q35 11 82.5 18.5t104.5 10.5l120 627l-200 -74l-4 100l241 86h109l-139 -739q38 -3 80 -10.5t79 -18.5z" />
<glyph unicode="&#xba;" horiz-adv-x="836" d="M831 1163q0 -108 -33.5 -192.5t-90 -140.5t-126.5 -83.5t-143 -27.5q-58 0 -102.5 13t-75.5 41t-47 71.5t-16 103.5q0 87 26.5 168t76 144.5t120 100t155.5 36.5q67 0 115.5 -16t79.5 -46t46 -73t15 -99zM672 485h-531l23 103h528zM702 1145q0 31 -7 58t-23 48t-43 33 t-66 12q-62 0 -107.5 -30.5t-74 -80t-42 -105.5t-13.5 -107q0 -72 32.5 -111t98.5 -39q53 0 98 24.5t78 69t51 103t18 125.5z" />
<glyph unicode="&#xbb;" horiz-adv-x="973" d="M599 258l-88 63l251 286l-159 290l103 58l190 -353zM225 259l-87 63l267 285l-175 288l103 59l205 -352z" />
<glyph unicode="&#xbc;" horiz-adv-x="1657" d="M598 754h-473l14 69q35 11 82.5 18.5t104.5 10.5l120 627l-200 -74l-4 100l241 86h109l-139 -739q38 -3 80 -10.5t79 -18.5zM118 -275l-79 63l1624 1851l77 -63zM1057 -207l11 58q35 9 78 16t82 11l21 114h-385l8 90l449 547h168l-101 -535h140l-21 -102h-139l-22 -114 q38 -4 72 -11t65 -16l-12 -58h-414zM1354 531l-362 -442q28 1 67 2t78.5 1.5t75 0.5h58.5z" />
<glyph unicode="&#xbd;" horiz-adv-x="1718" d="M598 754h-473l14 69q35 11 82.5 18.5t104.5 10.5l120 627l-200 -74l-4 100l241 86h109l-139 -739q38 -3 80 -10.5t79 -18.5zM118 -275l-79 63l1624 1851l77 -63zM1603 443q0 -91 -59 -185.5t-181 -189.5l-211 -166q66 3 150.5 3.5t236.5 0.5l-20 -114h-551l18 94l279 223 q121 96 163 171t42 155q0 48 -34 78t-98 30q-28 0 -56 -4.5t-52 -13.5q-5 -19 -19.5 -64t-35.5 -96h-78l47 242q47 17 106 27t107 10q124 0 185 -54t61 -147z" />
<glyph unicode="&#xbe;" horiz-adv-x="1645" d="M739 1423q0 -42 -14 -79t-40 -67.5t-61 -53t-77 -35.5q72 -13 112.5 -57t40.5 -109q0 -50 -24.5 -100.5t-72.5 -92t-119 -66t-160 -24.5q-53 0 -106 6t-89 15l35 106q37 -11 85.5 -18.5t88.5 -7.5q120 0 175.5 52t55.5 122q0 32 -16 56.5t-52 40t-94.5 20t-140.5 -4.5 l19 97q172 0 250.5 49t78.5 137q0 51 -35 75.5t-98 24.5q-21 0 -47.5 -3t-44.5 -7q-10 -35 -21.5 -67t-25.5 -66h-76l41 217q37 10 92 16.5t99 6.5q61 0 107 -13t75.5 -36.5t44 -57.5t14.5 -76zM107 -275l-79 63l1624 1851l77 -63zM1046 -207l11 58q35 9 78 16t82 11l21 114 h-385l8 90l449 547h168l-101 -535h140l-21 -102h-139l-22 -114q38 -4 72 -11t65 -16l-12 -58h-414zM1343 531l-362 -442q28 1 67 2t78.5 1.5t75 0.5h58.5z" />
<glyph unicode="&#xbf;" horiz-adv-x="885" d="M676 938q0 -21 -7.5 -39t-20.5 -31t-31 -21t-38 -8q-21 0 -38 7.5t-29.5 21t-19.5 30.5t-7 37t7 38t20 31.5t30.5 21t38.5 7.5t38.5 -7.5t30 -20.5t19.5 -30.5t7 -36.5zM600 702q11 -83 -1.5 -148.5t-41 -118.5t-68.5 -96t-83 -80t-85.5 -72t-76 -71.5t-54.5 -77 t-21 -91.5q0 -47 28 -89t77 -75.5t115.5 -56.5t142.5 -33l-38 -119q-107 12 -193 46t-146.5 83t-93.5 109t-33 126q0 62 21 111t56 90t78.5 77t88 72.5t85 76.5t70 89t43 109.5t2.5 138.5h128z" />
<glyph unicode="&#xc0;" horiz-adv-x="1378" d="M1268 0h-441l13 70q40 10 85.5 17.5t89.5 10.5l-42 264h-624l-146 -264q40 -3 83.5 -10.5t78.5 -17.5l-13 -70h-440l13 70q29 8 66 15.5t67 10.5l725 1286h143l228 -1284q14 -1 31 -4t34.5 -7t34 -8.5t29.5 -8.5zM854 1053l-16.5 121t-9.5 72h-2q-17 -39 -38.5 -80.5 t-56.5 -107.5l-326 -589h551zM936 1498l-361 120l53 109l342 -149z" />
<glyph unicode="&#xc1;" horiz-adv-x="1378" d="M1268 0h-441l13 70q40 10 85.5 17.5t89.5 10.5l-42 264h-624l-146 -264q40 -3 83.5 -10.5t78.5 -17.5l-13 -70h-440l13 70q29 8 66 15.5t67 10.5l725 1286h143l228 -1284q14 -1 31 -4t34.5 -7t34 -8.5t29.5 -8.5zM854 1053l-16.5 121t-9.5 72h-2q-17 -39 -38.5 -80.5 t-56.5 -107.5l-326 -589h551zM775 1498l-27 80l356 149l36 -109z" />
<glyph unicode="&#xc2;" horiz-adv-x="1378" d="M1268 0h-441l13 70q40 10 85.5 17.5t89.5 10.5l-42 264h-624l-146 -264q40 -3 83.5 -10.5t78.5 -17.5l-13 -70h-440l13 70q29 8 66 15.5t67 10.5l725 1286h143l228 -1284q14 -1 31 -4t34.5 -7t34 -8.5t29.5 -8.5zM854 1053l-16.5 121t-9.5 72h-2q-17 -39 -38.5 -80.5 t-56.5 -107.5l-326 -589h551zM1144 1494l-244 134l-285 -134l-38 80l335 171l282 -166z" />
<glyph unicode="&#xc3;" horiz-adv-x="1378" d="M1268 0h-441l13 70q40 10 85.5 17.5t89.5 10.5l-42 264h-624l-146 -264q40 -3 83.5 -10.5t78.5 -17.5l-13 -70h-440l13 70q29 8 66 15.5t67 10.5l725 1286h143l228 -1284q14 -1 31 -4t34.5 -7t34 -8.5t29.5 -8.5zM854 1053l-16.5 121t-9.5 72h-2q-17 -39 -38.5 -80.5 t-56.5 -107.5l-326 -589h551zM1234 1654q-40 -66 -95 -102t-119 -36q-50 0 -85 17.5t-64 39t-56 39t-62 17.5q-18 0 -35.5 -5.5t-35 -17.5t-34.5 -30t-33 -41l-66 52q39 66 93 102t119 36q50 0 85 -17.5t64 -39t56 -39t61 -17.5q35 0 70 23.5t68 70.5l69 -52v0z" />
<glyph unicode="&#xc4;" horiz-adv-x="1378" d="M1268 0h-441l13 70q40 10 85.5 17.5t89.5 10.5l-42 264h-624l-146 -264q40 -3 83.5 -10.5t78.5 -17.5l-13 -70h-440l13 70q29 8 66 15.5t67 10.5l725 1286h143l228 -1284q14 -1 31 -4t34.5 -7t34 -8.5t29.5 -8.5zM854 1053l-16.5 121t-9.5 72h-2q-17 -39 -38.5 -80.5 t-56.5 -107.5l-326 -589h551zM1187 1594q0 -19 -7.5 -35.5t-19.5 -28.5t-28.5 -19t-34.5 -7t-33.5 6.5t-27 18t-18 27t-6.5 33.5q0 19 7 35t19.5 28.5t28.5 19.5t35 7q18 0 33.5 -6.5t26.5 -18t18 -27t7 -33.5zM762 1594q0 -19 -7.5 -35.5t-19.5 -28.5t-28 -19t-35 -7 q-18 0 -33.5 6.5t-27 18t-18 27t-6.5 33.5q0 19 7.5 35t19.5 28.5t28 19.5t35 7q18 0 33.5 -6.5t27 -18t18 -27t6.5 -33.5z" />
<glyph unicode="&#xc5;" horiz-adv-x="1378" d="M1268 0h-441l13 70q40 10 85.5 17.5t89.5 10.5l-42 264h-624l-146 -264q40 -3 83.5 -10.5t78.5 -17.5l-13 -70h-440l13 70q29 8 66 15.5t67 10.5l725 1286h143l228 -1284q14 -1 31 -4t34.5 -7t34 -8.5t29.5 -8.5zM854 1053l-16.5 121t-9.5 72h-2q-17 -39 -38.5 -80.5 t-56.5 -107.5l-326 -589h551zM1099 1670q0 -45 -17.5 -83t-47 -66.5t-67 -44.5t-77.5 -16t-73.5 13.5t-58.5 37t-39.5 57t-14.5 73.5q0 46 18 85t47.5 66.5t68 43t77.5 15.5q40 0 74 -14t58 -38t38 -57.5t14 -71.5zM1012 1664q0 21 -7 41t-21 34.5t-33 23.5t-42 9t-44 -9.5 t-37.5 -26.5t-27 -39.5t-10.5 -49.5q0 -21 8 -41t22 -34.5t33.5 -23.5t42.5 -9q22 0 43.5 9.5t37.5 26.5t25.5 39.5t9.5 49.5z" />
<glyph unicode="&#xc6;" horiz-adv-x="1669" d="M1606 1086h-80q-2 53 -1.5 103t5.5 89h-419l-98 -514h338q14 43 30.5 83t33.5 76h71l-80 -419h-72q-5 35 -5 76.5t3 82.5h-338l-107 -556h439q14 42 32 93.5t39 103.5h81l-57 -304h-850l14 70q41 11 84.5 18t87.5 10l52 263h-484l-192 -263q42 -3 82 -10.5t76 -17.5 l-13 -70h-440l15 70q28 8 65 15.5t67 10.5l878 1188q-45 4 -88 11t-80 17l15 70h954zM977 1272q-15 -25 -33.5 -51.5t-40.5 -59t-50.5 -72.5t-65.5 -91l-388 -531h429l154 805h-5z" />
<glyph unicode="&#xc7;" horiz-adv-x="1171" d="M1151 1060h-81q0 51 1.5 99.5t9.5 97.5q-57 17 -109.5 23t-107.5 6q-104 0 -190 -32t-153.5 -89.5t-117 -134.5t-81.5 -167.5t-47.5 -189.5t-15.5 -199q0 -82 18 -150.5t61 -118t114.5 -77t178.5 -27.5q37 0 83.5 6.5t94.5 17t93 25t81 31.5l14 -116q-88 -37 -191 -58 t-203 -21q-94 0 -166.5 17t-127 48t-91 73.5t-59.5 94.5t-33 112t-10 124q0 124 22.5 242t66.5 222t110 192t153 151.5t194.5 99t234.5 35.5q91 0 166.5 -11.5t146.5 -30.5zM566 -84q30 -49 37.5 -97.5t-6 -97.5t-45 -99.5t-79.5 -104.5h-123q49 54 80.5 99t44.5 85.5 t6 80.5t-35 83l120 51v0z" />
<glyph unicode="&#xc8;" horiz-adv-x="1057" d="M1011 1086h-82q0 53 0.5 103t5.5 89h-427l-97 -514h339q14 43 28.5 83t35.5 76h70l-79 -419h-72q-6 35 -6.5 75.5t2.5 83.5h-336l-106 -556h427q14 42 32.5 94t37.5 103h82l-57 -304h-847l15 70q41 10 87.5 17.5t93.5 10.5l223 1186q-45 4 -89 11t-81 17l15 70h842z M798 1498l-361 120l53 109l342 -149z" />
<glyph unicode="&#xc9;" horiz-adv-x="1057" d="M1011 1086h-82q0 53 0.5 103t5.5 89h-427l-97 -514h339q14 43 28.5 83t35.5 76h70l-79 -419h-72q-6 35 -6.5 75.5t2.5 83.5h-336l-106 -556h427q14 42 32.5 94t37.5 103h82l-57 -304h-847l15 70q41 10 87.5 17.5t93.5 10.5l223 1186q-45 4 -89 11t-81 17l15 70h842z M624 1498l-27 80l356 149l36 -109z" />
<glyph unicode="&#xca;" horiz-adv-x="1057" d="M1011 1086h-82q0 53 0.5 103t5.5 89h-427l-97 -514h339q14 43 28.5 83t35.5 76h70l-79 -419h-72q-6 35 -6.5 75.5t2.5 83.5h-336l-106 -556h427q14 42 32.5 94t37.5 103h82l-57 -304h-847l15 70q41 10 87.5 17.5t93.5 10.5l223 1186q-45 4 -89 11t-81 17l15 70h842z M986 1494l-244 134l-285 -134l-38 80l335 171l282 -166z" />
<glyph unicode="&#xcb;" horiz-adv-x="1057" d="M1011 1086h-82q0 53 0.5 103t5.5 89h-427l-97 -514h339q14 43 28.5 83t35.5 76h70l-79 -419h-72q-6 35 -6.5 75.5t2.5 83.5h-336l-106 -556h427q14 42 32.5 94t37.5 103h82l-57 -304h-847l15 70q41 10 87.5 17.5t93.5 10.5l223 1186q-45 4 -89 11t-81 17l15 70h842z M1017 1594q0 -19 -7.5 -35.5t-19.5 -28.5t-28.5 -19t-34.5 -7t-33.5 6.5t-27 18t-18 27t-6.5 33.5q0 19 7 35t19.5 28.5t28.5 19.5t35 7q18 0 33.5 -6.5t26.5 -18t18 -27t7 -33.5zM592 1594q0 -19 -7.5 -35.5t-19.5 -28.5t-28 -19t-35 -7q-18 0 -33.5 6.5t-27 18t-18 27 t-6.5 33.5q0 19 7.5 35t19.5 28.5t28 19.5t35 7q18 0 33.5 -6.5t27 -18t18 -27t6.5 -33.5z" />
<glyph unicode="&#xcc;" horiz-adv-x="604" d="M691 1312q-42 -10 -88 -17t-92 -11l-227 -1186q45 -3 89 -10.5t81 -17.5l-13 -70h-479l13 70q42 10 89 17.5t92 10.5l225 1186q-45 4 -88 11t-80 17l13 70h477zM575 1498l-361 120l53 109l342 -149z" />
<glyph unicode="&#xcd;" horiz-adv-x="604" d="M691 1312q-42 -10 -88 -17t-92 -11l-227 -1186q45 -3 89 -10.5t81 -17.5l-13 -70h-479l13 70q42 10 89 17.5t92 10.5l225 1186q-45 4 -88 11t-80 17l13 70h477zM407 1498l-27 80l356 149l36 -109z" />
<glyph unicode="&#xce;" horiz-adv-x="604" d="M691 1312q-42 -10 -88 -17t-92 -11l-227 -1186q45 -3 89 -10.5t81 -17.5l-13 -70h-479l13 70q42 10 89 17.5t92 10.5l225 1186q-45 4 -88 11t-80 17l13 70h477zM767 1494l-244 134l-285 -134l-38 80l335 171l282 -166z" />
<glyph unicode="&#xcf;" horiz-adv-x="604" d="M691 1312q-42 -10 -88 -17t-92 -11l-227 -1186q45 -3 89 -10.5t81 -17.5l-13 -70h-479l13 70q42 10 89 17.5t92 10.5l225 1186q-45 4 -88 11t-80 17l13 70h477zM803 1594q0 -19 -7.5 -35.5t-19.5 -28.5t-28.5 -19t-34.5 -7t-33.5 6.5t-27 18t-18 27t-6.5 33.5q0 19 7 35 t19.5 28.5t28.5 19.5t35 7q18 0 33.5 -6.5t26.5 -18t18 -27t7 -33.5zM378 1594q0 -19 -7.5 -35.5t-19.5 -28.5t-28 -19t-35 -7q-18 0 -33.5 6.5t-27 18t-18 27t-6.5 33.5q0 19 7.5 35t19.5 28.5t28 19.5t35 7q18 0 33.5 -6.5t27 -18t18 -27t6.5 -33.5z" />
<glyph unicode="&#xd0;" horiz-adv-x="1444" d="M1394 886q0 -113 -23.5 -223t-72 -209t-123 -183t-175.5 -145.5t-229.5 -96.5t-286.5 -35q-54 0 -98.5 1t-84 2t-74.5 2t-68 1h-172l12 70q42 10 87 17.5t91 10.5l109 566h-203l19 102h203l99 518q-45 4 -88 11t-80 17l13 70h171q32 0 78 1t96.5 2.5t102.5 2.5t98 1 q168 0 283 -39t185 -107t100.5 -160t30.5 -197zM1257 869q0 88 -23 163.5t-78.5 131t-148.5 87t-232 31.5q-33 0 -66.5 -0.5t-65 -1.5t-60.5 -2t-51 -2l-98 -510h322l-21 -102h-321l-103 -548q23 -3 49 -5.5t52 -4.5t50 -3t42 -1q134 0 242 31t191.5 84.5t144 127t99.5 159 t57.5 178.5t18.5 187z" />
<glyph unicode="&#xd1;" horiz-adv-x="1485" d="M1568 1312q-35 -9 -74 -16t-78 -12l-245 -1284h-160l-412 962q-31 75 -60 148.5t-50 143.5q-10 -69 -22 -145t-26 -154.5t-27.5 -156.5t-27.5 -150l-99 -550q43 -3 85.5 -10t78.5 -18l-13 -70h-474l13 70q42 10 88.5 17.5t92.5 10.5l223 1186q-45 4 -88 11t-80 17l13 70 h336l411 -960q30 -69 58 -141.5t53 -145.5q10 61 22 130t25 141.5t26 146t25 142.5l106 589q-44 4 -85.5 10.5t-78.5 17.5l14 70h443zM1304 1654q-40 -66 -95 -102t-119 -36q-50 0 -85 17.5t-64 39t-56 39t-62 17.5q-18 0 -35.5 -5.5t-35 -17.5t-34.5 -30t-33 -41l-66 52 q39 66 93 102t119 36q50 0 85 -17.5t64 -39t56 -39t61 -17.5q35 0 70 23.5t68 70.5l69 -52v0z" />
<glyph unicode="&#xd2;" horiz-adv-x="1417" d="M1375 901q0 -131 -27.5 -250t-78.5 -221t-122.5 -184.5t-159 -141t-187.5 -90t-209 -31.5q-121 0 -212 33.5t-151 97.5t-90 157t-30 212q0 126 27 243t76.5 218.5t120 185.5t157 144t187.5 93t212 33q118 0 208.5 -33.5t152.5 -97.5t94 -157t32 -211zM1233 886 q0 93 -23 167.5t-68 126.5t-114 80t-162 28q-89 0 -168.5 -28.5t-148 -79.5t-124 -123.5t-94.5 -160t-60.5 -188t-21.5 -208.5q0 -92 23.5 -167t68.5 -127.5t111.5 -80.5t154.5 -28q84 0 164 27.5t149 77t127 121t99 159t64 190t23 214.5zM978 1498l-361 120l53 109 l342 -149z" />
<glyph unicode="&#xd3;" horiz-adv-x="1417" d="M1375 901q0 -131 -27.5 -250t-78.5 -221t-122.5 -184.5t-159 -141t-187.5 -90t-209 -31.5q-121 0 -212 33.5t-151 97.5t-90 157t-30 212q0 126 27 243t76.5 218.5t120 185.5t157 144t187.5 93t212 33q118 0 208.5 -33.5t152.5 -97.5t94 -157t32 -211zM1233 886 q0 93 -23 167.5t-68 126.5t-114 80t-162 28q-89 0 -168.5 -28.5t-148 -79.5t-124 -123.5t-94.5 -160t-60.5 -188t-21.5 -208.5q0 -92 23.5 -167t68.5 -127.5t111.5 -80.5t154.5 -28q84 0 164 27.5t149 77t127 121t99 159t64 190t23 214.5zM859 1498l-27 80l356 149l36 -109z " />
<glyph unicode="&#xd4;" horiz-adv-x="1417" d="M1375 901q0 -131 -27.5 -250t-78.5 -221t-122.5 -184.5t-159 -141t-187.5 -90t-209 -31.5q-121 0 -212 33.5t-151 97.5t-90 157t-30 212q0 126 27 243t76.5 218.5t120 185.5t157 144t187.5 93t212 33q118 0 208.5 -33.5t152.5 -97.5t94 -157t32 -211zM1233 886 q0 93 -23 167.5t-68 126.5t-114 80t-162 28q-89 0 -168.5 -28.5t-148 -79.5t-124 -123.5t-94.5 -160t-60.5 -188t-21.5 -208.5q0 -92 23.5 -167t68.5 -127.5t111.5 -80.5t154.5 -28q84 0 164 27.5t149 77t127 121t99 159t64 190t23 214.5zM1185 1494l-244 134l-285 -134 l-38 80l335 171l282 -166z" />
<glyph unicode="&#xd5;" horiz-adv-x="1417" d="M1375 901q0 -131 -27.5 -250t-78.5 -221t-122.5 -184.5t-159 -141t-187.5 -90t-209 -31.5q-121 0 -212 33.5t-151 97.5t-90 157t-30 212q0 126 27 243t76.5 218.5t120 185.5t157 144t187.5 93t212 33q118 0 208.5 -33.5t152.5 -97.5t94 -157t32 -211zM1233 886 q0 93 -23 167.5t-68 126.5t-114 80t-162 28q-89 0 -168.5 -28.5t-148 -79.5t-124 -123.5t-94.5 -160t-60.5 -188t-21.5 -208.5q0 -92 23.5 -167t68.5 -127.5t111.5 -80.5t154.5 -28q84 0 164 27.5t149 77t127 121t99 159t64 190t23 214.5zM1287 1654q-40 -66 -95 -102 t-119 -36q-50 0 -85 17.5t-64 39t-56 39t-62 17.5q-18 0 -35.5 -5.5t-35 -17.5t-34.5 -30t-33 -41l-66 52q39 66 93 102t119 36q50 0 85 -17.5t64 -39t56 -39t61 -17.5q35 0 70 23.5t68 70.5l69 -52v0z" />
<glyph unicode="&#xd6;" horiz-adv-x="1417" d="M1375 901q0 -131 -27.5 -250t-78.5 -221t-122.5 -184.5t-159 -141t-187.5 -90t-209 -31.5q-121 0 -212 33.5t-151 97.5t-90 157t-30 212q0 126 27 243t76.5 218.5t120 185.5t157 144t187.5 93t212 33q118 0 208.5 -33.5t152.5 -97.5t94 -157t32 -211zM1233 886 q0 93 -23 167.5t-68 126.5t-114 80t-162 28q-89 0 -168.5 -28.5t-148 -79.5t-124 -123.5t-94.5 -160t-60.5 -188t-21.5 -208.5q0 -92 23.5 -167t68.5 -127.5t111.5 -80.5t154.5 -28q84 0 164 27.5t149 77t127 121t99 159t64 190t23 214.5zM1206 1594q0 -19 -7.5 -35.5 t-19.5 -28.5t-28.5 -19t-34.5 -7t-33.5 6.5t-27 18t-18 27t-6.5 33.5q0 19 7 35t19.5 28.5t28.5 19.5t35 7q18 0 33.5 -6.5t26.5 -18t18 -27t7 -33.5zM781 1594q0 -19 -7.5 -35.5t-19.5 -28.5t-28 -19t-35 -7q-18 0 -33.5 6.5t-27 18t-18 27t-6.5 33.5q0 19 7.5 35 t19.5 28.5t28 19.5t35 7q18 0 33.5 -6.5t27 -18t18 -27t6.5 -33.5z" />
<glyph unicode="&#xd7;" d="M658 604l293 -364l-86 -70l-293 363l-431 -363l-67 79l434 363l-295 365l86 70l294 -363l431 363l65 -79z" />
<glyph unicode="&#xd8;" horiz-adv-x="1419" d="M1377 901q0 -129 -27.5 -248t-79 -222t-123 -185.5t-159.5 -141.5t-188.5 -90t-208.5 -31q-50 0 -95.5 6t-86.5 18l-115 -208l-94 46l111 203q-101 59 -152 168.5t-51 266.5q0 124 26.5 241t76.5 220t120 186.5t157.5 144t188.5 93t211 32.5q45 0 86.5 -5t79.5 -16 l107 194l94 -46l-104 -187q110 -55 168 -167t58 -272zM1236 887q0 118 -36.5 204.5t-109.5 135.5l-618 -1109q60 -22 145 -20q82 1 160.5 29t148 79t126.5 121.5t98 158.5t63.5 189.5t22.5 211.5zM993 1272q-30 8 -64 12.5t-72 3.5q-86 -1 -165 -30t-147 -81t-122.5 -124 t-93.5 -160t-59.5 -188t-20.5 -206q0 -112 32 -195t99 -134z" />
<glyph unicode="&#xd9;" horiz-adv-x="1444" d="M1529 1312q-72 -18 -152 -28l-147 -778q-26 -134 -77 -232.5t-128.5 -163t-180.5 -96t-231 -31.5q-123 0 -205.5 25.5t-132 71.5t-70 108.5t-20.5 137.5q0 33 4.5 67.5t10.5 69.5l155 821q-37 5 -73.5 12t-68.5 16l13 70h448l-16 -70q-39 -11 -84.5 -17.5t-89.5 -10.5 l-152 -800q-8 -37 -12 -72t-4 -67q0 -63 17.5 -111t55 -80t97 -48.5t145.5 -16.5q97 0 174.5 22t136.5 73t99.5 134t64.5 205l144 761q-43 4 -86 10.5t-80 17.5l13 70h445zM927 1498l-361 120l53 109l342 -149z" />
<glyph unicode="&#xda;" horiz-adv-x="1444" d="M1529 1312q-72 -18 -152 -28l-147 -778q-26 -134 -77 -232.5t-128.5 -163t-180.5 -96t-231 -31.5q-123 0 -205.5 25.5t-132 71.5t-70 108.5t-20.5 137.5q0 33 4.5 67.5t10.5 69.5l155 821q-37 5 -73.5 12t-68.5 16l13 70h448l-16 -70q-39 -11 -84.5 -17.5t-89.5 -10.5 l-152 -800q-8 -37 -12 -72t-4 -67q0 -63 17.5 -111t55 -80t97 -48.5t145.5 -16.5q97 0 174.5 22t136.5 73t99.5 134t64.5 205l144 761q-43 4 -86 10.5t-80 17.5l13 70h445zM845 1498l-27 80l356 149l36 -109z" />
<glyph unicode="&#xdb;" horiz-adv-x="1444" d="M1529 1312q-72 -18 -152 -28l-147 -778q-26 -134 -77 -232.5t-128.5 -163t-180.5 -96t-231 -31.5q-123 0 -205.5 25.5t-132 71.5t-70 108.5t-20.5 137.5q0 33 4.5 67.5t10.5 69.5l155 821q-37 5 -73.5 12t-68.5 16l13 70h448l-16 -70q-39 -11 -84.5 -17.5t-89.5 -10.5 l-152 -800q-8 -37 -12 -72t-4 -67q0 -63 17.5 -111t55 -80t97 -48.5t145.5 -16.5q97 0 174.5 22t136.5 73t99.5 134t64.5 205l144 761q-43 4 -86 10.5t-80 17.5l13 70h445zM1178 1494l-244 134l-285 -134l-38 80l335 171l282 -166z" />
<glyph unicode="&#xdc;" horiz-adv-x="1444" d="M1529 1312q-72 -18 -152 -28l-147 -778q-26 -134 -77 -232.5t-128.5 -163t-180.5 -96t-231 -31.5q-123 0 -205.5 25.5t-132 71.5t-70 108.5t-20.5 137.5q0 33 4.5 67.5t10.5 69.5l155 821q-37 5 -73.5 12t-68.5 16l13 70h448l-16 -70q-39 -11 -84.5 -17.5t-89.5 -10.5 l-152 -800q-8 -37 -12 -72t-4 -67q0 -63 17.5 -111t55 -80t97 -48.5t145.5 -16.5q97 0 174.5 22t136.5 73t99.5 134t64.5 205l144 761q-43 4 -86 10.5t-80 17.5l13 70h445zM1225 1594q0 -19 -7.5 -35.5t-19.5 -28.5t-28.5 -19t-34.5 -7t-33.5 6.5t-27 18t-18 27t-6.5 33.5 q0 19 7 35t19.5 28.5t28.5 19.5t35 7q18 0 33.5 -6.5t26.5 -18t18 -27t7 -33.5zM800 1594q0 -19 -7.5 -35.5t-19.5 -28.5t-28 -19t-35 -7q-18 0 -33.5 6.5t-27 18t-18 27t-6.5 33.5q0 19 7.5 35t19.5 28.5t28 19.5t35 7q18 0 33.5 -6.5t27 -18t18 -27t6.5 -33.5z" />
<glyph unicode="&#xdd;" horiz-adv-x="1167" d="M1307 1312q-29 -8 -66.5 -15t-68.5 -11l-530 -785l-76 -403q45 -3 88 -10.5t81 -17.5l-13 -70h-478l13 70q40 10 87 17.5t93 10.5l76 403l-223 785q-30 4 -66 11t-64 15l13 70h441l-13 -70q-36 -11 -81.5 -17.5t-94.5 -10.5l110 -425q9 -30 17 -61l16 -62t15.5 -61.5 t13.5 -60.5h3q20 32 40.5 64.5t42.5 68t47.5 75.5t55.5 86l239 376q-36 4 -77.5 10.5t-74.5 17.5l14 70h434zM748 1498l-27 80l356 149l36 -109z" />
<glyph unicode="&#xde;" horiz-adv-x="1090" d="M1101 825q0 -100 -41.5 -194t-122.5 -168.5t-199.5 -118t-266.5 -43.5q-39 0 -71 3t-74 9l-42 -215q45 -3 88 -10t80 -18l-13 -70h-477l13 70q43 11 89 18t92 10l225 1186q-45 4 -89.5 11t-80.5 17l13 70h479l-13 -70q-41 -10 -87.5 -17t-91.5 -11l-26 -141q47 3 100 4.5 t113 1.5q105 0 182 -24t126 -67.5t72 -102.5t23 -130zM964 809q0 55 -18 99t-55 74.5t-94.5 46.5t-135.5 16q-23 0 -49.5 -1t-53 -2.5t-51 -3.5t-43.5 -5l-118 -614q40 -5 74.5 -8t66.5 -3q113 0 203 33t151 90t92 129t31 149z" />
<glyph unicode="&#xdf;" horiz-adv-x="1155" d="M1034 305q0 -67 -30.5 -125.5t-86 -102.5t-131 -68.5t-163.5 -24.5q-28 0 -51 0.5t-43 2t-38.5 4t-39.5 5.5l53 285h74q0 -51 -2 -94.5t-7 -86.5q18 -3 39.5 -5.5t34.5 -2.5q123 0 190.5 51.5t67.5 141.5q0 45 -20.5 82t-48 64t-79 71.5t-83 78t-52 78t-20.5 99.5 q0 53 15 95.5t40 74t54.5 55t78 55t72.5 49t49 43t39.5 59t14.5 75.5q0 62 -44.5 99.5t-128.5 37.5q-66 0 -120 -20t-97.5 -63t-74.5 -112t-50 -164l-215 -1110q-26 -133 -65 -222.5t-93 -142t-124.5 -75t-163.5 -22.5q-30 0 -68 4.5t-75 11.5l28 115q35 -11 69.5 -16 t76.5 -5q63 0 107 16t77 54.5t58 106t46 173.5l191 983q-17 3 -38 6.5t-43 6l-44 5t-43 3.5l12 70q41 5 86.5 9t89.5 5q22 125 63.5 217t103 151t143 88t182.5 29q68 0 122 -16.5t90.5 -46t55.5 -69.5t19 -87q0 -74 -25 -126.5t-62.5 -86.5t-101.5 -75t-94.5 -63.5 t-55 -60.5t-24.5 -92q0 -45 20.5 -82t48 -64t79 -71.5t83 -78.5t52 -79t20.5 -100z" />
<glyph unicode="&#xe0;" horiz-adv-x="1112" d="M972 14q-31 -4 -69.5 -7t-78.5 -5t-80.5 -3t-76.5 1q14 72 46.5 189.5t86.5 288.5l-4 2q-17 -40 -41.5 -92.5t-58 -108t-75.5 -109t-93 -95.5t-111 -68t-129 -26q-107 0 -163.5 72.5t-56.5 231.5q0 91 16 182.5t48.5 174t83.5 154t121 123.5t160 82t201 30q83 0 155 -8 t135 -21l-172 -897q34 -6 79.5 -11.5t89.5 -8.5zM844 908q-35 9 -76 15t-92 6q-88 0 -157 -26.5t-122 -72t-91 -107t-61.5 -130.5t-34.5 -142.5t-11 -143.5q0 -59 9 -100t25 -66.5t38 -37.5t50 -12q57 0 112.5 35t107.5 93.5t98 134t83.5 156t64 159.5t40.5 146zM697 1184 l-228 247l98 77l207 -263z" />
<glyph unicode="&#xe1;" horiz-adv-x="1112" d="M972 14q-31 -4 -69.5 -7t-78.5 -5t-80.5 -3t-76.5 1q14 72 46.5 189.5t86.5 288.5l-4 2q-17 -40 -41.5 -92.5t-58 -108t-75.5 -109t-93 -95.5t-111 -68t-129 -26q-107 0 -163.5 72.5t-56.5 231.5q0 91 16 182.5t48.5 174t83.5 154t121 123.5t160 82t201 30q83 0 155 -8 t135 -21l-172 -897q34 -6 79.5 -11.5t89.5 -8.5zM844 908q-35 9 -76 15t-92 6q-88 0 -157 -26.5t-122 -72t-91 -107t-61.5 -130.5t-34.5 -142.5t-11 -143.5q0 -59 9 -100t25 -66.5t38 -37.5t50 -12q57 0 112.5 35t107.5 93.5t98 134t83.5 156t64 159.5t40.5 146zM670 1184 l-58 70l276 254l75 -89z" />
<glyph unicode="&#xe2;" horiz-adv-x="1112" d="M972 14q-31 -4 -69.5 -7t-78.5 -5t-80.5 -3t-76.5 1q14 72 46.5 189.5t86.5 288.5l-4 2q-17 -40 -41.5 -92.5t-58 -108t-75.5 -109t-93 -95.5t-111 -68t-129 -26q-107 0 -163.5 72.5t-56.5 231.5q0 91 16 182.5t48.5 174t83.5 154t121 123.5t160 82t201 30q83 0 155 -8 t135 -21l-172 -897q34 -6 79.5 -11.5t89.5 -8.5zM844 908q-35 9 -76 15t-92 6q-88 0 -157 -26.5t-122 -72t-91 -107t-61.5 -130.5t-34.5 -142.5t-11 -143.5q0 -59 9 -100t25 -66.5t38 -37.5t50 -12q57 0 112.5 35t107.5 93.5t98 134t83.5 156t64 159.5t40.5 146zM866 1184 l-166 178l-223 -178l-59 62l302 262l216 -258z" />
<glyph unicode="&#xe3;" horiz-adv-x="1112" d="M972 14q-31 -4 -69.5 -7t-78.5 -5t-80.5 -3t-76.5 1q14 72 46.5 189.5t86.5 288.5l-4 2q-17 -40 -41.5 -92.5t-58 -108t-75.5 -109t-93 -95.5t-111 -68t-129 -26q-107 0 -163.5 72.5t-56.5 231.5q0 91 16 182.5t48.5 174t83.5 154t121 123.5t160 82t201 30q83 0 155 -8 t135 -21l-172 -897q34 -6 79.5 -11.5t89.5 -8.5zM844 908q-35 9 -76 15t-92 6q-88 0 -157 -26.5t-122 -72t-91 -107t-61.5 -130.5t-34.5 -142.5t-11 -143.5q0 -59 9 -100t25 -66.5t38 -37.5t50 -12q57 0 112.5 35t107.5 93.5t98 134t83.5 156t64 159.5t40.5 146zM1002 1380 q-38 -68 -92.5 -104.5t-116.5 -36.5q-49 0 -82.5 18t-60 40.5t-51.5 40.5t-59 18t-67 -24.5t-66 -72.5l-68 55q39 68 91.5 104.5t115.5 36.5q48 0 82 -18t62 -40t54 -40.5t60 -18.5t66.5 24.5t62.5 74.5l69 -57v0z" />
<glyph unicode="&#xe4;" horiz-adv-x="1112" d="M972 14q-31 -4 -69.5 -7t-78.5 -5t-80.5 -3t-76.5 1q14 72 46.5 189.5t86.5 288.5l-4 2q-17 -40 -41.5 -92.5t-58 -108t-75.5 -109t-93 -95.5t-111 -68t-129 -26q-107 0 -163.5 72.5t-56.5 231.5q0 91 16 182.5t48.5 174t83.5 154t121 123.5t160 82t201 30q83 0 155 -8 t135 -21l-172 -897q34 -6 79.5 -11.5t89.5 -8.5zM844 908q-35 9 -76 15t-92 6q-88 0 -157 -26.5t-122 -72t-91 -107t-61.5 -130.5t-34.5 -142.5t-11 -143.5q0 -59 9 -100t25 -66.5t38 -37.5t50 -12q57 0 112.5 35t107.5 93.5t98 134t83.5 156t64 159.5t40.5 146zM951 1353 q0 -20 -7.5 -37t-19.5 -29.5t-28.5 -19t-35.5 -6.5q-18 0 -33.5 6.5t-27 18t-18 27t-6.5 32.5q0 20 7.5 36.5t19.5 29.5t28.5 19.5t35.5 6.5t34.5 -6.5t27 -18.5t17.5 -27t6 -32zM573 1353q0 -20 -7 -37t-19.5 -29.5t-29 -19t-34.5 -6.5q-19 0 -34.5 6.5t-27 18t-18 27 t-6.5 32.5q0 20 7 36.5t19.5 29.5t29 19.5t35.5 6.5q18 0 33.5 -6.5t27 -18.5t18 -27t6.5 -32z" />
<glyph unicode="&#xe5;" horiz-adv-x="1112" d="M972 14q-31 -4 -69.5 -7t-78.5 -5t-80.5 -3t-76.5 1q14 72 46.5 189.5t86.5 288.5l-4 2q-17 -40 -41.5 -92.5t-58 -108t-75.5 -109t-93 -95.5t-111 -68t-129 -26q-107 0 -163.5 72.5t-56.5 231.5q0 91 16 182.5t48.5 174t83.5 154t121 123.5t160 82t201 30q83 0 155 -8 t135 -21l-172 -897q34 -6 79.5 -11.5t89.5 -8.5zM844 908q-35 9 -76 15t-92 6q-88 0 -157 -26.5t-122 -72t-91 -107t-61.5 -130.5t-34.5 -142.5t-11 -143.5q0 -59 9 -100t25 -66.5t38 -37.5t50 -12q57 0 112.5 35t107.5 93.5t98 134t83.5 156t64 159.5t40.5 146zM877 1365 q0 -46 -18.5 -86.5t-50 -70.5t-72 -47t-82.5 -17t-78 14t-63 39.5t-41.5 61t-14.5 77.5q0 48 18.5 88.5t50.5 70.5t72 46t82 16t78.5 -14t63 -40t41 -61.5t14.5 -76.5zM785 1359q0 23 -8 43.5t-23 37t-35.5 25.5t-44.5 9q-23 0 -45.5 -10t-40.5 -28.5t-28.5 -42.5t-10.5 -51 q0 -23 8 -44t23 -36.5t35.5 -24.5t44.5 -9q23 0 45.5 9.5t40.5 27.5t28.5 42t10.5 52z" />
<glyph unicode="&#xe6;" horiz-adv-x="1567" d="M1509 815q0 -45 -11.5 -85.5t-41.5 -75.5t-79.5 -65t-125 -53t-178.5 -39.5t-240 -24.5l-4.5 -31.5t-4 -37.5t-2 -40t-0.5 -37q0 -71 12.5 -116t41.5 -71.5t75.5 -36.5t113.5 -10q72 0 143.5 15.5t133.5 42.5l10 -105q-71 -29 -153.5 -45.5t-181.5 -16.5q-83 0 -139.5 19 t-92.5 52.5t-55.5 78.5t-27.5 99q-24 -45 -65 -90t-95 -80.5t-118.5 -57t-136.5 -21.5q-61 0 -107 14.5t-76 40t-45.5 62.5t-15.5 82q0 74 25 130t69.5 97t107 69t138.5 47t162 29.5t178 17.5l17 77q14 70 13 122.5t-21.5 88t-61.5 53t-108 17.5q-50 0 -108 -7t-112 -22 q-12 -44 -28.5 -91.5t-34.5 -96.5h-75l50 267q74 26 158.5 40.5t174.5 14.5q76 0 126 -14.5t81 -39.5t47 -57.5t25 -68.5q26 34 63.5 66.5t84 57.5t102 40.5t117.5 15.5q71 0 123 -17.5t86.5 -47t50.5 -70t16 -85.5zM1377 800q0 33 -12 58t-33.5 42t-50.5 25.5t-64 8.5 q-69 0 -126 -27t-102 -75t-78.5 -112.5t-53.5 -138.5q116 7 212 20t164 37t106 63t38 99zM703 467q-113 -7 -209 -21t-166.5 -41.5t-110 -72.5t-39.5 -116q0 -28 10.5 -51.5t28.5 -40t43 -25.5t55 -9q72 0 136.5 31t115 82.5t86 120t50.5 143.5z" />
<glyph unicode="&#xe7;" horiz-adv-x="856" d="M819 718l-73 2q-2 24 -2 48.5t1 49.5t3 49t6 47q-28 8 -58.5 11.5t-64.5 3.5q-70 0 -129 -25t-105.5 -68t-81.5 -101t-59 -123t-35.5 -134.5t-11.5 -135.5q0 -44 8 -88t33.5 -78t72 -55.5t123.5 -21.5q64 0 130 15t123 40l15 -106q-58 -24 -136 -41.5t-162 -17.5 q-99 0 -165 25t-105.5 68.5t-56.5 102.5t-17 127q0 146 39.5 277t113.5 229t180 155.5t241 57.5q61 0 118.5 -10t107.5 -27zM401 -84q30 -49 37.5 -97.5t-6 -97.5t-45 -99.5t-79.5 -104.5h-123q49 54 80.5 99t44.5 85.5t6 80.5t-35 83l120 51v0z" />
<glyph unicode="&#xe8;" horiz-adv-x="952" d="M896 815q0 -76 -40.5 -136t-124 -104t-211 -70.5t-299.5 -33.5q-3 -14 -5.5 -32t-4.5 -38t-3 -39.5t-1 -35.5q0 -71 13 -116t41.5 -71t74 -36.5t115.5 -10.5q72 0 143.5 15.5t134.5 42.5l9 -105q-72 -30 -155.5 -46t-180.5 -16q-83 0 -144 17.5t-102.5 55t-62.5 98.5 t-21 148q0 94 16 185t47.5 173t78.5 150.5t108 119t136 78t161 27.5q70 0 122.5 -17t87 -47t51 -70t16.5 -86zM762 800q0 32 -12 57t-33.5 41.5t-51 25t-64.5 8.5q-67 0 -124 -26.5t-102.5 -74t-78.5 -111.5t-54 -140q138 5 236.5 22t161.5 44.5t92.5 65.5t29.5 88z M624 1184l-228 247l98 77l207 -263z" />
<glyph unicode="&#xe9;" horiz-adv-x="952" d="M896 815q0 -76 -40.5 -136t-124 -104t-211 -70.5t-299.5 -33.5q-3 -14 -5.5 -32t-4.5 -38t-3 -39.5t-1 -35.5q0 -71 13 -116t41.5 -71t74 -36.5t115.5 -10.5q72 0 143.5 15.5t134.5 42.5l9 -105q-72 -30 -155.5 -46t-180.5 -16q-83 0 -144 17.5t-102.5 55t-62.5 98.5 t-21 148q0 94 16 185t47.5 173t78.5 150.5t108 119t136 78t161 27.5q70 0 122.5 -17t87 -47t51 -70t16.5 -86zM762 800q0 32 -12 57t-33.5 41.5t-51 25t-64.5 8.5q-67 0 -124 -26.5t-102.5 -74t-78.5 -111.5t-54 -140q138 5 236.5 22t161.5 44.5t92.5 65.5t29.5 88z M586 1184l-58 70l276 254l75 -89z" />
<glyph unicode="&#xea;" horiz-adv-x="952" d="M896 815q0 -76 -40.5 -136t-124 -104t-211 -70.5t-299.5 -33.5q-3 -14 -5.5 -32t-4.5 -38t-3 -39.5t-1 -35.5q0 -71 13 -116t41.5 -71t74 -36.5t115.5 -10.5q72 0 143.5 15.5t134.5 42.5l9 -105q-72 -30 -155.5 -46t-180.5 -16q-83 0 -144 17.5t-102.5 55t-62.5 98.5 t-21 148q0 94 16 185t47.5 173t78.5 150.5t108 119t136 78t161 27.5q70 0 122.5 -17t87 -47t51 -70t16.5 -86zM762 800q0 32 -12 57t-33.5 41.5t-51 25t-64.5 8.5q-67 0 -124 -26.5t-102.5 -74t-78.5 -111.5t-54 -140q138 5 236.5 22t161.5 44.5t92.5 65.5t29.5 88z M823 1184l-166 178l-223 -178l-59 62l302 262l216 -258z" />
<glyph unicode="&#xeb;" horiz-adv-x="952" d="M896 815q0 -76 -40.5 -136t-124 -104t-211 -70.5t-299.5 -33.5q-3 -14 -5.5 -32t-4.5 -38t-3 -39.5t-1 -35.5q0 -71 13 -116t41.5 -71t74 -36.5t115.5 -10.5q72 0 143.5 15.5t134.5 42.5l9 -105q-72 -30 -155.5 -46t-180.5 -16q-83 0 -144 17.5t-102.5 55t-62.5 98.5 t-21 148q0 94 16 185t47.5 173t78.5 150.5t108 119t136 78t161 27.5q70 0 122.5 -17t87 -47t51 -70t16.5 -86zM762 800q0 32 -12 57t-33.5 41.5t-51 25t-64.5 8.5q-67 0 -124 -26.5t-102.5 -74t-78.5 -111.5t-54 -140q138 5 236.5 22t161.5 44.5t92.5 65.5t29.5 88z M943 1353q0 -20 -7.5 -37t-19.5 -29.5t-28.5 -19t-35.5 -6.5q-18 0 -33.5 6.5t-27 18t-18 27t-6.5 32.5q0 20 7.5 36.5t19.5 29.5t28.5 19.5t35.5 6.5t34.5 -6.5t27 -18.5t17.5 -27t6 -32zM565 1353q0 -20 -7 -37t-19.5 -29.5t-29 -19t-34.5 -6.5q-19 0 -34.5 6.5t-27 18 t-18 27t-6.5 32.5q0 20 7 36.5t19.5 29.5t29 19.5t35.5 6.5q18 0 33.5 -6.5t27 -18.5t18 -27t6.5 -32z" />
<glyph unicode="&#xec;" horiz-adv-x="559" d="M422 14q-32 -4 -70.5 -7t-79 -5t-80.5 -3t-74 1l177 915q-35 7 -80 11t-88 7l13 71q31 4 69 7t78.5 5t79.5 2.5t74 -0.5l-177 -913q18 -3 38.5 -6.5t43 -6t45 -4.5t43.5 -3zM432 1184l-228 247l98 77l207 -263z" />
<glyph unicode="&#xed;" horiz-adv-x="559" d="M422 14q-32 -4 -70.5 -7t-79 -5t-80.5 -3t-74 1l177 915q-35 7 -80 11t-88 7l13 71q31 4 69 7t78.5 5t79.5 2.5t74 -0.5l-177 -913q18 -3 38.5 -6.5t43 -6t45 -4.5t43.5 -3zM341 1184l-58 70l276 254l75 -89z" />
<glyph unicode="&#xee;" horiz-adv-x="559" d="M422 14q-32 -4 -70.5 -7t-79 -5t-80.5 -3t-74 1l177 915q-35 7 -80 11t-88 7l13 71q31 4 69 7t78.5 5t79.5 2.5t74 -0.5l-177 -913q18 -3 38.5 -6.5t43 -6t45 -4.5t43.5 -3zM600 1184l-166 178l-223 -178l-59 62l302 262l216 -258z" />
<glyph unicode="&#xef;" horiz-adv-x="559" d="M422 14q-32 -4 -70.5 -7t-79 -5t-80.5 -3t-74 1l177 915q-35 7 -80 11t-88 7l13 71q31 4 69 7t78.5 5t79.5 2.5t74 -0.5l-177 -913q18 -3 38.5 -6.5t43 -6t45 -4.5t43.5 -3zM701 1353q0 -20 -7.5 -37t-19.5 -29.5t-28.5 -19t-35.5 -6.5q-18 0 -33.5 6.5t-27 18t-18 27 t-6.5 32.5q0 20 7.5 36.5t19.5 29.5t28.5 19.5t35.5 6.5t34.5 -6.5t27 -18.5t17.5 -27t6 -32zM323 1353q0 -20 -7 -37t-19.5 -29.5t-29 -19t-34.5 -6.5q-19 0 -34.5 6.5t-27 18t-18 27t-6.5 32.5q0 20 7 36.5t19.5 29.5t29 19.5t35.5 6.5q18 0 33.5 -6.5t27 -18.5t18 -27 t6.5 -32z" />
<glyph unicode="&#xf0;" horiz-adv-x="1083" d="M852 1289q39 -63 69.5 -129t51 -135t31 -141.5t10.5 -146.5q0 -95 -16.5 -188t-49.5 -177t-82 -155t-112.5 -123t-142.5 -81.5t-172 -29.5q-88 0 -156 22.5t-114.5 68t-71.5 113.5t-25 160q0 86 17.5 170.5t51 161t82 141.5t112 112.5t140.5 74.5t167 27q40 0 77.5 -6.5 t69 -20t55 -35.5t36.5 -53q-11 40 -24 72t-19 49q-25 59 -51 107t-56 91l-243 -100l-42 83l225 94q-28 34 -62 68l-73 73l127 58q37 -34 71 -71t64 -75l240 97l40 -83zM875 671q0 57 -15 104.5t-45.5 81.5t-77.5 53t-109 19q-67 0 -124.5 -23t-104.5 -62.5t-83 -93 t-60.5 -114t-37.5 -126.5t-13 -131q0 -68 17 -121.5t49 -90.5t79 -56.5t108 -19.5q79 0 140.5 30t108 78.5t79 110.5t52 126.5t28.5 126t9 108.5z" />
<glyph unicode="&#xf1;" horiz-adv-x="1208" d="M1069 14q-31 -4 -68.5 -7t-77.5 -5t-80 -3t-74 1l126 661q27 138 0.5 202t-109.5 64q-56 0 -111.5 -35t-107 -92.5t-97 -131.5t-82.5 -153t-63.5 -156t-38.5 -139l-42 -220h-126l175 913q-34 6 -77.5 11.5t-88.5 8.5l13 71q31 4 69 7t78 5t80 2.5t74 -0.5 q-5 -27 -13.5 -66t-23.5 -94.5t-36.5 -129.5t-51.5 -171l4 -2q36 90 86.5 176.5t114 154.5t138.5 109.5t160 41.5q68 0 115 -24t73 -69t31 -110t-11 -148l-112 -581q35 -7 79.5 -12.5t86.5 -8.5zM1079 1380q-38 -68 -92.5 -104.5t-116.5 -36.5q-49 0 -82.5 18t-60 40.5 t-51.5 40.5t-59 18t-67 -24.5t-66 -72.5l-68 55q39 68 91.5 104.5t115.5 36.5q48 0 82 -18t62 -40t54 -40.5t60 -18.5t66.5 24.5t62.5 74.5l69 -57v0z" />
<glyph unicode="&#xf2;" horiz-adv-x="1087" d="M1008 671q0 -157 -48 -284.5t-129 -217.5t-185 -138t-216 -48q-88 0 -154.5 23t-111 68t-67.5 112.5t-23 155.5q0 99 19 188.5t54 166t86 139t114.5 106.5t138 68.5t159.5 24.5q94 0 162.5 -27t113 -74.5t66 -114.5t21.5 -148zM873 660q0 130 -60 199.5t-187 69.5 q-94 0 -171 -46.5t-132 -124.5t-85.5 -179t-30.5 -211q0 -68 14 -119.5t44.5 -86.5t78 -53t112.5 -18q81 0 156 40.5t133 114.5t93 179t35 235zM678 1184l-228 247l98 77l207 -263z" />
<glyph unicode="&#xf3;" horiz-adv-x="1087" d="M1008 671q0 -157 -48 -284.5t-129 -217.5t-185 -138t-216 -48q-88 0 -154.5 23t-111 68t-67.5 112.5t-23 155.5q0 99 19 188.5t54 166t86 139t114.5 106.5t138 68.5t159.5 24.5q94 0 162.5 -27t113 -74.5t66 -114.5t21.5 -148zM873 660q0 130 -60 199.5t-187 69.5 q-94 0 -171 -46.5t-132 -124.5t-85.5 -179t-30.5 -211q0 -68 14 -119.5t44.5 -86.5t78 -53t112.5 -18q81 0 156 40.5t133 114.5t93 179t35 235zM607 1184l-58 70l276 254l75 -89z" />
<glyph unicode="&#xf4;" horiz-adv-x="1087" d="M1008 671q0 -157 -48 -284.5t-129 -217.5t-185 -138t-216 -48q-88 0 -154.5 23t-111 68t-67.5 112.5t-23 155.5q0 99 19 188.5t54 166t86 139t114.5 106.5t138 68.5t159.5 24.5q94 0 162.5 -27t113 -74.5t66 -114.5t21.5 -148zM873 660q0 130 -60 199.5t-187 69.5 q-94 0 -171 -46.5t-132 -124.5t-85.5 -179t-30.5 -211q0 -68 14 -119.5t44.5 -86.5t78 -53t112.5 -18q81 0 156 40.5t133 114.5t93 179t35 235zM888 1184l-166 178l-223 -178l-59 62l302 262l216 -258z" />
<glyph unicode="&#xf5;" horiz-adv-x="1087" d="M1008 671q0 -157 -48 -284.5t-129 -217.5t-185 -138t-216 -48q-88 0 -154.5 23t-111 68t-67.5 112.5t-23 155.5q0 99 19 188.5t54 166t86 139t114.5 106.5t138 68.5t159.5 24.5q94 0 162.5 -27t113 -74.5t66 -114.5t21.5 -148zM873 660q0 130 -60 199.5t-187 69.5 q-94 0 -171 -46.5t-132 -124.5t-85.5 -179t-30.5 -211q0 -68 14 -119.5t44.5 -86.5t78 -53t112.5 -18q81 0 156 40.5t133 114.5t93 179t35 235zM1050 1380q-38 -68 -92.5 -104.5t-116.5 -36.5q-49 0 -82.5 18t-60 40.5t-51.5 40.5t-59 18t-67 -24.5t-66 -72.5l-68 55 q39 68 91.5 104.5t115.5 36.5q48 0 82 -18t62 -40t54 -40.5t60 -18.5t66.5 24.5t62.5 74.5l69 -57v0z" />
<glyph unicode="&#xf6;" horiz-adv-x="1087" d="M1008 671q0 -157 -48 -284.5t-129 -217.5t-185 -138t-216 -48q-88 0 -154.5 23t-111 68t-67.5 112.5t-23 155.5q0 99 19 188.5t54 166t86 139t114.5 106.5t138 68.5t159.5 24.5q94 0 162.5 -27t113 -74.5t66 -114.5t21.5 -148zM873 660q0 130 -60 199.5t-187 69.5 q-94 0 -171 -46.5t-132 -124.5t-85.5 -179t-30.5 -211q0 -68 14 -119.5t44.5 -86.5t78 -53t112.5 -18q81 0 156 40.5t133 114.5t93 179t35 235zM1005 1353q0 -20 -7.5 -37t-19.5 -29.5t-28.5 -19t-35.5 -6.5q-18 0 -33.5 6.5t-27 18t-18 27t-6.5 32.5q0 20 7.5 36.5 t19.5 29.5t28.5 19.5t35.5 6.5t34.5 -6.5t27 -18.5t17.5 -27t6 -32zM627 1353q0 -20 -7 -37t-19.5 -29.5t-29 -19t-34.5 -6.5q-19 0 -34.5 6.5t-27 18t-18 27t-6.5 32.5q0 20 7 36.5t19.5 29.5t29 19.5t35.5 6.5q18 0 33.5 -6.5t27 -18.5t18 -27t6.5 -32z" />
<glyph unicode="&#xf7;" d="M752 1023q0 -21 -7 -38.5t-20 -31t-30.5 -21.5t-38.5 -8q-20 0 -37.5 8t-30.5 21t-20 30.5t-7 37.5t7.5 38t20.5 31.5t30.5 21t37.5 7.5q21 0 38.5 -7.5t30 -20.5t19.5 -31t7 -37zM1043 555h-945l22 109h945zM592 196q0 -21 -7.5 -39t-20.5 -31.5t-31 -21t-38 -7.5 q-21 0 -38 7.5t-29.5 21t-20 31t-7.5 38.5q0 20 7.5 38t20.5 31.5t30.5 21t38.5 7.5q20 0 37.5 -7.5t30 -21t20 -31t7.5 -37.5z" />
<glyph unicode="&#xf8;" horiz-adv-x="1090" d="M1010 671q0 -157 -48.5 -284.5t-129.5 -217.5t-185.5 -138t-216.5 -48q-38 0 -72 4.5t-65 14.5l-118 -209l-88 47l115 204q-63 44 -95.5 119t-32.5 179q0 146 41.5 272.5t116.5 220t181 147t234 53.5q28 0 55 -3t51 -9l112 201l87 -46l-104 -188q82 -43 122 -126t40 -193 zM878 660q0 79 -23 135t-70 89l-434 -778q46 -17 111 -16q53 1 104.5 19.5t98 53.5t85.5 84.5t67.5 112.5t44.5 138.5t16 161.5zM695 923q-17 5 -34.5 6t-38.5 1q-92 -1 -168.5 -47t-132 -123.5t-86.5 -178.5t-31 -211q0 -71 15.5 -123.5t47.5 -87.5z" />
<glyph unicode="&#xf9;" horiz-adv-x="1208" d="M1069 14q-32 -4 -70 -7t-78.5 -5t-80.5 -3t-77 1q5 27 14 66t24 94.5t37 129.5t53 171l-4 2q-37 -90 -87.5 -176.5t-113.5 -154.5t-138 -109.5t-161 -41.5q-68 0 -115 24t-73 69t-31 110t11 148l111 579q-34 6 -77.5 12.5t-87.5 9.5l13 71q30 4 68.5 7t78 5t78.5 2.5 t74 -0.5l-126 -661q-27 -138 0 -202t109 -64q56 0 111.5 35t107 93t97.5 133t83 155.5t63.5 159t39.5 144.5l18 102q-34 6 -79.5 11.5t-88.5 8.5l14 71q31 4 69 7t78 5t79.5 2.5t73.5 -0.5l-175 -913q34 -6 81 -11.5t89 -8.5zM722 1184l-228 247l98 77l207 -263z" />
<glyph unicode="&#xfa;" horiz-adv-x="1208" d="M1069 14q-32 -4 -70 -7t-78.5 -5t-80.5 -3t-77 1q5 27 14 66t24 94.5t37 129.5t53 171l-4 2q-37 -90 -87.5 -176.5t-113.5 -154.5t-138 -109.5t-161 -41.5q-68 0 -115 24t-73 69t-31 110t11 148l111 579q-34 6 -77.5 12.5t-87.5 9.5l13 71q30 4 68.5 7t78 5t78.5 2.5 t74 -0.5l-126 -661q-27 -138 0 -202t109 -64q56 0 111.5 35t107 93t97.5 133t83 155.5t63.5 159t39.5 144.5l18 102q-34 6 -79.5 11.5t-88.5 8.5l14 71q31 4 69 7t78 5t79.5 2.5t73.5 -0.5l-175 -913q34 -6 81 -11.5t89 -8.5zM711 1184l-58 70l276 254l75 -89z" />
<glyph unicode="&#xfb;" horiz-adv-x="1208" d="M1069 14q-32 -4 -70 -7t-78.5 -5t-80.5 -3t-77 1q5 27 14 66t24 94.5t37 129.5t53 171l-4 2q-37 -90 -87.5 -176.5t-113.5 -154.5t-138 -109.5t-161 -41.5q-68 0 -115 24t-73 69t-31 110t11 148l111 579q-34 6 -77.5 12.5t-87.5 9.5l13 71q30 4 68.5 7t78 5t78.5 2.5 t74 -0.5l-126 -661q-27 -138 0 -202t109 -64q56 0 111.5 35t107 93t97.5 133t83 155.5t63.5 159t39.5 144.5l18 102q-34 6 -79.5 11.5t-88.5 8.5l14 71q31 4 69 7t78 5t79.5 2.5t73.5 -0.5l-175 -913q34 -6 81 -11.5t89 -8.5zM903 1184l-166 178l-223 -178l-59 62l302 262 l216 -258z" />
<glyph unicode="&#xfc;" horiz-adv-x="1208" d="M1069 14q-32 -4 -70 -7t-78.5 -5t-80.5 -3t-77 1q5 27 14 66t24 94.5t37 129.5t53 171l-4 2q-37 -90 -87.5 -176.5t-113.5 -154.5t-138 -109.5t-161 -41.5q-68 0 -115 24t-73 69t-31 110t11 148l111 579q-34 6 -77.5 12.5t-87.5 9.5l13 71q30 4 68.5 7t78 5t78.5 2.5 t74 -0.5l-126 -661q-27 -138 0 -202t109 -64q56 0 111.5 35t107 93t97.5 133t83 155.5t63.5 159t39.5 144.5l18 102q-34 6 -79.5 11.5t-88.5 8.5l14 71q31 4 69 7t78 5t79.5 2.5t73.5 -0.5l-175 -913q34 -6 81 -11.5t89 -8.5zM1007 1353q0 -20 -7.5 -37t-19.5 -29.5 t-28.5 -19t-35.5 -6.5q-18 0 -33.5 6.5t-27 18t-18 27t-6.5 32.5q0 20 7.5 36.5t19.5 29.5t28.5 19.5t35.5 6.5t34.5 -6.5t27 -18.5t17.5 -27t6 -32zM629 1353q0 -20 -7 -37t-19.5 -29.5t-29 -19t-34.5 -6.5q-19 0 -34.5 6.5t-27 18t-18 27t-6.5 32.5q0 20 7 36.5t19.5 29.5 t29 19.5t35.5 6.5q18 0 33.5 -6.5t27 -18.5t18 -27t6.5 -32z" />
<glyph unicode="&#xfd;" horiz-adv-x="1049" d="M1082 1020q-65 -152 -129.5 -293t-130 -271t-131.5 -247.5t-132 -220t-132.5 -188t-131.5 -149.5q-43 -42 -87 -75.5t-88.5 -56t-88 -34.5t-84.5 -12q-20 0 -38.5 1t-36 2.5t-33.5 4t-30 6.5l24 122q28 -10 61 -15t69 -5q57 0 124 37.5t125 102.5q35 39 59.5 79t40.5 84 t23.5 95t7.5 112q0 85 -7.5 181.5t-21.5 201t-34.5 213t-46.5 218.5q-35 7 -79.5 12t-90.5 8l14 71q33 4 67 7t69.5 5t71 2.5t67.5 -0.5q26 -108 48 -221.5t37.5 -223t24 -207t8.5 -173.5q0 -41 -5.5 -88.5t-15.5 -91.5h2q68 115 130.5 232.5t124 243t123.5 265t132 305.5z M678 1184l-58 70l276 254l75 -89z" />
<glyph unicode="&#xfe;" horiz-adv-x="1092" d="M1016 733q0 -91 -15.5 -182.5t-49 -174.5t-84 -153.5t-121 -122.5t-160 -81.5t-200.5 -29.5q-48 0 -88.5 3.5t-78.5 9.5l-79 -417q45 -3 89 -10.5t81 -17.5l-13 -70h-476l13 70q42 10 88 17.5t91 10.5l345 1799l2 6q-34 6 -81 11.5t-90 8.5l12 71q31 4 70 7t79.5 5 t80.5 2.5t75 -0.5l-89 -458q-8 -40 -17.5 -83.5t-24 -99.5t-36 -130.5t-51.5 -175.5l4 -2q40 101 92 190t115.5 156t137.5 106t160 39q105 0 162 -72.5t57 -231.5zM885 711q0 58 -9 99.5t-25 67t-39 37.5t-49 12q-57 0 -113 -35t-107.5 -93.5t-97.5 -133.5t-83 -155 t-63.5 -158t-38.5 -144l-19 -89q19 -6 41 -11.5t44.5 -9t44 -5.5t38.5 -2q87 0 156 26.5t121.5 71.5t90 106t61.5 130.5t35.5 142.5t11.5 143z" />
<glyph unicode="&#xff;" horiz-adv-x="1049" d="M1082 1020q-65 -152 -129.5 -293t-130 -271t-131.5 -247.5t-132 -220t-132.5 -188t-131.5 -149.5q-43 -42 -87 -75.5t-88.5 -56t-88 -34.5t-84.5 -12q-20 0 -38.5 1t-36 2.5t-33.5 4t-30 6.5l24 122q28 -10 61 -15t69 -5q57 0 124 37.5t125 102.5q35 39 59.5 79t40.5 84 t23.5 95t7.5 112q0 85 -7.5 181.5t-21.5 201t-34.5 213t-46.5 218.5q-35 7 -79.5 12t-90.5 8l14 71q33 4 67 7t69.5 5t71 2.5t67.5 -0.5q26 -108 48 -221.5t37.5 -223t24 -207t8.5 -173.5q0 -41 -5.5 -88.5t-15.5 -91.5h2q68 115 130.5 232.5t124 243t123.5 265t132 305.5z M992 1353q0 -20 -7.5 -37t-19.5 -29.5t-28.5 -19t-35.5 -6.5q-18 0 -33.5 6.5t-27 18t-18 27t-6.5 32.5q0 20 7.5 36.5t19.5 29.5t28.5 19.5t35.5 6.5t34.5 -6.5t27 -18.5t17.5 -27t6 -32zM614 1353q0 -20 -7 -37t-19.5 -29.5t-29 -19t-34.5 -6.5q-19 0 -34.5 6.5t-27 18 t-18 27t-6.5 32.5q0 20 7 36.5t19.5 29.5t29 19.5t35.5 6.5q18 0 33.5 -6.5t27 -18.5t18 -27t6.5 -32z" />
<glyph unicode="&#x100;" horiz-adv-x="1378" d="M1268 0h-441l13 70q40 10 85.5 17.5t89.5 10.5l-42 264h-624l-146 -264q40 -3 83.5 -10.5t78.5 -17.5l-13 -70h-440l13 70q29 8 66 15.5t67 10.5l725 1286h143l228 -1284q14 -1 31 -4t34.5 -7t34 -8.5t29.5 -8.5zM854 1053l-16.5 121t-9.5 72h-2q-17 -39 -38.5 -80.5 t-56.5 -107.5l-326 -589h551zM1144 1542h-529l20 99h529z" />
<glyph unicode="&#x101;" horiz-adv-x="1112" d="M972 14q-31 -4 -69.5 -7t-78.5 -5t-80.5 -3t-76.5 1q14 72 46.5 189.5t86.5 288.5l-4 2q-17 -40 -41.5 -92.5t-58 -108t-75.5 -109t-93 -95.5t-111 -68t-129 -26q-107 0 -163.5 72.5t-56.5 231.5q0 91 16 182.5t48.5 174t83.5 154t121 123.5t160 82t201 30q83 0 155 -8 t135 -21l-172 -897q34 -6 79.5 -11.5t89.5 -8.5zM844 908q-35 9 -76 15t-92 6q-88 0 -157 -26.5t-122 -72t-91 -107t-61.5 -130.5t-34.5 -142.5t-11 -143.5q0 -59 9 -100t25 -66.5t38 -37.5t50 -12q57 0 112.5 35t107.5 93.5t98 134t83.5 156t64 159.5t40.5 146zM927 1287 h-481l20 100h480z" />
<glyph unicode="&#x102;" horiz-adv-x="1378" d="M1268 0h-441l13 70q40 10 85.5 17.5t89.5 10.5l-42 264h-624l-146 -264q40 -3 83.5 -10.5t78.5 -17.5l-13 -70h-440l13 70q29 8 66 15.5t67 10.5l725 1286h143l228 -1284q14 -1 31 -4t34.5 -7t34 -8.5t29.5 -8.5zM854 1053l-16.5 121t-9.5 72h-2q-17 -39 -38.5 -80.5 t-56.5 -107.5l-326 -589h551zM1164 1735q-10 -46 -32.5 -87.5t-59.5 -73.5t-87.5 -50.5t-114.5 -18.5t-104.5 19t-63 51t-28 73.5t3.5 86.5h87q-6 -27 -1 -51t20 -42t41 -28.5t63 -10.5q34 0 64 9t53 25.5t38.5 41t21.5 56.5h99v0z" />
<glyph unicode="&#x103;" horiz-adv-x="1112" d="M972 14q-31 -4 -69.5 -7t-78.5 -5t-80.5 -3t-76.5 1q14 72 46.5 189.5t86.5 288.5l-4 2q-17 -40 -41.5 -92.5t-58 -108t-75.5 -109t-93 -95.5t-111 -68t-129 -26q-107 0 -163.5 72.5t-56.5 231.5q0 91 16 182.5t48.5 174t83.5 154t121 123.5t160 82t201 30q83 0 155 -8 t135 -21l-172 -897q34 -6 79.5 -11.5t89.5 -8.5zM844 908q-35 9 -76 15t-92 6q-88 0 -157 -26.5t-122 -72t-91 -107t-61.5 -130.5t-34.5 -142.5t-11 -143.5q0 -59 9 -100t25 -66.5t38 -37.5t50 -12q57 0 112.5 35t107.5 93.5t98 134t83.5 156t64 159.5t40.5 146zM955 1466 q-9 -50 -31.5 -94.5t-58 -79t-84.5 -54t-109 -19.5q-59 0 -100 20t-62.5 54.5t-27 78.5t4.5 94h88q-5 -29 -1 -55t18 -46.5t38.5 -32t58.5 -11.5q65 0 109.5 38.5t58.5 106.5h98z" />
<glyph unicode="&#x104;" horiz-adv-x="1378" d="M1211 0q-41 0 -96.5 -29t-107 -76t-84 -102t-32.5 -105q0 -27 17.5 -43t53.5 -16q32 0 67.5 13.5t75.5 41.5l34 -80q-50 -39 -101.5 -59t-103.5 -20q-42 0 -74.5 11.5t-54 31t-32 45t-10.5 53.5q0 56 27 112t69.5 103t89 78.5t84.5 40.5h-206l13 70q40 10 85.5 17.5 t89.5 10.5l-42 264h-624l-146 -264q40 -3 83.5 -10.5t78.5 -17.5l-13 -70h-440l13 70q29 8 66 15.5t67 10.5l725 1286h143l228 -1286q15 -1 32 -4t34.5 -6.5t33.5 -7.5t29 -8l-15 -70h-57zM854 1053l-16.5 121t-9.5 72h-2q-17 -39 -38.5 -80.5t-56.5 -107.5l-326 -589h551z " />
<glyph unicode="&#x105;" horiz-adv-x="1112" d="M972 14q-91 -9 -163 -45.5t-122.5 -85t-77.5 -101.5t-27 -94q0 -26 17 -42.5t54 -16.5q32 0 67.5 13.5t75.5 41.5l35 -80q-50 -39 -101.5 -59t-104.5 -20q-43 0 -75 11.5t-53.5 31.5t-31.5 45.5t-10 52.5q0 43 16.5 87t48 87.5t78 87t107.5 83.5q3 54 7.5 103t14.5 102 t27.5 116t45.5 146l-4 2q-17 -40 -41.5 -92.5t-58 -108t-75.5 -109t-93 -95.5t-111 -68t-129 -26q-107 0 -163.5 72.5t-56.5 231.5q0 91 16 182.5t48.5 174t83.5 154t121 123.5t160 82t201 30q83 0 155 -8t135 -21l-117 -610q-17 -88 -26 -164t-11 -127q31 -5 72 -9t79 -7z M844 908q-35 9 -76 15t-92 6q-88 0 -157 -26.5t-122 -72t-91 -107t-61.5 -130.5t-34.5 -142.5t-11 -143.5q0 -59 9 -100t25 -66.5t38 -37.5t50 -12q57 0 112.5 35t107.5 93.5t98 134t83.5 156t64 159.5t40.5 146z" />
<glyph unicode="&#x106;" horiz-adv-x="1171" d="M1151 1060h-81q0 51 1.5 99.5t9.5 97.5q-57 17 -109.5 23t-107.5 6q-104 0 -190 -32t-153.5 -89.5t-117 -134.5t-81.5 -167.5t-47.5 -189.5t-15.5 -199q0 -82 18 -150.5t61 -118t114.5 -77t178.5 -27.5q37 0 83.5 6.5t94.5 17t93 25t81 31.5l14 -116q-88 -37 -191 -58 t-203 -21q-94 0 -166.5 17t-127 48t-91 73.5t-59.5 94.5t-33 112t-10 124q0 124 22.5 242t66.5 222t110 192t153 151.5t194.5 99t234.5 35.5q91 0 166.5 -11.5t146.5 -30.5zM851 1498l-27 80l356 149l36 -109z" />
<glyph unicode="&#x107;" horiz-adv-x="856" d="M819 718l-73 2q-2 24 -2 48.5t1 49.5t3 49t6 47q-28 8 -58.5 11.5t-64.5 3.5q-70 0 -129 -25t-105.5 -68t-81.5 -101t-59 -123t-35.5 -134.5t-11.5 -135.5q0 -44 8 -88t33.5 -78t72 -55.5t123.5 -21.5q64 0 130 15t123 40l15 -106q-58 -24 -136 -41.5t-162 -17.5 q-99 0 -165 25t-105.5 68.5t-56.5 102.5t-17 127q0 146 39.5 277t113.5 229t180 155.5t241 57.5q61 0 118.5 -10t107.5 -27zM639 1184l-58 70l276 254l75 -89z" />
<glyph unicode="&#x10c;" horiz-adv-x="1171" d="M1151 1060h-81q0 51 1.5 99.5t9.5 97.5q-57 17 -109.5 23t-107.5 6q-104 0 -190 -32t-153.5 -89.5t-117 -134.5t-81.5 -167.5t-47.5 -189.5t-15.5 -199q0 -82 18 -150.5t61 -118t114.5 -77t178.5 -27.5q37 0 83.5 6.5t94.5 17t93 25t81 31.5l14 -116q-88 -37 -191 -58 t-203 -21q-94 0 -166.5 17t-127 48t-91 73.5t-59.5 94.5t-33 112t-10 124q0 124 22.5 242t66.5 222t110 192t153 151.5t194.5 99t234.5 35.5q91 0 166.5 -11.5t146.5 -30.5zM894 1494l-283 166l50 85l244 -133l286 133l38 -79z" />
<glyph unicode="&#x10d;" horiz-adv-x="856" d="M819 718l-73 2q-2 24 -2 48.5t1 49.5t3 49t6 47q-28 8 -58.5 11.5t-64.5 3.5q-70 0 -129 -25t-105.5 -68t-81.5 -101t-59 -123t-35.5 -134.5t-11.5 -135.5q0 -44 8 -88t33.5 -78t72 -55.5t123.5 -21.5q64 0 130 15t123 40l15 -106q-58 -24 -136 -41.5t-162 -17.5 q-99 0 -165 25t-105.5 68.5t-56.5 102.5t-17 127q0 146 39.5 277t113.5 229t180 155.5t241 57.5q61 0 118.5 -10t107.5 -27zM642 1184l-217 258l72 67l166 -180l223 180l57 -63z" />
<glyph unicode="&#x10e;" horiz-adv-x="1421" d="M1373 886q0 -113 -23.5 -223t-72 -209t-123 -183t-175.5 -145.5t-229 -96.5t-286 -35q-54 0 -99 1t-84 2t-74 2t-67 1h-176l15 70q41 10 87 17.5t93 10.5l224 1186q-45 4 -89 11t-81 17l15 70h173q40 0 86 1t94.5 2.5t97.5 2.5t96 1q168 0 283 -39t185 -107t100 -160 t30 -197zM1236 869q0 88 -23 163.5t-78 131t-148 87t-232 31.5q-32 0 -66 -0.5t-66 -1.5t-60.5 -2t-50.5 -2l-222 -1160q23 -3 49.5 -5.5t52.5 -4.5t50 -3t41 -1q135 0 243 31t191 84.5t143.5 127t99.5 159t57.5 178.5t18.5 187zM830 1494l-283 166l50 85l244 -133l286 133 l38 -79z" />
<glyph unicode="&#x10f;" horiz-adv-x="1268" d="M816 105q34 -6 79.5 -11.5t89.5 -8.5l-13 -71q-32 -4 -69.5 -7t-77.5 -5t-80 -3t-76 1q12 72 44.5 189.5t86.5 288.5l-4 2q-17 -40 -41.5 -92.5t-58 -108t-75.5 -109t-93 -95.5t-111 -68t-129 -26q-107 0 -163.5 72.5t-56.5 231.5q0 91 16 182.5t48.5 174t83.5 154 t121 123.5t160 82t201 30q45 0 85 -4t82 -9l69 372q-34 6 -79.5 11.5t-90.5 8.5l14 71q31 4 69.5 7t79 5t80 2.5t75.5 -0.5zM844 908q-35 9 -76 15t-92 6q-88 0 -157 -26.5t-122 -72t-91 -107t-61.5 -130.5t-34.5 -142.5t-11 -143.5q0 -59 9 -100t25 -66.5t38 -37.5t50 -12 q57 0 112.5 35t107.5 93.5t98 134t83.5 156t64 159.5t40.5 146zM1230 1174l-90 31l133 335l112 -38z" />
<glyph unicode="&#x110;" horiz-adv-x="1444" d="M1394 886q0 -113 -23.5 -223t-72 -209t-123 -183t-175.5 -145.5t-229.5 -96.5t-286.5 -35q-54 0 -98.5 1t-84 2t-74.5 2t-68 1h-172l12 70q42 10 87 17.5t91 10.5l109 566h-203l19 102h203l99 518q-45 4 -88 11t-80 17l13 70h171q32 0 78 1t96.5 2.5t102.5 2.5t98 1 q168 0 283 -39t185 -107t100.5 -160t30.5 -197zM1257 869q0 88 -23 163.5t-78.5 131t-148.5 87t-232 31.5q-33 0 -66.5 -0.5t-65 -1.5t-60.5 -2t-51 -2l-98 -510h322l-21 -102h-321l-103 -548q23 -3 49 -5.5t52 -4.5t50 -3t42 -1q134 0 242 31t191.5 84.5t144 127t99.5 159 t57.5 178.5t18.5 187z" />
<glyph unicode="&#x111;" horiz-adv-x="1112" d="M1025 1192l-208 -1087q34 -6 79.5 -11.5t89.5 -8.5l-12 -71q-32 -4 -70 -7t-78.5 -5t-80.5 -3t-77 1q12 72 45 189.5t87 288.5l-4 2q-17 -40 -41.5 -92.5t-58 -108t-75.5 -109t-93 -95.5t-111 -68t-129 -26q-107 0 -163.5 72.5t-56.5 231.5q0 91 16 182.5t48.5 174 t83.5 154t121 123.5t160 82t201 30q45 0 84.5 -4t80.5 -9l35 174h-285l18 94h283l21 109q-34 6 -80.5 11.5t-89.5 8.5l12 66q31 4 69.5 7t79 5t80.5 2.5t76 -0.5l-42 -209h175l-17 -94h-173zM844 908q-35 9 -76 15t-92 6q-88 0 -157 -26.5t-122 -72t-91 -107t-61.5 -130.5 t-34.5 -142.5t-11 -143.5q0 -59 9 -100t25 -66.5t38 -37.5t50 -12q57 0 112.5 35t107.5 93.5t98 134t83.5 156t64 159.5t40.5 146z" />
<glyph unicode="&#x112;" horiz-adv-x="1057" d="M1011 1086h-82q0 53 0.5 103t5.5 89h-427l-97 -514h339q14 43 28.5 83t35.5 76h70l-79 -419h-72q-6 35 -6.5 75.5t2.5 83.5h-336l-106 -556h427q14 42 32.5 94t37.5 103h82l-57 -304h-847l15 70q41 10 87.5 17.5t93.5 10.5l223 1186q-45 4 -89 11t-81 17l15 70h842z M971 1542h-529l20 99h529z" />
<glyph unicode="&#x113;" horiz-adv-x="952" d="M896 815q0 -76 -40.5 -136t-124 -104t-211 -70.5t-299.5 -33.5q-3 -14 -5.5 -32t-4.5 -38t-3 -39.5t-1 -35.5q0 -71 13 -116t41.5 -71t74 -36.5t115.5 -10.5q72 0 143.5 15.5t134.5 42.5l9 -105q-72 -30 -155.5 -46t-180.5 -16q-83 0 -144 17.5t-102.5 55t-62.5 98.5 t-21 148q0 94 16 185t47.5 173t78.5 150.5t108 119t136 78t161 27.5q70 0 122.5 -17t87 -47t51 -70t16.5 -86zM762 800q0 32 -12 57t-33.5 41.5t-51 25t-64.5 8.5q-67 0 -124 -26.5t-102.5 -74t-78.5 -111.5t-54 -140q138 5 236.5 22t161.5 44.5t92.5 65.5t29.5 88z M878 1287h-481l20 100h480z" />
<glyph unicode="&#x116;" horiz-adv-x="1057" d="M1011 1086h-82q0 53 0.5 103t5.5 89h-427l-97 -514h339q14 43 28.5 83t35.5 76h70l-79 -419h-72q-6 35 -6.5 75.5t2.5 83.5h-336l-106 -556h427q14 42 32.5 94t37.5 103h82l-57 -304h-847l15 70q41 10 87.5 17.5t93.5 10.5l223 1186q-45 4 -89 11t-81 17l15 70h842z M821 1598q0 -20 -7 -37.5t-19.5 -30t-29 -19.5t-35.5 -7t-34.5 6.5t-27 18t-18 27t-6.5 33.5q0 20 7.5 37.5t20 30t29 19.5t35.5 7q18 0 33.5 -6.5t27 -18t18 -27t6.5 -33.5z" />
<glyph unicode="&#x117;" horiz-adv-x="952" d="M896 815q0 -76 -40.5 -136t-124 -104t-211 -70.5t-299.5 -33.5q-3 -14 -5.5 -32t-4.5 -38t-3 -39.5t-1 -35.5q0 -71 13 -116t41.5 -71t74 -36.5t115.5 -10.5q72 0 143.5 15.5t134.5 42.5l9 -105q-72 -30 -155.5 -46t-180.5 -16q-83 0 -144 17.5t-102.5 55t-62.5 98.5 t-21 148q0 94 16 185t47.5 173t78.5 150.5t108 119t136 78t161 27.5q70 0 122.5 -17t87 -47t51 -70t16.5 -86zM762 800q0 32 -12 57t-33.5 41.5t-51 25t-64.5 8.5q-67 0 -124 -26.5t-102.5 -74t-78.5 -111.5t-54 -140q138 5 236.5 22t161.5 44.5t92.5 65.5t29.5 88z M740 1354q0 -21 -7.5 -39t-20.5 -31t-30 -20t-36 -7t-35 6.5t-28 18.5t-18.5 28t-6.5 34q0 20 7.5 38.5t20 31t30 20t36.5 7.5t35 -7t27.5 -18.5t18.5 -27.5t7 -34z" />
<glyph unicode="&#x118;" horiz-adv-x="1055" d="M809 2q-72 -50 -122 -95t-79.5 -84t-42 -72t-12.5 -63q0 -27 17.5 -43t53.5 -16q32 0 67.5 13.5t76.5 41.5l34 -80q-51 -39 -102.5 -59t-103.5 -20q-42 0 -74.5 11.5t-54 31t-32 45t-10.5 53.5q0 43 16.5 87t47 87t74 83.5t97.5 76.5h-698l15 70q40 10 87 17.5t94 10.5 l223 1186q-45 4 -89.5 11t-80.5 17l15 70h842l-57 -296h-82q0 70 1 114t5 78h-427l-97 -514h339q16 50 30.5 88t33.5 71h70l-79 -419h-72q-6 34 -6.5 73.5t2.5 85.5h-336l-106 -556h427q11 35 21.5 65t48.5 132h82z" />
<glyph unicode="&#x119;" horiz-adv-x="952" d="M762 800q0 32 -12 57t-33.5 41.5t-51 25t-64.5 8.5q-67 0 -124 -26.5t-102.5 -74t-78.5 -111.5t-54 -140q138 5 236.5 22t161.5 44.5t92.5 65.5t29.5 88zM738 47q-85 -38 -152.5 -84.5t-112.5 -95t-68 -94.5t-23 -85q0 -27 18 -43t54 -16q32 0 67.5 13.5t75.5 41.5 l34 -80q-50 -39 -101.5 -59t-103.5 -20q-82 0 -126.5 41t-44.5 100q0 42 15.5 85.5t45 85t70.5 79.5t90 70q-16 -1 -32.5 -1.5t-43.5 -0.5q-81 0 -141.5 17t-102 54t-63 98t-21.5 149q0 94 16 185t47.5 173t78.5 150.5t108 119t136 78t161 27.5q70 0 122.5 -17t87 -47 t51 -70t16.5 -86q0 -76 -41 -136.5t-124.5 -104.5t-211 -70t-298.5 -33q-3 -13 -5.5 -31t-4.5 -38t-3 -40t-1 -36q0 -71 13 -116t41.5 -71t74 -36.5t115.5 -10.5q72 0 143.5 15.5t134.5 42.5z" />
<glyph unicode="&#x11a;" horiz-adv-x="1057" d="M1011 1086h-82q0 53 0.5 103t5.5 89h-427l-97 -514h339q14 43 28.5 83t35.5 76h70l-79 -419h-72q-6 35 -6.5 75.5t2.5 83.5h-336l-106 -556h427q14 42 32.5 94t37.5 103h82l-57 -304h-847l15 70q41 10 87.5 17.5t93.5 10.5l223 1186q-45 4 -89 11t-81 17l15 70h842z M711 1494l-283 166l50 85l244 -133l286 133l38 -79z" />
<glyph unicode="&#x11b;" horiz-adv-x="952" d="M896 815q0 -76 -40.5 -136t-124 -104t-211 -70.5t-299.5 -33.5q-3 -14 -5.5 -32t-4.5 -38t-3 -39.5t-1 -35.5q0 -71 13 -116t41.5 -71t74 -36.5t115.5 -10.5q72 0 143.5 15.5t134.5 42.5l9 -105q-72 -30 -155.5 -46t-180.5 -16q-83 0 -144 17.5t-102.5 55t-62.5 98.5 t-21 148q0 94 16 185t47.5 173t78.5 150.5t108 119t136 78t161 27.5q70 0 122.5 -17t87 -47t51 -70t16.5 -86zM762 800q0 32 -12 57t-33.5 41.5t-51 25t-64.5 8.5q-67 0 -124 -26.5t-102.5 -74t-78.5 -111.5t-54 -140q138 5 236.5 22t161.5 44.5t92.5 65.5t29.5 88z M614 1184l-217 258l72 67l166 -180l223 180l57 -63z" />
<glyph unicode="&#x11e;" horiz-adv-x="1407" d="M1267 1059h-83q0 55 2.5 103t7.5 92q-62 17 -125 26.5t-120 9.5q-99 0 -190 -27t-168.5 -76.5t-140.5 -119.5t-108 -155.5t-69 -184.5t-24 -206q0 -78 23 -154t75.5 -136.5t136.5 -98t205 -37.5q91 0 165.5 13t145.5 35l85 448q-45 3 -88.5 10.5t-81.5 18.5l15 69h447 l-13 -70q-36 -9 -73.5 -16t-77.5 -12l-102 -535q-54 -18 -111.5 -32t-115 -23t-113 -13.5t-104.5 -4.5q-140 0 -244.5 39.5t-173.5 110t-103.5 167.5t-34.5 211q0 132 30.5 249t86.5 216t135 177t174.5 133t205 84t226.5 29q100 0 187 -12.5t170 -36.5zM1243 1735 q-10 -46 -32.5 -87.5t-59.5 -73.5t-87.5 -50.5t-114.5 -18.5t-104.5 19t-63 51t-28 73.5t3.5 86.5h87q-6 -27 -1 -51t20 -42t41 -28.5t63 -10.5q34 0 64 9t53 25.5t38.5 41t21.5 56.5h99v0z" />
<glyph unicode="&#x11f;" horiz-adv-x="1090" d="M774 -115q-16 -88 -53.5 -161.5t-103.5 -130.5t-167 -89.5t-239 -32.5q-80 0 -142 9t-118 26l27 133q29 -12 61.5 -21.5t67 -16.5t70 -10.5t70.5 -3.5q87 0 153.5 18t117.5 58.5t86 108t54 165.5q13 72 25 126.5t26.5 110.5t34.5 123.5t52 168.5l-4 3q-20 -46 -43.5 -95 t-56.5 -103t-74.5 -106t-92.5 -93.5t-111 -66t-126 -24.5q-109 0 -164.5 74t-55.5 230q0 94 16 185t49.5 174t85 153.5t121.5 123t160 81.5t198 29q79 0 151 -7.5t139 -21.5zM844 908q-42 10 -82 15.5t-86 5.5q-85 0 -154.5 -25.5t-122.5 -71.5t-91 -106.5t-62 -130.5 t-35.5 -143t-11.5 -145q0 -57 8.5 -98.5t24.5 -67.5t38.5 -38t50.5 -12q55 0 110.5 34t107.5 92.5t98.5 133t84.5 156.5t65 161.5t40 146.5zM933 1466q-9 -50 -31.5 -94.5t-58 -79t-84.5 -54t-109 -19.5q-59 0 -100 20t-62.5 54.5t-27 78.5t4.5 94h88q-5 -29 -1 -55 t18 -46.5t38.5 -32t58.5 -11.5q65 0 109.5 38.5t58.5 106.5h98z" />
<glyph unicode="&#x122;" horiz-adv-x="1407" d="M1267 1059h-83q0 55 2.5 103t7.5 92q-62 17 -125 26.5t-120 9.5q-99 0 -190 -27t-168.5 -76.5t-140.5 -119.5t-108 -155.5t-69 -184.5t-24 -206q0 -78 23 -154t75.5 -136.5t136.5 -98t205 -37.5q91 0 165.5 13t145.5 35l85 448q-45 3 -88.5 10.5t-81.5 18.5l15 69h447 l-13 -70q-36 -9 -73.5 -16t-77.5 -12l-102 -535q-54 -18 -111.5 -32t-115 -23t-113 -13.5t-104.5 -4.5q-140 0 -244.5 39.5t-173.5 110t-103.5 167.5t-34.5 211q0 132 30.5 249t86.5 216t135 177t174.5 133t205 84t226.5 29q100 0 187 -12.5t170 -36.5zM600 -103 q25 0 45.5 -15t30.5 -41t6 -62t-28 -79t-71.5 -91t-124.5 -97l-43 56q83 63 108 117.5t4 94.5q-10 21 -9 42t11.5 37.5t28.5 27t42 10.5z" />
<glyph unicode="&#x123;" horiz-adv-x="1090" d="M774 -115q-16 -88 -53.5 -161.5t-103.5 -130.5t-167 -89.5t-239 -32.5q-80 0 -142 9t-118 26l27 133q29 -12 61.5 -21.5t67 -16.5t70 -10.5t70.5 -3.5q87 0 153.5 18t117.5 58.5t86 108t54 165.5q13 72 25 126.5t26.5 110.5t34.5 123.5t52 168.5l-4 3q-20 -46 -43.5 -95 t-56.5 -103t-74.5 -106t-92.5 -93.5t-111 -66t-126 -24.5q-109 0 -164.5 74t-55.5 230q0 94 16 185t49.5 174t85 153.5t121.5 123t160 81.5t198 29q79 0 151 -7.5t139 -21.5zM844 908q-42 10 -82 15.5t-86 5.5q-85 0 -154.5 -25.5t-122.5 -71.5t-91 -106.5t-62 -130.5 t-35.5 -143t-11.5 -145q0 -57 8.5 -98.5t24.5 -67.5t38.5 -38t50.5 -12q55 0 110.5 34t107.5 92.5t98.5 133t84.5 156.5t65 161.5t40 146.5zM853 1494q-84 -63 -109 -118t-3 -95q10 -21 9 -41.5t-11.5 -37t-28.5 -27t-42 -10.5q-25 0 -45 15t-30 41t-6.5 62t27.5 79 t71.5 90.5t124.5 97.5l43 -56v0z" />
<glyph unicode="&#x12a;" horiz-adv-x="604" d="M691 1312q-42 -10 -88 -17t-92 -11l-227 -1186q45 -3 89 -10.5t81 -17.5l-13 -70h-479l13 70q42 10 89 17.5t92 10.5l225 1186q-45 4 -88 11t-80 17l13 70h477zM755 1542h-529l20 99h529z" />
<glyph unicode="&#x12b;" horiz-adv-x="559" d="M422 14q-32 -4 -70.5 -7t-79 -5t-80.5 -3t-74 1l177 915q-35 7 -80 11t-88 7l13 71q31 4 69 7t78.5 5t79.5 2.5t74 -0.5l-177 -913q18 -3 38.5 -6.5t43 -6t45 -4.5t43.5 -3zM662 1287h-481l20 100h480z" />
<glyph unicode="&#x12e;" horiz-adv-x="604" d="M355 0q-41 0 -96.5 -29t-107 -76t-84.5 -102t-33 -105q0 -27 18 -43t54 -16q32 0 67.5 13.5t74.5 41.5l35 -80q-50 -39 -101.5 -59t-104.5 -20q-42 0 -74 11.5t-53.5 31t-32 45t-10.5 53.5q0 56 27 112t69.5 103t89 78.5t84.5 40.5h-215l13 70q42 10 89 17.5t92 10.5 l225 1186q-44 4 -87.5 11t-80.5 17l13 70h477l-12 -70q-42 -10 -88.5 -17t-91.5 -11l-227 -1186q45 -3 89 -10.5t81 -17.5l-13 -70h-86z" />
<glyph unicode="&#x12f;" horiz-adv-x="559" d="M529 1354q0 -21 -7.5 -39t-20.5 -31t-30 -20t-35 -7q-20 0 -36 6.5t-27.5 18.5t-18.5 27.5t-7 32.5q0 22 8 40t21.5 31t30.5 20.5t36 7.5t35 -7t27.5 -18.5t17.5 -27.5t6 -34zM283 -396q-51 -39 -101.5 -59t-104.5 -20q-43 0 -75.5 11.5t-53.5 31.5t-31 45.5t-10 52.5 q0 43 16 86.5t44.5 86.5t67 83.5t83.5 77.5l177 915q-35 7 -80 11t-88 7l13 71q31 4 69 7t78.5 5t79.5 2.5t74 -0.5l-177 -913q35 -7 80.5 -12t89.5 -8l-12 -71q-83 -5 -154 -40t-123 -83.5t-82 -103t-30 -99.5q0 -26 17.5 -42.5t54.5 -16.5q32 0 67.5 13.5t75.5 41.5z" />
<glyph unicode="&#x130;" horiz-adv-x="604" d="M691 1312q-42 -10 -88 -17t-92 -11l-227 -1186q45 -3 89 -10.5t81 -17.5l-13 -70h-479l13 70q42 10 89 17.5t92 10.5l225 1186q-45 4 -88 11t-80 17l13 70h477zM595 1598q0 -20 -7 -37.5t-19.5 -30t-29 -19.5t-35.5 -7t-34.5 6.5t-27 18t-18 27t-6.5 33.5q0 20 7.5 37.5 t20 30t29 19.5t35.5 7q18 0 33.5 -6.5t27 -18t18 -27t6.5 -33.5z" />
<glyph unicode="&#x131;" horiz-adv-x="559" d="M422 14q-32 -4 -70.5 -7t-79 -5t-80.5 -3t-74 1l177 915q-35 7 -80 11t-88 7l13 71q31 4 69 7t78.5 5t79.5 2.5t74 -0.5l-177 -913q18 -3 38.5 -6.5t43 -6t45 -4.5t43.5 -3z" />
<glyph unicode="&#x136;" horiz-adv-x="1294" d="M1364 1312q-71 -17 -149 -28l-660 -582l449 -604q19 -2 39.5 -4.5t41 -6.5t39.5 -8t35 -9l-14 -70h-468l13 70q36 10 74.5 16.5t76.5 9.5l-441 609l-116 -607q35 -3 78.5 -10t79.5 -18l-13 -70h-467l13 70q42 10 89 17.5t92 10.5l225 1186q-45 4 -88 11t-80 17l13 70h465 l-13 -70q-41 -11 -86 -17.5t-81 -10.5l-110 -573l644 573q-40 4 -80.5 10.5t-73.5 17.5l13 70h475zM495 -103q25 0 45.5 -15t30.5 -41t6 -62t-28 -79t-71.5 -91t-124.5 -97l-43 56q83 63 108 117.5t4 94.5q-10 21 -9 42t11.5 37.5t28.5 27t42 10.5z" />
<glyph unicode="&#x137;" horiz-adv-x="1026" d="M953 834q0 -63 -24.5 -118.5t-78.5 -101.5t-142.5 -82t-214.5 -61l212 -371q44 -5 86 -11.5t79 -16.5l-13 -72h-255l-282 521l-99 -521h-127l264 1390q-34 6 -80 11.5t-89 8.5l13 71q30 4 69 7t79.5 5t80.5 2.5t75 -0.5l-54 -278q-10 -57 -23 -112.5t-28 -112.5 t-33.5 -117.5t-40.5 -127.5l4 -1q28 63 66 116.5t85 91.5t105.5 59.5t129.5 21.5q58 0 102 -15t74 -41.5t45 -63t15 -81.5zM817 807q0 24 -8 46.5t-24 39.5t-41 27t-57 10q-48 0 -91 -19.5t-80 -51.5t-67 -73.5t-54.5 -85t-41 -85t-25.5 -75.5q136 22 229 47.5t151 57 t83.5 71.5t25.5 91zM385 -103q25 0 45.5 -15t30.5 -41t6 -62t-28 -79t-71.5 -91t-124.5 -97l-43 56q83 63 108 117.5t4 94.5q-10 21 -9 42t11.5 37.5t28.5 27t42 10.5z" />
<glyph unicode="&#x139;" horiz-adv-x="918" d="M791 0h-829l13 70q42 10 89 17.5t92 10.5l225 1186q-45 4 -88 11t-80 17l13 70h477l-12 -70q-42 -10 -88 -17t-92 -11l-224 -1177h411q6 21 14.5 46t18 51t19.5 53.5t20 53.5h82zM545 1498l-27 80l356 149l36 -109z" />
<glyph unicode="&#x13a;" horiz-adv-x="537" d="M240 105q35 -6 79 -11.5t87 -8.5l-13 -71q-31 -4 -68.5 -7t-77 -5t-79.5 -3t-74 1l264 1390q-34 6 -80 11.5t-89 8.5l13 71q30 4 68.5 7t78.5 5t80 2.5t74 -0.5zM401 1573l-27 80l356 149l36 -109z" />
<glyph unicode="&#x13b;" horiz-adv-x="918" d="M791 0h-829l13 70q42 10 89 17.5t92 10.5l225 1186q-45 4 -88 11t-80 17l13 70h477l-12 -70q-42 -10 -88 -17t-92 -11l-224 -1177h411q6 21 14.5 46t18 51t19.5 53.5t20 53.5h82zM371 -103q25 0 45.5 -15t30.5 -41t6 -62t-28 -79t-71.5 -91t-124.5 -97l-43 56 q83 63 108 117.5t4 94.5q-10 21 -9 42t11.5 37.5t28.5 27t42 10.5z" />
<glyph unicode="&#x13c;" horiz-adv-x="537" d="M240 105q35 -6 79 -11.5t87 -8.5l-13 -71q-31 -4 -68.5 -7t-77 -5t-79.5 -3t-74 1l264 1390q-34 6 -80 11.5t-89 8.5l13 71q30 4 68.5 7t78.5 5t80 2.5t74 -0.5zM132 -103q25 0 45.5 -15t30.5 -41t6 -62t-28 -79t-71.5 -91t-124.5 -97l-43 56q83 63 108 117.5t4 94.5 q-10 21 -9 42t11.5 37.5t28.5 27t42 10.5z" />
<glyph unicode="&#x13d;" horiz-adv-x="938" d="M791 0h-829l13 70q42 10 89 17.5t92 10.5l225 1186q-45 4 -88 11t-80 17l13 70h477l-12 -70q-42 -10 -88 -17t-92 -11l-224 -1177h411q6 21 14.5 46t18 51t19.5 53.5t20 53.5h82zM1121 1538l-245 -270l-71 55l222 282z" />
<glyph unicode="&#x13e;" horiz-adv-x="692" d="M240 105q35 -6 79 -11.5t87 -8.5l-13 -71q-31 -4 -68.5 -7t-77 -5t-79.5 -3t-74 1l264 1390q-34 6 -80 11.5t-89 8.5l13 71q30 4 68.5 7t78.5 5t80 2.5t74 -0.5zM652 1174l-90 31l133 335l112 -38z" />
<glyph unicode="&#x141;" horiz-adv-x="952" d="M827 0h-826l15 70q40 10 87 17.5t94 10.5l110 580l-211 -76l-26 96l259 94l93 492q-44 4 -87.5 11t-80.5 17l13 70h478l-13 -70q-39 -10 -86.5 -17t-93.5 -11l-84 -445l242 86l26 -97l-290 -103l-118 -618h407q11 39 29 90t41 110h82z" />
<glyph unicode="&#x142;" horiz-adv-x="578" d="M646 957l-239 -84l-145 -768q35 -6 81.5 -11.5t89.5 -8.5l-13 -71q-32 -4 -70.5 -7t-80 -5t-81.5 -2.5t-73 0.5l157 828l-211 -76l-25 95l257 92l87 451q-34 6 -81 11.5t-90 8.5l13 71q32 4 70.5 7t79.5 5t80.5 2.5t73.5 -0.5l-97 -509l190 68z" />
<glyph unicode="&#x143;" horiz-adv-x="1485" d="M1568 1312q-35 -9 -74 -16t-78 -12l-245 -1284h-160l-412 962q-31 75 -60 148.5t-50 143.5q-10 -69 -22 -145t-26 -154.5t-27.5 -156.5t-27.5 -150l-99 -550q43 -3 85.5 -10t78.5 -18l-13 -70h-474l13 70q42 10 88.5 17.5t92.5 10.5l223 1186q-45 4 -88 11t-80 17l13 70 h336l411 -960q30 -69 58 -141.5t53 -145.5q10 61 22 130t25 141.5t26 146t25 142.5l106 589q-44 4 -85.5 10.5t-78.5 17.5l14 70h443zM861 1498l-27 80l356 149l36 -109z" />
<glyph unicode="&#x144;" horiz-adv-x="1208" d="M1069 14q-31 -4 -68.5 -7t-77.5 -5t-80 -3t-74 1l126 661q27 138 0.5 202t-109.5 64q-56 0 -111.5 -35t-107 -92.5t-97 -131.5t-82.5 -153t-63.5 -156t-38.5 -139l-42 -220h-126l175 913q-34 6 -77.5 11.5t-88.5 8.5l13 71q31 4 69 7t78 5t80 2.5t74 -0.5 q-5 -27 -13.5 -66t-23.5 -94.5t-36.5 -129.5t-51.5 -171l4 -2q36 90 86.5 176.5t114 154.5t138.5 109.5t160 41.5q68 0 115 -24t73 -69t31 -110t-11 -148l-112 -581q35 -7 79.5 -12.5t86.5 -8.5zM708 1184l-58 70l276 254l75 -89z" />
<glyph unicode="&#x145;" horiz-adv-x="1485" d="M1568 1312q-35 -9 -74 -16t-78 -12l-245 -1284h-160l-412 962q-31 75 -60 148.5t-50 143.5q-10 -69 -22 -145t-26 -154.5t-27.5 -156.5t-27.5 -150l-99 -550q43 -3 85.5 -10t78.5 -18l-13 -70h-474l13 70q42 10 88.5 17.5t92.5 10.5l223 1186q-45 4 -88 11t-80 17l13 70 h336l411 -960q30 -69 58 -141.5t53 -145.5q10 61 22 130t25 141.5t26 146t25 142.5l106 589q-44 4 -85.5 10.5t-78.5 17.5l14 70h443zM606 -103q25 0 45.5 -15t30.5 -41t6 -62t-28 -79t-71.5 -91t-124.5 -97l-43 56q83 63 108 117.5t4 94.5q-10 21 -9 42t11.5 37.5t28.5 27 t42 10.5z" />
<glyph unicode="&#x146;" horiz-adv-x="1208" d="M1069 14q-31 -4 -68.5 -7t-77.5 -5t-80 -3t-74 1l126 661q27 138 0.5 202t-109.5 64q-56 0 -111.5 -35t-107 -92.5t-97 -131.5t-82.5 -153t-63.5 -156t-38.5 -139l-42 -220h-126l175 913q-34 6 -77.5 11.5t-88.5 8.5l13 71q31 4 69 7t78 5t80 2.5t74 -0.5 q-5 -27 -13.5 -66t-23.5 -94.5t-36.5 -129.5t-51.5 -171l4 -2q36 90 86.5 176.5t114 154.5t138.5 109.5t160 41.5q68 0 115 -24t73 -69t31 -110t-11 -148l-112 -581q35 -7 79.5 -12.5t86.5 -8.5zM495 -103q25 0 45.5 -15t30.5 -41t6 -62t-28 -79t-71.5 -91t-124.5 -97 l-43 56q83 63 108 117.5t4 94.5q-10 21 -9 42t11.5 37.5t28.5 27t42 10.5z" />
<glyph unicode="&#x147;" horiz-adv-x="1485" d="M1568 1312q-35 -9 -74 -16t-78 -12l-245 -1284h-160l-412 962q-31 75 -60 148.5t-50 143.5q-10 -69 -22 -145t-26 -154.5t-27.5 -156.5t-27.5 -150l-99 -550q43 -3 85.5 -10t78.5 -18l-13 -70h-474l13 70q42 10 88.5 17.5t92.5 10.5l223 1186q-45 4 -88 11t-80 17l13 70 h336l411 -960q30 -69 58 -141.5t53 -145.5q10 61 22 130t25 141.5t26 146t25 142.5l106 589q-44 4 -85.5 10.5t-78.5 17.5l14 70h443zM942 1494l-283 166l50 85l244 -133l286 133l38 -79z" />
<glyph unicode="&#x148;" horiz-adv-x="1208" d="M1069 14q-31 -4 -68.5 -7t-77.5 -5t-80 -3t-74 1l126 661q27 138 0.5 202t-109.5 64q-56 0 -111.5 -35t-107 -92.5t-97 -131.5t-82.5 -153t-63.5 -156t-38.5 -139l-42 -220h-126l175 913q-34 6 -77.5 11.5t-88.5 8.5l13 71q31 4 69 7t78 5t80 2.5t74 -0.5 q-5 -27 -13.5 -66t-23.5 -94.5t-36.5 -129.5t-51.5 -171l4 -2q36 90 86.5 176.5t114 154.5t138.5 109.5t160 41.5q68 0 115 -24t73 -69t31 -110t-11 -148l-112 -581q35 -7 79.5 -12.5t86.5 -8.5zM731 1184l-217 258l72 67l166 -180l223 180l57 -63z" />
<glyph unicode="&#x14c;" horiz-adv-x="1417" d="M1375 901q0 -131 -27.5 -250t-78.5 -221t-122.5 -184.5t-159 -141t-187.5 -90t-209 -31.5q-121 0 -212 33.5t-151 97.5t-90 157t-30 212q0 126 27 243t76.5 218.5t120 185.5t157 144t187.5 93t212 33q118 0 208.5 -33.5t152.5 -97.5t94 -157t32 -211zM1233 886 q0 93 -23 167.5t-68 126.5t-114 80t-162 28q-89 0 -168.5 -28.5t-148 -79.5t-124 -123.5t-94.5 -160t-60.5 -188t-21.5 -208.5q0 -92 23.5 -167t68.5 -127.5t111.5 -80.5t154.5 -28q84 0 164 27.5t149 77t127 121t99 159t64 190t23 214.5zM1161 1542h-529l20 99h529z" />
<glyph unicode="&#x14d;" horiz-adv-x="1087" d="M1008 671q0 -157 -48 -284.5t-129 -217.5t-185 -138t-216 -48q-88 0 -154.5 23t-111 68t-67.5 112.5t-23 155.5q0 99 19 188.5t54 166t86 139t114.5 106.5t138 68.5t159.5 24.5q94 0 162.5 -27t113 -74.5t66 -114.5t21.5 -148zM873 660q0 130 -60 199.5t-187 69.5 q-94 0 -171 -46.5t-132 -124.5t-85.5 -179t-30.5 -211q0 -68 14 -119.5t44.5 -86.5t78 -53t112.5 -18q81 0 156 40.5t133 114.5t93 179t35 235zM962 1287h-481l20 100h480z" />
<glyph unicode="&#x150;" horiz-adv-x="1417" d="M1375 901q0 -131 -27.5 -250t-78.5 -221t-122.5 -184.5t-159 -141t-187.5 -90t-209 -31.5q-121 0 -212 33.5t-151 97.5t-90 157t-30 212q0 126 27 243t76.5 218.5t120 185.5t157 144t187.5 93t212 33q118 0 208.5 -33.5t152.5 -97.5t94 -157t32 -211zM1233 886 q0 93 -23 167.5t-68 126.5t-114 80t-162 28q-89 0 -168.5 -28.5t-148 -79.5t-124 -123.5t-94.5 -160t-60.5 -188t-21.5 -208.5q0 -92 23.5 -167t68.5 -127.5t111.5 -80.5t154.5 -28q84 0 164 27.5t149 77t127 121t99 159t64 190t23 214.5zM1087 1497l-41 74l301 178l51 -96z M726 1499l-43 74l291 194l57 -94z" />
<glyph unicode="&#x151;" horiz-adv-x="1087" d="M1008 671q0 -157 -48 -284.5t-129 -217.5t-185 -138t-216 -48q-88 0 -154.5 23t-111 68t-67.5 112.5t-23 155.5q0 99 19 188.5t54 166t86 139t114.5 106.5t138 68.5t159.5 24.5q94 0 162.5 -27t113 -74.5t66 -114.5t21.5 -148zM873 660q0 130 -60 199.5t-187 69.5 q-94 0 -171 -46.5t-132 -124.5t-85.5 -179t-30.5 -211q0 -68 14 -119.5t44.5 -86.5t78 -53t112.5 -18q81 0 156 40.5t133 114.5t93 179t35 235zM823 1184l-64 62l279 257l76 -83zM499 1184l-66 62l266 266l79 -79z" />
<glyph unicode="&#x152;" horiz-adv-x="1733" d="M1685 1086h-83q0 61 1.5 109t4.5 83h-423l-98 -514h340q16 50 31 88t34 71h69l-80 -419h-71q-6 34 -6.5 73.5t2.5 85.5h-338l-106 -556h433q11 35 33 92.5t40 104.5h80l-58 -304h-673q-63 -8 -118 -12.5t-108 -4.5q-120 0 -211 33t-151.5 97.5t-90.5 157.5t-30 212 q0 124 26.5 241t76.5 219.5t120.5 186.5t157.5 144.5t188.5 93t210.5 32.5q56 0 105 -4.5t93 -13.5h656zM1052 1259q-48 14 -92.5 21.5t-93.5 7.5q-87 0 -167 -28t-149 -80t-124.5 -124t-94.5 -160t-60 -188.5t-21 -207.5q0 -92 23 -166.5t68 -127.5t112 -81t154 -28 q64 0 121.5 6t107.5 19z" />
<glyph unicode="&#x153;" horiz-adv-x="1718" d="M1662 815q0 -75 -40 -135.5t-123.5 -104t-210.5 -70.5t-300 -34l-4.5 -31.5t-4.5 -37.5t-3 -40t-1 -36q0 -71 13 -116t41.5 -71.5t75 -36.5t113.5 -10q72 0 143.5 15.5t133.5 42.5l9 -105q-71 -29 -153 -45.5t-181 -16.5q-68 0 -122 12t-93.5 38.5t-65 69t-35.5 103.5 q-38 -52 -86 -93.5t-103 -70t-114.5 -44t-120.5 -15.5q-88 0 -154.5 23t-111 68t-67.5 112.5t-23 155.5q0 99 19 188.5t54.5 166t87 139t115 106.5t139 68.5t159.5 24.5q70 0 125 -16t97.5 -45t71 -70t44.5 -92q34 50 76 91t92 70t107.5 45.5t124.5 16.5q71 0 123 -17.5 t86 -47t50.5 -70t16.5 -85.5zM1529 800q0 33 -12 58t-32.5 42t-50 25.5t-65.5 8.5q-68 0 -125 -27.5t-103 -75.5t-79 -112.5t-53 -138.5q138 5 236.5 21.5t161.5 44.5t92.5 66.5t29.5 87.5zM877 660q0 130 -60 199.5t-188 69.5q-93 0 -171 -46.5t-134 -124.5t-86.5 -179 t-30.5 -211q0 -68 14 -119.5t44.5 -86.5t78 -53t112.5 -18q81 0 157 40.5t134.5 114.5t94 179t35.5 235z" />
<glyph unicode="&#x154;" horiz-adv-x="1147" d="M1084 1096q0 -99 -42 -180.5t-115.5 -139t-167.5 -88t-196 -31.5q15 -26 31 -57.5t36 -69.5l223 -432q40 -3 85.5 -11t80.5 -17l-15 -70h-258l-321 654h-35l-106 -556q45 -3 88 -10t77 -18l-13 -70h-472l13 70q42 11 88 18t91 10l225 1186q-44 4 -87.5 11t-80.5 17l13 70 h155q28 0 54.5 1t80 2.5t94.5 2.5t84 1q100 0 174 -19.5t122 -57.5t71 -92t23 -124zM949 1083q0 104 -64.5 152.5t-209.5 48.5q-52 0 -91 -1.5t-74 -4.5l-99 -520q12 -1 21 -1.5t23 -1t34 -1t47 -0.5q87 0 162 20.5t131.5 62t88 104t31.5 142.5zM650 1498l-27 80l356 149 l36 -109z" />
<glyph unicode="&#x155;" horiz-adv-x="743" d="M776 907q-47 12 -91.5 -2.5t-85.5 -47.5t-78 -81.5t-69 -105t-59.5 -117.5t-48.5 -119t-35.5 -108.5t-21.5 -88.5l-43 -237h-126l177 913q-34 6 -79 11.5t-89 8.5l13 71q30 4 68.5 7t79 5t80 2.5t73.5 -0.5q-7 -36 -16.5 -77.5t-24 -92.5t-34 -114t-45.5 -141l4 -2 q45 102 92.5 189t103.5 148t124.5 90t154.5 14zM555 1184l-58 70l276 254l75 -89z" />
<glyph unicode="&#x156;" horiz-adv-x="1147" d="M1084 1096q0 -99 -42 -180.5t-115.5 -139t-167.5 -88t-196 -31.5q15 -26 31 -57.5t36 -69.5l223 -432q40 -3 85.5 -11t80.5 -17l-15 -70h-258l-321 654h-35l-106 -556q45 -3 88 -10t77 -18l-13 -70h-472l13 70q42 11 88 18t91 10l225 1186q-44 4 -87.5 11t-80.5 17l13 70 h155q28 0 54.5 1t80 2.5t94.5 2.5t84 1q100 0 174 -19.5t122 -57.5t71 -92t23 -124zM949 1083q0 104 -64.5 152.5t-209.5 48.5q-52 0 -91 -1.5t-74 -4.5l-99 -520q12 -1 21 -1.5t23 -1t34 -1t47 -0.5q87 0 162 20.5t131.5 62t88 104t31.5 142.5zM441 -103q25 0 45.5 -15 t30.5 -41t6 -62t-28 -79t-71.5 -91t-124.5 -97l-43 56q83 63 108 117.5t4 94.5q-10 21 -9 42t11.5 37.5t28.5 27t42 10.5z" />
<glyph unicode="&#x157;" horiz-adv-x="743" d="M776 907q-47 12 -91.5 -2.5t-85.5 -47.5t-78 -81.5t-69 -105t-59.5 -117.5t-48.5 -119t-35.5 -108.5t-21.5 -88.5l-43 -237h-126l177 913q-34 6 -79 11.5t-89 8.5l13 71q30 4 68.5 7t79 5t80 2.5t73.5 -0.5q-7 -36 -16.5 -77.5t-24 -92.5t-34 -114t-45.5 -141l4 -2 q45 102 92.5 189t103.5 148t124.5 90t154.5 14zM161 -103q25 0 45.5 -15t30.5 -41t6 -62t-28 -79t-71.5 -91t-124.5 -97l-43 56q83 63 108 117.5t4 94.5q-10 21 -9 42t11.5 37.5t28.5 27t42 10.5z" />
<glyph unicode="&#x158;" horiz-adv-x="1147" d="M1084 1096q0 -99 -42 -180.5t-115.5 -139t-167.5 -88t-196 -31.5q15 -26 31 -57.5t36 -69.5l223 -432q40 -3 85.5 -11t80.5 -17l-15 -70h-258l-321 654h-35l-106 -556q45 -3 88 -10t77 -18l-13 -70h-472l13 70q42 11 88 18t91 10l225 1186q-44 4 -87.5 11t-80.5 17l13 70 h155q28 0 54.5 1t80 2.5t94.5 2.5t84 1q100 0 174 -19.5t122 -57.5t71 -92t23 -124zM949 1083q0 104 -64.5 152.5t-209.5 48.5q-52 0 -91 -1.5t-74 -4.5l-99 -520q12 -1 21 -1.5t23 -1t34 -1t47 -0.5q87 0 162 20.5t131.5 62t88 104t31.5 142.5zM723 1494l-283 166l50 85 l244 -133l286 133l38 -79z" />
<glyph unicode="&#x159;" horiz-adv-x="743" d="M776 907q-47 12 -91.5 -2.5t-85.5 -47.5t-78 -81.5t-69 -105t-59.5 -117.5t-48.5 -119t-35.5 -108.5t-21.5 -88.5l-43 -237h-126l177 913q-34 6 -79 11.5t-89 8.5l13 71q30 4 68.5 7t79 5t80 2.5t73.5 -0.5q-7 -36 -16.5 -77.5t-24 -92.5t-34 -114t-45.5 -141l4 -2 q45 102 92.5 189t103.5 148t124.5 90t154.5 14zM524 1184l-217 258l72 67l166 -180l223 180l57 -63z" />
<glyph unicode="&#x15a;" horiz-adv-x="936" d="M851 1084h-81q0 53 2.5 105.5t7.5 94.5q-20 4 -51 7t-55 3q-84 0 -145.5 -24t-102.5 -61.5t-61 -84.5t-20 -94q0 -53 19 -93.5t50.5 -74.5t71.5 -63t81.5 -58.5t81.5 -60t71.5 -69t50.5 -85.5t19 -108q0 -93 -39 -172.5t-108.5 -138t-166.5 -91.5t-213 -33 q-25 0 -53.5 1.5t-58.5 4.5t-58.5 9t-52.5 14l57 305h83q-1 -57 -3.5 -109.5t-5.5 -95.5q24 -7 54.5 -10.5t55.5 -3.5q89 0 158.5 22.5t117 62t73 95t25.5 120.5q0 50 -19 89t-50 71t-70.5 59.5t-81 56.5t-80.5 60t-70 70t-50 87t-19 111q0 80 32 152t94.5 126.5t152.5 87 t207 32.5q23 0 48 -1t51.5 -3.5t53.5 -6t54 -9.5zM601 1498l-27 80l356 149l36 -109z" />
<glyph unicode="&#x15b;" horiz-adv-x="799" d="M672 740h-73q0 47 2.5 94.5t6.5 93.5q-20 3 -42.5 4.5t-44.5 1.5q-57 0 -100.5 -13.5t-73 -37.5t-44.5 -56.5t-15 -70.5q0 -47 26 -82.5t65.5 -65.5t85 -58.5t85 -63t65.5 -78.5t26 -103q0 -64 -29 -122t-84.5 -102.5t-134.5 -71t-179 -26.5q-27 0 -51 1t-47 2.5t-45 4.5 t-41 6l53 290h73q0 -46 -1.5 -96t-6.5 -91q9 -2 21 -3t24.5 -2.5t25.5 -2t24 -0.5q58 0 107 12t84.5 36t55.5 60t20 84q0 45 -26 79t-65.5 63.5t-84.5 58.5t-84.5 64t-65.5 81t-26 108t25 116t73 94t118.5 63.5t163.5 23.5q29 0 54 -1.5t48 -3.5t44 -5.5t42 -7.5zM512 1184 l-58 70l276 254l75 -89z" />
<glyph unicode="&#x15e;" horiz-adv-x="936" d="M851 1084h-81q0 53 2.5 105.5t7.5 94.5q-20 4 -51 7t-55 3q-84 0 -145.5 -24t-102.5 -61.5t-61 -84.5t-20 -94q0 -53 19 -93.5t50.5 -74.5t71.5 -63t81.5 -58.5t81.5 -60t71.5 -69t50.5 -85.5t19 -108q0 -93 -39 -172.5t-108.5 -138t-166.5 -91.5t-213 -33 q-25 0 -53.5 1.5t-58.5 4.5t-58.5 9t-52.5 14l57 305h83q-1 -57 -3.5 -109.5t-5.5 -95.5q24 -7 54.5 -10.5t55.5 -3.5q89 0 158.5 22.5t117 62t73 95t25.5 120.5q0 50 -19 89t-50 71t-70.5 59.5t-81 56.5t-80.5 60t-70 70t-50 87t-19 111q0 80 32 152t94.5 126.5t152.5 87 t207 32.5q23 0 48 -1t51.5 -3.5t53.5 -6t54 -9.5zM348 -84q30 -49 37.5 -97.5t-6 -97.5t-45 -99.5t-79.5 -104.5h-123q49 54 80.5 99t44.5 85.5t6 80.5t-35 83l120 51v0z" />
<glyph unicode="&#x15f;" horiz-adv-x="799" d="M672 740h-73q0 47 2.5 94.5t6.5 93.5q-20 3 -42.5 4.5t-44.5 1.5q-57 0 -100.5 -13.5t-73 -37.5t-44.5 -56.5t-15 -70.5q0 -47 26 -82.5t65.5 -65.5t85 -58.5t85 -63t65.5 -78.5t26 -103q0 -64 -29 -122t-84.5 -102.5t-134.5 -71t-179 -26.5q-27 0 -51 1t-47 2.5t-45 4.5 t-41 6l53 290h73q0 -46 -1.5 -96t-6.5 -91q9 -2 21 -3t24.5 -2.5t25.5 -2t24 -0.5q58 0 107 12t84.5 36t55.5 60t20 84q0 45 -26 79t-65.5 63.5t-84.5 58.5t-84.5 64t-65.5 81t-26 108t25 116t73 94t118.5 63.5t163.5 23.5q29 0 54 -1.5t48 -3.5t44 -5.5t42 -7.5zM298 -84 q30 -49 37.5 -97.5t-6 -97.5t-45 -99.5t-79.5 -104.5h-123q49 54 80.5 99t44.5 85.5t6 80.5t-35 83l120 51v0z" />
<glyph unicode="&#x160;" horiz-adv-x="936" d="M851 1084h-81q0 53 2.5 105.5t7.5 94.5q-20 4 -51 7t-55 3q-84 0 -145.5 -24t-102.5 -61.5t-61 -84.5t-20 -94q0 -53 19 -93.5t50.5 -74.5t71.5 -63t81.5 -58.5t81.5 -60t71.5 -69t50.5 -85.5t19 -108q0 -93 -39 -172.5t-108.5 -138t-166.5 -91.5t-213 -33 q-25 0 -53.5 1.5t-58.5 4.5t-58.5 9t-52.5 14l57 305h83q-1 -57 -3.5 -109.5t-5.5 -95.5q24 -7 54.5 -10.5t55.5 -3.5q89 0 158.5 22.5t117 62t73 95t25.5 120.5q0 50 -19 89t-50 71t-70.5 59.5t-81 56.5t-80.5 60t-70 70t-50 87t-19 111q0 80 32 152t94.5 126.5t152.5 87 t207 32.5q23 0 48 -1t51.5 -3.5t53.5 -6t54 -9.5zM661 1494l-283 166l50 85l244 -133l286 133l38 -79z" />
<glyph unicode="&#x161;" horiz-adv-x="799" d="M672 740h-73q0 47 2.5 94.5t6.5 93.5q-20 3 -42.5 4.5t-44.5 1.5q-57 0 -100.5 -13.5t-73 -37.5t-44.5 -56.5t-15 -70.5q0 -47 26 -82.5t65.5 -65.5t85 -58.5t85 -63t65.5 -78.5t26 -103q0 -64 -29 -122t-84.5 -102.5t-134.5 -71t-179 -26.5q-27 0 -51 1t-47 2.5t-45 4.5 t-41 6l53 290h73q0 -46 -1.5 -96t-6.5 -91q9 -2 21 -3t24.5 -2.5t25.5 -2t24 -0.5q58 0 107 12t84.5 36t55.5 60t20 84q0 45 -26 79t-65.5 63.5t-84.5 58.5t-84.5 64t-65.5 81t-26 108t25 116t73 94t118.5 63.5t163.5 23.5q29 0 54 -1.5t48 -3.5t44 -5.5t42 -7.5zM517 1184 l-217 258l72 67l166 -180l223 180l57 -63z" />
<glyph unicode="&#x162;" horiz-adv-x="1090" d="M1155 1071h-81q2 67 2.5 116.5t5.5 89.5h-330l-223 -1179q45 -3 88.5 -10.5t81.5 -17.5l-14 -70h-478l13 70q42 10 88 17.5t92 10.5l226 1179h-329q-11 -40 -29 -89.5t-42 -116.5h-82l60 311h1010zM461 -84q30 -49 37.5 -97.5t-6 -97.5t-45 -99.5t-79.5 -104.5h-123 q49 54 80.5 99t44.5 85.5t6 80.5t-35 83l120 51v0z" />
<glyph unicode="&#x163;" horiz-adv-x="741" d="M735 917h-302l-111 -585q-13 -69 -14.5 -113.5t10 -71t38 -37.5t69.5 -11q35 0 76.5 5t73.5 13l-3 -113q-42 -8 -88.5 -13.5t-88.5 -5.5q-75 0 -122.5 18.5t-71.5 57.5t-26 99t13 143l117 614h-229l21 101h229l65 343l135 34l-74 -377h305zM365 -84q30 -49 37.5 -97.5 t-6 -97.5t-45 -99.5t-79.5 -104.5h-123q49 54 80.5 99t44.5 85.5t6 80.5t-35 83l120 51v0z" />
<glyph unicode="&#x164;" horiz-adv-x="1090" d="M1155 1071h-81q2 67 2.5 116.5t5.5 89.5h-330l-223 -1179q45 -3 88.5 -10.5t81.5 -17.5l-14 -70h-478l13 70q42 10 88 17.5t92 10.5l226 1179h-329q-11 -40 -29 -89.5t-42 -116.5h-82l60 311h1010zM726 1494l-283 166l50 85l244 -133l286 133l38 -79z" />
<glyph unicode="&#x165;" horiz-adv-x="760" d="M735 917h-302l-111 -585q-13 -69 -14.5 -113.5t10 -71t38 -37.5t69.5 -11q35 0 76.5 5t73.5 13l-3 -113q-42 -8 -88.5 -13.5t-88.5 -5.5q-75 0 -122.5 18.5t-71.5 57.5t-26 99t13 143l117 614h-229l21 101h229l65 343l135 34l-74 -377h305zM735 1174l-90 31l133 335 l112 -38z" />
<glyph unicode="&#x16a;" horiz-adv-x="1444" d="M1529 1312q-72 -18 -152 -28l-147 -778q-26 -134 -77 -232.5t-128.5 -163t-180.5 -96t-231 -31.5q-123 0 -205.5 25.5t-132 71.5t-70 108.5t-20.5 137.5q0 33 4.5 67.5t10.5 69.5l155 821q-37 5 -73.5 12t-68.5 16l13 70h448l-16 -70q-39 -11 -84.5 -17.5t-89.5 -10.5 l-152 -800q-8 -37 -12 -72t-4 -67q0 -63 17.5 -111t55 -80t97 -48.5t145.5 -16.5q97 0 174.5 22t136.5 73t99.5 134t64.5 205l144 761q-43 4 -86 10.5t-80 17.5l13 70h445zM1181 1542h-529l20 99h529z" />
<glyph unicode="&#x16b;" horiz-adv-x="1208" d="M1069 14q-32 -4 -70 -7t-78.5 -5t-80.5 -3t-77 1q5 27 14 66t24 94.5t37 129.5t53 171l-4 2q-37 -90 -87.5 -176.5t-113.5 -154.5t-138 -109.5t-161 -41.5q-68 0 -115 24t-73 69t-31 110t11 148l111 579q-34 6 -77.5 12.5t-87.5 9.5l13 71q30 4 68.5 7t78 5t78.5 2.5 t74 -0.5l-126 -661q-27 -138 0 -202t109 -64q56 0 111.5 35t107 93t97.5 133t83 155.5t63.5 159t39.5 144.5l18 102q-34 6 -79.5 11.5t-88.5 8.5l14 71q31 4 69 7t78 5t79.5 2.5t73.5 -0.5l-175 -913q34 -6 81 -11.5t89 -8.5zM976 1287h-481l20 100h480z" />
<glyph unicode="&#x16e;" horiz-adv-x="1444" d="M1529 1312q-72 -18 -152 -28l-147 -778q-26 -134 -77 -232.5t-128.5 -163t-180.5 -96t-231 -31.5q-123 0 -205.5 25.5t-132 71.5t-70 108.5t-20.5 137.5q0 33 4.5 67.5t10.5 69.5l155 821q-37 5 -73.5 12t-68.5 16l13 70h448l-16 -70q-39 -11 -84.5 -17.5t-89.5 -10.5 l-152 -800q-8 -37 -12 -72t-4 -67q0 -63 17.5 -111t55 -80t97 -48.5t145.5 -16.5q97 0 174.5 22t136.5 73t99.5 134t64.5 205l144 761q-43 4 -86 10.5t-80 17.5l13 70h445zM1111 1635q0 -45 -17.5 -83t-47 -66.5t-67 -44.5t-77.5 -16t-73.5 13.5t-58.5 37t-39.5 57 t-14.5 73.5q0 46 18 85t47.5 66.5t68 43t77.5 15.5q40 0 74 -14t58 -38t38 -57.5t14 -71.5zM1024 1629q0 21 -7 41t-21 34.5t-33 23.5t-42 9t-44 -9.5t-37.5 -26.5t-27 -39.5t-10.5 -49.5q0 -21 8 -41t22 -34.5t33.5 -23.5t42.5 -9q22 0 43.5 9.5t37.5 26.5t25.5 39.5 t9.5 49.5z" />
<glyph unicode="&#x16f;" horiz-adv-x="1208" d="M1069 14q-32 -4 -70 -7t-78.5 -5t-80.5 -3t-77 1q5 27 14 66t24 94.5t37 129.5t53 171l-4 2q-37 -90 -87.5 -176.5t-113.5 -154.5t-138 -109.5t-161 -41.5q-68 0 -115 24t-73 69t-31 110t11 148l111 579q-34 6 -77.5 12.5t-87.5 9.5l13 71q30 4 68.5 7t78 5t78.5 2.5 t74 -0.5l-126 -661q-27 -138 0 -202t109 -64q56 0 111.5 35t107 93t97.5 133t83 155.5t63.5 159t39.5 144.5l18 102q-34 6 -79.5 11.5t-88.5 8.5l14 71q31 4 69 7t78 5t79.5 2.5t73.5 -0.5l-175 -913q34 -6 81 -11.5t89 -8.5zM942 1364q0 -46 -18.5 -86.5t-50 -70.5t-72 -47 t-82.5 -17t-78 14t-63 39.5t-41.5 61t-14.5 77.5q0 48 18.5 88.5t50.5 70.5t72 46t82 16t78.5 -14t63 -40t41 -61.5t14.5 -76.5zM850 1358q0 23 -8 43.5t-23 37t-35.5 25.5t-44.5 9q-23 0 -45.5 -10t-40.5 -28.5t-28.5 -42.5t-10.5 -51q0 -23 8 -44t23 -36.5t35.5 -24.5 t44.5 -9q23 0 45.5 9.5t40.5 27.5t28.5 42t10.5 52z" />
<glyph unicode="&#x170;" horiz-adv-x="1444" d="M1529 1312q-72 -18 -152 -28l-147 -778q-26 -134 -77 -232.5t-128.5 -163t-180.5 -96t-231 -31.5q-123 0 -205.5 25.5t-132 71.5t-70 108.5t-20.5 137.5q0 33 4.5 67.5t10.5 69.5l155 821q-37 5 -73.5 12t-68.5 16l13 70h448l-16 -70q-39 -11 -84.5 -17.5t-89.5 -10.5 l-152 -800q-8 -37 -12 -72t-4 -67q0 -63 17.5 -111t55 -80t97 -48.5t145.5 -16.5q97 0 174.5 22t136.5 73t99.5 134t64.5 205l144 761q-43 4 -86 10.5t-80 17.5l13 70h445zM1061 1497l-41 74l301 178l51 -96zM700 1499l-43 74l291 194l57 -94z" />
<glyph unicode="&#x171;" horiz-adv-x="1208" d="M1069 14q-32 -4 -70 -7t-78.5 -5t-80.5 -3t-77 1q5 27 14 66t24 94.5t37 129.5t53 171l-4 2q-37 -90 -87.5 -176.5t-113.5 -154.5t-138 -109.5t-161 -41.5q-68 0 -115 24t-73 69t-31 110t11 148l111 579q-34 6 -77.5 12.5t-87.5 9.5l13 71q30 4 68.5 7t78 5t78.5 2.5 t74 -0.5l-126 -661q-27 -138 0 -202t109 -64q56 0 111.5 35t107 93t97.5 133t83 155.5t63.5 159t39.5 144.5l18 102q-34 6 -79.5 11.5t-88.5 8.5l14 71q31 4 69 7t78 5t79.5 2.5t73.5 -0.5l-175 -913q34 -6 81 -11.5t89 -8.5zM890 1184l-64 62l279 257l76 -83zM566 1184 l-66 62l266 266l79 -79z" />
<glyph unicode="&#x172;" horiz-adv-x="1444" d="M832 -396q-51 -39 -102.5 -59t-103.5 -20q-42 0 -74.5 11.5t-53.5 31t-31.5 45t-10.5 53.5q0 42 15.5 85.5t45 85t70 79.5t89.5 70l-67 -2q-140 0 -231 35t-136.5 99t-54 150.5t12.5 195.5l155 820q-37 4 -73.5 11.5t-68.5 16.5l13 70h448l-16 -70q-37 -10 -82 -17 t-92 -11l-156 -818q-19 -94 -12.5 -163.5t41 -116.5t102.5 -71t172 -24q100 0 177 22.5t135.5 73t99 133.5t63.5 203l144 761q-46 4 -88.5 11t-77.5 17l13 70h445l-13 -70q-78 -19 -152 -28l-147 -778q-23 -118 -65.5 -210t-114.5 -164q-42 -41 -174.5 -117.5t-190.5 -134.5 q-31 -31 -51.5 -59t-31.5 -52.5t-15.5 -44t-4.5 -36.5q0 -27 18 -43t54 -16q32 0 67.5 13.5t75.5 41.5z" />
<glyph unicode="&#x173;" horiz-adv-x="1208" d="M965 389q-16 -89 -24 -163t-10 -125q30 -5 71.5 -9t78.5 -7l-12 -71q-92 -9 -164.5 -45.5t-123 -85t-77.5 -101.5t-27 -94q0 -26 17 -42.5t54 -16.5q32 0 67.5 13.5t76.5 41.5l34 -80q-51 -39 -101.5 -59t-104.5 -20q-44 0 -76 11.5t-53 31.5t-31 45.5t-10 52.5 q0 43 16 87t47.5 87.5t78.5 87t108 83.5q2 54 9 105.5t18 105.5t27 112.5t37 126.5l-4 2q-37 -90 -87.5 -176.5t-113.5 -154.5t-138 -109.5t-161 -41.5q-68 0 -115 24t-73 69t-31 110t11 148l111 579q-34 6 -77.5 12.5t-87.5 9.5l13 71q30 4 68.5 7t78 5t78.5 2.5t74 -0.5 l-126 -661q-27 -138 0 -202t109 -64q56 0 111.5 35t107 93t97.5 133t83 155.5t63.5 159t39.5 144.5l18 102q-34 6 -79.5 11.5t-88.5 8.5l14 71q31 4 69 7t78 5t79.5 2.5t73.5 -0.5z" />
<glyph unicode="&#x178;" horiz-adv-x="1167" d="M1307 1312q-29 -8 -66.5 -15t-68.5 -11l-530 -785l-76 -403q45 -3 88 -10.5t81 -17.5l-13 -70h-478l13 70q40 10 87 17.5t93 10.5l76 403l-223 785q-30 4 -66 11t-64 15l13 70h441l-13 -70q-36 -11 -81.5 -17.5t-94.5 -10.5l110 -425q9 -30 17 -61l16 -62t15.5 -61.5 t13.5 -60.5h3q20 32 40.5 64.5t42.5 68t47.5 75.5t55.5 86l239 376q-36 4 -77.5 10.5t-74.5 17.5l14 70h434zM1080 1594q0 -19 -7.5 -35.5t-19.5 -28.5t-28.5 -19t-34.5 -7t-33.5 6.5t-27 18t-18 27t-6.5 33.5q0 19 7 35t19.5 28.5t28.5 19.5t35 7q18 0 33.5 -6.5t26.5 -18 t18 -27t7 -33.5zM655 1594q0 -19 -7.5 -35.5t-19.5 -28.5t-28 -19t-35 -7q-18 0 -33.5 6.5t-27 18t-18 27t-6.5 33.5q0 19 7.5 35t19.5 28.5t28 19.5t35 7q18 0 33.5 -6.5t27 -18t18 -27t6.5 -33.5z" />
<glyph unicode="&#x179;" horiz-adv-x="1061" d="M1111 1289l-828 -1036q-29 -38 -58.5 -72.5t-60.5 -70.5q18 2 52 3t81 1.5t105 0.5h123h257q14 43 31.5 92t39.5 106h80l-60 -313h-879l17 93l784 987q43 53 83.5 99t84.5 94q-59 -2 -134 -3t-181 -1h-280q-11 -39 -28 -87.5t-37 -105.5h-82l58 306h850zM696 1498l-27 80 l356 149l36 -109z" />
<glyph unicode="&#x17a;" horiz-adv-x="872" d="M836 928l-668 -818q24 1 57.5 1.5t71.5 1t78 1t76 0.5h138q12 40 28 84.5t35 89.5h72l-55 -288h-672l17 92l668 821q-26 -1 -57 -1.5t-66.5 -1t-73.5 -1t-81 -0.5h-121q-14 -43 -27.5 -83.5t-31.5 -84.5h-74l54 277h650zM560 1184l-58 70l276 254l75 -89z" />
<glyph unicode="&#x17b;" horiz-adv-x="1061" d="M1111 1289l-828 -1036q-29 -38 -58.5 -72.5t-60.5 -70.5q18 2 52 3t81 1.5t105 0.5h123h257q14 43 31.5 92t39.5 106h80l-60 -313h-879l17 93l784 987q43 53 83.5 99t84.5 94q-59 -2 -134 -3t-181 -1h-280q-11 -39 -28 -87.5t-37 -105.5h-82l58 306h850zM823 1598 q0 -20 -7 -37.5t-19.5 -30t-29 -19.5t-35.5 -7t-34.5 6.5t-27 18t-18 27t-6.5 33.5q0 20 7.5 37.5t20 30t29 19.5t35.5 7q18 0 33.5 -6.5t27 -18t18 -27t6.5 -33.5z" />
<glyph unicode="&#x17c;" horiz-adv-x="872" d="M836 928l-668 -818q24 1 57.5 1.5t71.5 1t78 1t76 0.5h138q12 40 28 84.5t35 89.5h72l-55 -288h-672l17 92l668 821q-26 -1 -57 -1.5t-66.5 -1t-73.5 -1t-81 -0.5h-121q-14 -43 -27.5 -83.5t-31.5 -84.5h-74l54 277h650zM677 1354q0 -21 -7.5 -39t-20.5 -31t-30 -20 t-36 -7t-35 6.5t-28 18.5t-18.5 28t-6.5 34q0 20 7.5 38.5t20 31t30 20t36.5 7.5t35 -7t27.5 -18.5t18.5 -27.5t7 -34z" />
<glyph unicode="&#x17d;" horiz-adv-x="1061" d="M1111 1289l-828 -1036q-29 -38 -58.5 -72.5t-60.5 -70.5q18 2 52 3t81 1.5t105 0.5h123h257q14 43 31.5 92t39.5 106h80l-60 -313h-879l17 93l784 987q43 53 83.5 99t84.5 94q-59 -2 -134 -3t-181 -1h-280q-11 -39 -28 -87.5t-37 -105.5h-82l58 306h850zM737 1494 l-283 166l50 85l244 -133l286 133l38 -79z" />
<glyph unicode="&#x17e;" horiz-adv-x="872" d="M836 928l-668 -818q24 1 57.5 1.5t71.5 1t78 1t76 0.5h138q12 40 28 84.5t35 89.5h72l-55 -288h-672l17 92l668 821q-26 -1 -57 -1.5t-66.5 -1t-73.5 -1t-81 -0.5h-121q-14 -43 -27.5 -83.5t-31.5 -84.5h-74l54 277h650zM554 1184l-217 258l72 67l166 -180l223 180 l57 -63z" />
<glyph unicode="&#x192;" horiz-adv-x="860" d="M298 183q-46 -153 -93 -251t-102.5 -154t-123.5 -79t-162 -23q-32 0 -71 6.5t-72 17.5l47 110q35 -12 72.5 -19t72.5 -7q55 0 95 16.5t72 56t62 108.5t63 180l170 577h-255l19 101h266l91 301q27 91 65 161.5t90.5 120.5t123.5 77t162 27q31 0 68.5 -3.5t69.5 -9.5 l-40 -108q-32 8 -69.5 12t-75.5 4q-94 0 -156.5 -63.5t-101.5 -197.5l-96 -321h347l-19 -101h-359z" />
<glyph unicode="&#x218;" horiz-adv-x="936" d="M851 1084h-81q0 53 2.5 105.5t7.5 94.5q-20 4 -51 7t-55 3q-84 0 -145.5 -24t-102.5 -61.5t-61 -84.5t-20 -94q0 -53 19 -93.5t50.5 -74.5t71.5 -63t81.5 -58.5t81.5 -60t71.5 -69t50.5 -85.5t19 -108q0 -93 -39 -172.5t-108.5 -138t-166.5 -91.5t-213 -33 q-25 0 -53.5 1.5t-58.5 4.5t-58.5 9t-52.5 14l57 305h83q-1 -57 -3.5 -109.5t-5.5 -95.5q24 -7 54.5 -10.5t55.5 -3.5q89 0 158.5 22.5t117 62t73 95t25.5 120.5q0 50 -19 89t-50 71t-70.5 59.5t-81 56.5t-80.5 60t-70 70t-50 87t-19 111q0 80 32 152t94.5 126.5t152.5 87 t207 32.5q23 0 48 -1t51.5 -3.5t53.5 -6t54 -9.5zM317 -103q25 0 45.5 -15t30.5 -41t6 -62t-28 -79t-71.5 -91t-124.5 -97l-43 56q83 63 108 117.5t4 94.5q-10 21 -9 42t11.5 37.5t28.5 27t42 10.5z" />
<glyph unicode="&#x219;" horiz-adv-x="799" d="M672 740h-73q0 47 2.5 94.5t6.5 93.5q-20 3 -42.5 4.5t-44.5 1.5q-57 0 -100.5 -13.5t-73 -37.5t-44.5 -56.5t-15 -70.5q0 -47 26 -82.5t65.5 -65.5t85 -58.5t85 -63t65.5 -78.5t26 -103q0 -64 -29 -122t-84.5 -102.5t-134.5 -71t-179 -26.5q-27 0 -51 1t-47 2.5t-45 4.5 t-41 6l53 290h73q0 -46 -1.5 -96t-6.5 -91q9 -2 21 -3t24.5 -2.5t25.5 -2t24 -0.5q58 0 107 12t84.5 36t55.5 60t20 84q0 45 -26 79t-65.5 63.5t-84.5 58.5t-84.5 64t-65.5 81t-26 108t25 116t73 94t118.5 63.5t163.5 23.5q29 0 54 -1.5t48 -3.5t44 -5.5t42 -7.5zM270 -103 q25 0 45.5 -15t30.5 -41t6 -62t-28 -79t-71.5 -91t-124.5 -97l-43 56q83 63 108 117.5t4 94.5q-10 21 -9 42t11.5 37.5t28.5 27t42 10.5z" />
<glyph unicode="&#x21a;" horiz-adv-x="1090" d="M1155 1071h-81q2 67 2.5 116.5t5.5 89.5h-330l-223 -1179q45 -3 88.5 -10.5t81.5 -17.5l-14 -70h-478l13 70q42 10 88 17.5t92 10.5l226 1179h-329q-11 -40 -29 -89.5t-42 -116.5h-82l60 311h1010zM407 -103q25 0 45.5 -15t30.5 -41t6 -62t-28 -79t-71.5 -91t-124.5 -97 l-43 56q83 63 108 117.5t4 94.5q-10 21 -9 42t11.5 37.5t28.5 27t42 10.5z" />
<glyph unicode="&#x21b;" horiz-adv-x="741" d="M735 917h-302l-111 -585q-13 -69 -14.5 -113.5t10 -71t38 -37.5t69.5 -11q35 0 76.5 5t73.5 13l-3 -113q-42 -8 -88.5 -13.5t-88.5 -5.5q-75 0 -122.5 18.5t-71.5 57.5t-26 99t13 143l117 614h-229l21 101h229l65 343l135 34l-74 -377h305zM290 -103q25 0 45.5 -15 t30.5 -41t6 -62t-28 -79t-71.5 -91t-124.5 -97l-43 56q83 63 108 117.5t4 94.5q-10 21 -9 42t11.5 37.5t28.5 27t42 10.5z" />
<glyph unicode="&#x2c6;" horiz-adv-x="879" d="M760 1184l-166 178l-223 -178l-59 62l302 262l216 -258z" />
<glyph unicode="&#x2c7;" horiz-adv-x="879" d="M559 1184l-217 258l72 67l166 -180l223 180l57 -63z" />
<glyph unicode="&#x2d8;" horiz-adv-x="842" d="M835 1466q-9 -50 -31.5 -94.5t-58 -79t-84.5 -54t-109 -19.5q-59 0 -100 20t-62.5 54.5t-27 78.5t4.5 94h88q-5 -29 -1 -55t18 -46.5t38.5 -32t58.5 -11.5q65 0 109.5 38.5t58.5 106.5h98z" />
<glyph unicode="&#x2d9;" horiz-adv-x="563" d="M528 1354q0 -21 -7.5 -39t-20.5 -31t-30 -20t-36 -7t-35 6.5t-28 18.5t-18.5 28t-6.5 34q0 20 7.5 38.5t20 31t30 20t36.5 7.5t35 -7t27.5 -18.5t18.5 -27.5t7 -34z" />
<glyph unicode="&#x2da;" horiz-adv-x="793" d="M764 1364q0 -46 -18.5 -86.5t-50 -70.5t-72 -47t-82.5 -17t-78 14t-63 39.5t-41.5 61t-14.5 77.5q0 48 18.5 88.5t50.5 70.5t72 46t82 16t78.5 -14t63 -40t41 -61.5t14.5 -76.5zM672 1358q0 23 -8 43.5t-23 37t-35.5 25.5t-44.5 9q-23 0 -45.5 -10t-40.5 -28.5 t-28.5 -42.5t-10.5 -51q0 -23 8 -44t23 -36.5t35.5 -24.5t44.5 -9q23 0 45.5 9.5t40.5 27.5t28.5 42t10.5 52z" />
<glyph unicode="&#x2db;" horiz-adv-x="774" d="M412 -396q-50 -39 -101.5 -59t-104.5 -20q-42 0 -74 11.5t-53.5 31t-32 45t-10.5 53.5q0 43 16 87t48 88t78.5 87t107.5 83l129 -11q-71 -49 -120 -93.5t-78 -83.5t-41.5 -72.5t-12.5 -62.5q0 -27 18 -43t53 -16q32 0 67.5 13.5t76.5 41.5z" />
<glyph unicode="&#x2dc;" horiz-adv-x="1038" d="M996 1380q-38 -68 -92.5 -104.5t-116.5 -36.5q-49 0 -82.5 18t-60 40.5t-51.5 40.5t-59 18t-67 -24.5t-66 -72.5l-68 55q39 68 91.5 104.5t115.5 36.5q48 0 82 -18t62 -40t54 -40.5t60 -18.5t66.5 24.5t62.5 74.5l69 -57v0z" />
<glyph unicode="&#x2dd;" horiz-adv-x="973" d="M701 1184l-64 62l279 257l76 -83zM377 1184l-66 62l266 266l79 -79z" />
<glyph unicode="&#x312;" horiz-adv-x="463" d="M849 1494q-84 -63 -109 -118t-3 -95q10 -21 9 -41.5t-11.5 -37t-28.5 -27t-42 -10.5q-25 0 -45 15t-30 41t-6.5 62t27.5 79t71.5 90.5t124.5 97.5l43 -56v0z" />
<glyph unicode="&#x315;" horiz-adv-x="707" d="M471 1174l-90 31l133 335l112 -38z" />
<glyph unicode="&#x326;" horiz-adv-x="401" d="M69 -103q25 0 45.5 -15t30.5 -41t6 -62t-28 -79t-71.5 -91t-124.5 -97l-43 56q83 63 108 117.5t4 94.5q-10 21 -9 42t11.5 37.5t28.5 27t42 10.5z" />
<glyph unicode="&#x394;" horiz-adv-x="1210" d="M-40 0l17 93l715 1289h153l221 -1289l-16 -93h-1090zM755 1154q-3 22 -6 50t-5 52h-2q-10 -24 -22.5 -49t-29.5 -57l-562 -1035h798z" />
<glyph unicode="&#x3a9;" horiz-adv-x="1389" d="M50 301h78v-44v-52t-1.5 -53t-3.5 -48h269l25 127q-42 20 -92 51.5t-92.5 82t-71 123t-28.5 172.5q0 98 24.5 191.5t69.5 175t110 150.5t148 118t180.5 77t208.5 28q61 0 120.5 -11t114 -34.5t101.5 -60.5t82.5 -88.5t55 -118.5t19.5 -152q0 -88 -21.5 -169.5t-58.5 -153 t-86.5 -132.5t-105 -109.5t-114.5 -84t-115 -55.5l-25 -127h268q15 49 34 102.5t36 94.5h77l-56 -301h-480l49 275q88 29 171 88.5t147 143t103 184.5t39 213q0 109 -32.5 183.5t-86.5 121t-123.5 67t-142.5 20.5q-87 0 -163.5 -23.5t-141 -65.5t-115 -100.5t-86 -128 t-54 -148.5t-18.5 -161q0 -78 19.5 -138t54.5 -107t82.5 -83t104.5 -66l-51 -275h-481z" />
<glyph unicode="&#x3bc;" horiz-adv-x="1210" d="M983 387q-16 -78 -21.5 -133t-5.5 -84q0 -41 16 -56.5t47 -15.5q10 0 19.5 0.5t28.5 4.5l-3 -107q-24 -5 -45.5 -7t-34.5 -2q-34 0 -62 7t-48 24.5t-31 47t-11 74.5q0 53 15.5 132t57.5 191h-2q-36 -90 -86 -177t-111.5 -154.5t-133.5 -108.5t-152 -41q-39 0 -71 9 t-55.5 28t-39 48.5t-20.5 70.5q-1 -36 -2.5 -77t-6.5 -72q-8 -53 -14 -108.5t-10.5 -117t-6.5 -130t-2 -146.5h-126q1 141 9.5 255.5t23.5 212.5t34 184.5t39.5 171.5t42 172.5t40.5 188.5l46 239q-34 6 -80 12.5t-91 9.5l13 71q31 4 70 7t79.5 5t81 2.5t74.5 -0.5 l-112 -586q-17 -94 -19 -159t12 -105.5t42.5 -58.5t71.5 -18q54 0 108.5 35t105 93t96 133t82.5 155.5t63 159t39 144.5l19 102q-34 6 -79.5 11.5t-88.5 8.5l13 71q31 4 69 7t78 5t79.5 2.5t73.5 -0.5z" />
<glyph unicode="&#x3c0;" horiz-adv-x="1274" d="M1039 911q-12 -43 -23 -83.5t-20 -78.5t-16 -74t-12 -70q-15 -101 -21 -178t-6 -134q0 -56 5 -94t15 -61t27 -32.5t39 -9.5q24 0 50.5 3.5t49.5 11.5l-2 -108q-26 -8 -61.5 -12t-70.5 -4q-49 0 -83 15t-56.5 48.5t-32.5 88.5t-10 133q0 32 2 68t5.5 77.5t9 87t13.5 97.5 q5 35 12.5 71.5t17 75t20.5 79.5t23 83h-421q-2 -38 -8.5 -88.5t-16 -104t-22 -105.5t-24.5 -92q-26 -78 -50.5 -143.5t-52 -128t-61.5 -127t-77 -140.5l-126 36q42 76 75 137t61.5 119.5t53.5 117.5t50 131q14 39 26.5 90t22.5 104t17 104t9 90h-259l22 107h1180l-22 -107 h-252z" />
<glyph unicode="&#x2013;" d="M1135 554h-1127l22 110h1126z" />
<glyph unicode="&#x2014;" horiz-adv-x="2048" d="M1804 554h-1544l22 110h1544z" />
<glyph unicode="&#x2018;" horiz-adv-x="457" d="M553 1468q-57 -47 -90.5 -88.5t-49 -76.5t-14.5 -64.5t13 -53.5q11 -21 10.5 -43.5t-11 -40.5t-29 -30t-43.5 -12q-33 0 -56 17.5t-32 49.5t-2 76t36.5 96.5t82.5 110.5t135 118z" />
<glyph unicode="&#x2019;" horiz-adv-x="457" d="M412 1515q32 0 55.5 -17.5t32.5 -49.5t1.5 -75.5t-36 -95.5t-81.5 -110.5t-136 -118.5l-50 59q56 47 89.5 88.5t49 76.5t15 64.5t-12.5 53.5q-11 21 -10 43.5t11 40.5t28.5 29.5t43.5 11.5z" />
<glyph unicode="&#x201a;" horiz-adv-x="457" d="M156 181q32 0 55.5 -17.5t32.5 -49.5t2 -76t-36 -96t-82 -110t-136 -118l-49 58q56 48 90 89.5t49 76.5t14.5 64t-13.5 52q-11 22 -10.5 43.5t11 40.5t29 31t43.5 12z" />
<glyph unicode="&#x201c;" horiz-adv-x="795" d="M895 1468q-56 -47 -90 -88.5t-49.5 -76.5t-14.5 -64.5t14 -53.5q10 -21 9.5 -43.5t-11 -40.5t-29 -30t-43.5 -12q-24 0 -43.5 10t-31.5 29t-16.5 45.5t2 58.5t23.5 70t48 79.5t75.5 85.5t106.5 90zM553 1468q-57 -47 -90.5 -88.5t-49 -76.5t-14.5 -64.5t13 -53.5 q10 -21 9.5 -43.5t-11 -40.5t-28.5 -30t-43 -12q-33 0 -56 17.5t-32 49.5t-2 76t36.5 96t82.5 110t135 119z" />
<glyph unicode="&#x201d;" horiz-adv-x="795" d="M753 1515q32 0 55.5 -17.5t32.5 -49.5t1.5 -75.5t-36.5 -95.5t-82 -110.5t-136 -118.5l-50 59q56 47 90 88.5t49.5 76.5t15 64.5t-12.5 53.5q-11 21 -10.5 43.5t10.5 40.5t29 29.5t44 11.5zM412 1515q32 0 55.5 -17.5t32.5 -49.5t1.5 -75.5t-36 -95.5t-81.5 -110.5 t-136 -118.5l-50 59q56 47 90 88.5t49.5 76.5t15 64.5t-13.5 53.5q-11 21 -10 43.5t11 40.5t28.5 29.5t43.5 11.5z" />
<glyph unicode="&#x201e;" horiz-adv-x="795" d="M499 181q32 0 55.5 -17.5t32.5 -49.5t2 -76t-36.5 -96t-82.5 -110t-136 -118l-49 58q57 48 90.5 89.5t49 76.5t14.5 64t-13 52q-11 22 -10.5 43t11 40.5t29 31.5t43.5 12zM156 181q32 0 55.5 -17.5t32.5 -49.5t2 -76t-36 -96t-82 -110t-136 -118l-49 58q57 48 90.5 89.5 t48.5 76.5t14.5 64t-13.5 52q-11 22 -10.5 43t11 40.5t29 31.5t43.5 12z" />
<glyph unicode="&#x2020;" horiz-adv-x="887" d="M904 1175h-288l-14 -214l-128 -508h-89l66 508l68 214h-287l17 102h290l25 281h151l-79 -281h287z" />
<glyph unicode="&#x2021;" horiz-adv-x="887" d="M905 1179h-288l-18 -230l-70 -229h287l-19 -102h-287l-28 -278h-149l79 278h-288l19 102h288l17 229l71 230h-287l18 102h289l25 277h151l-78 -277h287z" />
<glyph unicode="&#x2022;" horiz-adv-x="858" d="M650 618q0 -45 -16.5 -85t-46.5 -69.5t-68.5 -46t-81.5 -16.5q-42 0 -79 15.5t-64.5 43.5t-42.5 63.5t-15 74.5q0 46 16.5 86t46.5 69.5t68.5 46t80.5 16.5t79 -16t65 -43.5t43 -63.5t15 -75z" />
<glyph unicode="&#x2026;" horiz-adv-x="1251" d="M1030 88q0 -22 -8.5 -41t-22 -33t-32 -21.5t-38.5 -7.5t-37 7.5t-28.5 20t-18 29.5t-6.5 34q0 23 8 42t22 33t32.5 21.5t38.5 7.5q21 0 37.5 -7.5t28 -20t18 -29.5t6.5 -35zM625 88q0 -22 -8 -41t-22 -33t-32.5 -21.5t-38.5 -7.5t-37 7.5t-28.5 20t-18 29.5t-6.5 34 q0 23 8.5 42t22 33t32.5 21.5t39 7.5q19 0 36 -7.5t29 -20t18 -29.5t6 -35zM220 88q0 -22 -8 -41t-22 -33t-32.5 -21.5t-38.5 -7.5q-21 0 -37 7.5t-28 20t-18.5 29.5t-6.5 34q0 23 8.5 42t22.5 33t32.5 21.5t38.5 7.5t36.5 -7.5t28.5 -20t18 -29.5t6 -35z" />
<glyph unicode="&#x2030;" horiz-adv-x="1956" d="M1829 402q0 -81 -25.5 -157t-74.5 -136t-118 -95t-152 -35q-52 0 -93.5 15t-69.5 43t-42.5 67t-14.5 87q0 80 23 157.5t68.5 141.5t113.5 101.5t155 37.5q52 0 94 -14t72.5 -42t47 -71t16.5 -100zM711 1177q0 -81 -25.5 -157.5t-74.5 -137t-117.5 -95.5t-151.5 -35 q-52 0 -93.5 15t-69.5 43t-42.5 67.5t-14.5 87.5q0 79 23 157t68.5 141.5t113.5 101.5t154 38q52 0 94 -14t72.5 -42t47 -71t16.5 -99zM88 -43l-78 64l1195 1404l78 -64zM1173 402q0 -81 -26 -157t-74.5 -136t-117.5 -95t-152 -35q-52 0 -93.5 15t-69.5 43t-42.5 67 t-14.5 87q0 80 23 157.5t68.5 141.5t113.5 101.5t154 37.5q52 0 94.5 -14t73 -42t47 -71t16.5 -100zM1703 392q0 33 -8 59t-24 44t-41 27.5t-58 9.5q-56 0 -96.5 -30t-65 -78.5t-35.5 -105.5t-11 -113q0 -29 8 -53t24 -41.5t38.5 -26.5t50.5 -9q57 0 99.5 27.5t68.5 74 t38 102t12 113.5zM586 1165q0 34 -8 60t-24 44t-41 27.5t-58 9.5q-56 0 -96.5 -30t-65 -78.5t-35.5 -105.5t-11 -114q0 -29 8 -53t24 -41t38 -26t50 -9q57 0 99.5 27.5t68.5 73.5t38.5 101.5t12.5 113.5zM1047 392q0 33 -8 59t-24 44t-41 27.5t-58 9.5q-56 0 -96.5 -30 t-65 -78.5t-35.5 -105.5t-11 -113q0 -29 8 -53t24 -41.5t38.5 -26.5t50.5 -9q57 0 99.5 27.5t68.5 74t38 102t12 113.5z" />
<glyph unicode="&#x2039;" horiz-adv-x="631" d="M276 603l162 -284l-100 -63l-194 356l306 341l87 -66z" />
<glyph unicode="&#x203a;" horiz-adv-x="631" d="M220 256l-88 67l261 283l-161 285l99 62l194 -356z" />
<glyph unicode="&#x2044;" horiz-adv-x="815" d="M-277 -275l-79 63l1624 1851l77 -63z" />
<glyph unicode="&#x2074;" horiz-adv-x="748" d="M332 755l11 58q35 9 78 16t82 11l21 114h-385l8 90l449 547h168l-101 -535h140l-21 -102h-139l-22 -114q38 -4 72 -11t65 -16l-12 -58h-414zM629 1493l-362 -442q28 1 67 2t78.5 1.5t75 0.5h58.5z" />
<glyph unicode="&#x20ac;" horiz-adv-x="1169" d="M370 488q1 -86 21 -158.5t62 -125.5t106 -83t153 -30q83 0 168 21t155 58l13 -94q-80 -43 -174 -68t-211 -25q-106 0 -187 33t-136.5 95.5t-84 152.5t-28.5 203v21h-190l17 92h177q5 52 12.5 103.5t20.5 102.5h-171l19 93h178q36 108 93.5 202.5t140.5 165.5t192.5 112 t248.5 41q75 0 151 -13t146 -36l-52 -266h-78q-1 40 2 83t9 86q-46 21 -98.5 31.5t-123.5 10.5q-110 0 -192 -35t-142 -93t-99.5 -133t-64.5 -156h510l-19 -93h-515q-11 -55 -17.5 -107t-9.5 -99h503l-18 -92h-487z" />
<glyph unicode="&#x2122;" horiz-adv-x="1636" d="M1620 1323q-20 -6 -45.5 -10.5t-50.5 -7.5l-13 -426q24 -4 45.5 -8.5t41.5 -9.5l-13 -60h-282l12 59q19 6 42.5 10.5t48.5 8.5l11 270l5 117l-45 -98l-182 -367h-115l-39 371l-7 94l-20 -76l-107 -311q23 -4 44.5 -8.5t41.5 -10.5l-12 -59h-280l13 59q20 6 45 10.5 t50 8.5l146 426q-26 3 -48 7.5t-42 10.5l11 59h245l36 -362l4 -103l36 91l186 374h250zM739 1163h-64q-1 14 -0.5 32.5t1.5 38t1.5 37.5t2.5 32h-119l-80 -420q29 -3 60 -9t54 -14l-12 -59h-336l9 59q26 8 57.5 14t62.5 9l79 420h-116q-4 -15 -9.5 -33t-11.5 -37.5 t-13 -37.5t-13 -32h-66l42 219h513z" />
<glyph unicode="&#x2202;" horiz-adv-x="1282" d="M1172 972q0 -108 -17.5 -223.5t-53.5 -225.5t-90.5 -208t-128.5 -171.5t-167 -116.5t-206 -43q-98 0 -167 27.5t-112.5 75.5t-64 111t-20.5 136q0 119 41 220t112.5 174.5t169 115t210.5 41.5q61 0 116.5 -15.5t99.5 -45.5t75.5 -73.5t43.5 -99.5q1 26 6 59.5t10.5 71.5 t9.5 78.5t4 81.5q-1 107 -29 191.5t-82 143.5t-132.5 90t-180.5 31l36 106q128 -5 225.5 -46.5t162 -112t97 -165.5t32.5 -208zM929 524q0 48 -16 93.5t-49.5 81t-85.5 56.5t-126 21q-78 0 -146.5 -31t-118.5 -87.5t-79.5 -133.5t-29.5 -168q0 -60 17 -108.5t49 -83 t79 -52.5t108 -18q77 0 148.5 32.5t127 90t89 136t33.5 171.5z" />
<glyph unicode="&#x220f;" horiz-adv-x="1573" d="M1642 1382h-224l-367 -1895h-125l367 1895h-682l-366 -1895h-126l368 1895h-225l22 113h1380z" />
<glyph unicode="&#x2211;" horiz-adv-x="1225" d="M1241 1382h-813l444 -887l-800 -891h860l-24 -117h-1031l19 98l823 923l-438 889l19 98h961z" />
<glyph unicode="&#x2212;" d="M1043 554h-945l22 110h946z" />
<glyph unicode="&#x221a;" horiz-adv-x="1208" d="M555 0h-144l-146 917h-189l20 101h288l89 -636q9 -65 17 -129.5t14 -128.5h4q27 61 52.5 117t56.5 121l567 1190h138z" />
<glyph unicode="&#x221e;" horiz-adv-x="1944" d="M1835 681q0 -65 -25.5 -134t-76.5 -125.5t-125 -93t-171 -36.5q-65 0 -125.5 20t-117 54t-110.5 77.5t-106 91.5q-71 -47 -141.5 -90.5t-139.5 -77.5t-135 -54.5t-125 -20.5q-77 0 -132.5 18.5t-91 52t-52.5 79t-17 100.5q0 53 14.5 103t40.5 93t63 78.5t80.5 61 t93.5 39.5t104 14q64 0 125 -20.5t118.5 -54.5t112 -77.5t106.5 -90.5q72 47 142.5 90.5t139.5 77.5t133.5 54.5t124.5 20.5q77 0 132.5 -19.5t91 -53t52.5 -79t17 -98.5zM1702 665q0 33 -10.5 60.5t-32 47.5t-53.5 32t-75 12q-44 0 -94.5 -17t-106.5 -46t-116 -66.5 t-123 -77.5q44 -41 88 -78t88 -65t87.5 -44.5t87.5 -16.5q57 0 104.5 20.5t82.5 56t54 82.5t19 100zM888 614q-44 41 -88 77.5t-88 64t-88 44.5t-90 17q-56 0 -103 -20.5t-81.5 -55.5t-54 -82t-19.5 -99q0 -33 10.5 -61t31.5 -49t52.5 -32.5t73.5 -11.5q44 0 95.5 17t108 46 t117 66.5t123.5 78.5z" />
<glyph unicode="&#x222b;" horiz-adv-x="672" d="M804 1377q-19 8 -47 12.5t-55 4.5q-42 0 -75.5 -16.5t-61.5 -59.5t-52 -117.5t-46 -190.5q-16 -79 -28.5 -154t-25 -150.5t-25 -154.5t-26.5 -166t-31 -184t-39 -210q-28 -149 -63.5 -249t-82.5 -160.5t-107 -86t-135 -25.5q-27 0 -52 3t-47 10l22 116q20 -7 47 -12 t54 -5q43 0 76.5 16.5t61 58.5t50.5 114t45 182q22 113 40 224.5t37.5 233.5t43 262t55.5 309q28 149 63.5 249.5t82.5 161t107 86t139 25.5q25 0 50 -3t47 -9z" />
<glyph unicode="&#x2248;" d="M1069 759q-22 -20 -50.5 -39t-61.5 -34t-69.5 -24t-77.5 -9q-50 0 -86.5 9t-66 22.5t-54.5 30t-52.5 30t-59.5 23t-76 9.5q-32 0 -62.5 -9t-58 -22t-50.5 -28t-40 -27l-46 94q25 19 54 38t62 34t70.5 24t77.5 9q46 0 82.5 -9.5t66.5 -24t56.5 -30.5t55 -30.5t60 -24 t72.5 -9.5q53 0 103 24t106 68zM1006 435q-23 -21 -52 -40t-61.5 -33.5t-69 -23.5t-76.5 -9q-50 0 -87.5 9.5t-67 23t-55 30t-52.5 30t-59 22.5t-75 9q-32 0 -62.5 -8.5t-58 -22t-50 -28t-39.5 -27.5l-47 95q24 18 53 36.5t62.5 33.5t70 24.5t76.5 9.5q47 0 83.5 -9.5 t66.5 -24t56.5 -31t55 -30.5t60.5 -23.5t74 -9.5q53 0 103.5 24t106.5 67z" />
<glyph unicode="&#x2260;" d="M1051 715h-351l-127 -211h437l-21 -111h-479l-184 -309h-115l184 309h-301l21 111h346l123 211h-428l18 108h473l191 320h114l-190 -320h307z" />
<glyph unicode="&#x2264;" d="M356 729l584 -401l-80 -95l-698 504l862 488l55 -97zM895 0h-858l22 109h856z" />
<glyph unicode="&#x2265;" d="M186 233l-59 95l723 401l-584 404l80 92l701 -502zM895 0h-858l22 109h856z" />
<glyph unicode="&#x25ca;" horiz-adv-x="1233" d="M561 -16h-82l-360 716l620 699h76l365 -715zM750 1255l-494 -559l291 -567l495 551z" />
<glyph unicode="&#x25fc;" horiz-adv-x="1070" d="M0 1070h1070v-1070h-1070v1070z" />
<glyph unicode="&#xeeee;" horiz-adv-x="358" d="M358 2007v-2662h-358v2662h358z" />
<glyph unicode="&#xf6c9;" horiz-adv-x="772" d="M420 1498l-27 80l356 149l36 -109z" />
<glyph unicode="&#xf6ca;" horiz-adv-x="879" d="M630 1494l-283 166l50 85l244 -133l286 133l38 -79z" />
<glyph unicode="&#xf6cb;" horiz-adv-x="1081" d="M1035 1594q0 -19 -7.5 -35.5t-19.5 -28.5t-28.5 -19t-34.5 -7t-33.5 6.5t-27 18t-18 27t-6.5 33.5q0 19 7 35t19.5 28.5t28.5 19.5t35 7q18 0 33.5 -6.5t26.5 -18t18 -27t7 -33.5zM610 1594q0 -19 -7.5 -35.5t-19.5 -28.5t-28 -19t-35 -7q-18 0 -33.5 6.5t-27 18t-18 27 t-6.5 33.5q0 19 7.5 35t19.5 28.5t28 19.5t35 7q18 0 33.5 -6.5t27 -18t18 -27t6.5 -33.5z" />
<glyph unicode="&#xf6ce;" horiz-adv-x="735" d="M714 1498l-361 120l53 109l342 -149z" />
<glyph unicode="&#xf6cf;" horiz-adv-x="985" d="M793 1497l-41 74l301 178l51 -96zM432 1499l-43 74l291 194l57 -94z" />
<glyph unicode="&#xf6d0;" horiz-adv-x="864" d="M891 1542h-529l20 99h529z" />
<glyph unicode="&#xf8ff;" horiz-adv-x="2130" d="M1628 1259q-6 6 -11 12t-10.5 12t-11.5 11.5t-12 11.5l152 164q16 -14 31 -28.5t28 -31.5zM1847 709v33v31l226 11q1 -22 1 -43t-1 -43zM1099 1485q-18 1 -34.5 1t-32.5 -1l-9 224q23 1 43.5 1t41.5 -1zM547 1304q-6 -5 -12 -10.5t-12 -10.5t-11.5 -11t-11.5 -11 l-165 152q15 16 29 30.5t31 28.5zM1539 740q0 -54 -11 -103t-30.5 -92t-44.5 -78.5t-55 -62.5v-155l-33 -10l64 -151l-60 -14l60 -144l-60 -15l22 -53l-58 -131h-97q-3 -19 -17 -34t-37 -27t-53 -18.5t-63 -6.5q-35 0 -65.5 6.5t-53.5 18.5t-36.5 27.5t-14.5 33.5h-98 l-96 234l62 17l-62 150l68 17l-39 96v158q-29 29 -54.5 66t-45 80t-30 91.5t-10.5 99.5q0 98 37 184.5t101 151t150.5 102t186.5 37.5q97 0 183 -37.5t150.5 -102t102 -151t37.5 -184.5zM55 698v43.5v42.5l228 -11q-1 -16 -1 -32t1 -32zM1090 793q3 -12 -7 -21q3 0 5 3.5 t3.5 7t1 7t-2.5 3.5zM1085 786q-4 0 -4 -1.5t0.5 -3t0.5 -2.5t-3 -1v-2q5 0 5.5 1t-0.5 2.5t-1.5 3t2.5 1.5v2zM1077 786q-4 1 -6 -2t-2.5 -5.5t1 -3t5.5 4.5l-2 -4h2zM1071 793q-2 0 -4 -3.5t-3.5 -7t-1 -7t2.5 -3.5q-3 10 6 21zM1461 740q0 82 -31 155t-84.5 126.5 t-126 85t-153.5 31.5q-83 0 -155 -31.5t-126 -85t-85.5 -126.5t-31.5 -155q0 -86 35 -165.5t105 -138.5h134l-30 293q-22 -5 -41.5 -10.5t-36.5 -10.5q-7 -2 -13 1.5t-9.5 10.5t-5.5 16t-1.5 17t3 13.5t7.5 7.5q60 20 123 32t128 12q64 0 127 -12t123 -32q5 -2 7.5 -7.5 t3 -13.5t-1.5 -17t-5.5 -16t-9 -10.5t-13.5 -0.5q-17 5 -36.5 10t-42.5 10l-29 -293h134q27 24 52 56t44 70.5t30.5 83t11.5 94.5zM1061 786q-2 1 -4 -1t-3 -4t0 -4t5 -1v2q-5 -2 -3 3t5 3v2zM1051 786l-2 -6q-2 -4 -2 0l2 6h-2l-3 -6q-2 -5 1.5 -4t5.5 4l2 6h-2zM1042 778 h-4l4 13h-2l-4 -13q0 -2 2 -2h4v2zM1161 740q-18 4 -42.5 6t-52.5 2t-53 -2t-43 -6l28 -304h135zM1328 374h-525v-123l35 -84l490 125v82zM1297 222l-503 -130l37 -92l506 126zM1299 55l-505 -128l56 -136h433l32 75l-16 33l-159 -40l-22 55l219 55z" />
<glyph unicode="&#xfb00;" horiz-adv-x="1292" d="M1526 1380q-36 9 -78.5 14t-77.5 5q-68 0 -117.5 -20.5t-85 -61t-58.5 -101t-38 -143.5l-10 -55h305l-16 -103h-310l-184 -956q-22 -116 -59.5 -203t-95 -146.5t-139.5 -90.5t-191 -31q-68 0 -154 14.5t-162 44.5q-25 -19 -52.5 -33t-59.5 -23t-69 -14t-81 -5 q-50 0 -97.5 4t-84.5 12l35 115q39 -12 80 -17.5t88 -5.5q62 0 109.5 18t84 58.5t63.5 106.5t46 163l188 989h-217l21 103h217l10 57q34 192 151 302t326 110q73 0 157.5 -13t157.5 -44q50 37 114.5 56t148.5 19q38 0 81 -5t84 -13zM1040 1335q-66 25 -126 36t-115 11 q-150 0 -229.5 -75t-106.5 -234l-10 -55h481l12 69q14 76 38 138.5t56 109.5zM432 915l-188 -981q-20 -101 -45.5 -171t-59.5 -121q65 -25 128 -36.5t118 -11.5q76 0 131.5 19.5t95.5 62t68 111.5t47 170l186 958h-481z" />
<glyph unicode="&#xfb01;" horiz-adv-x="1190" d="M109 1018h217l10 55q39 216 165.5 324t350.5 108q37 0 73 -2.5t69.5 -7.5t64 -12t59.5 -15l-45 -110q-25 9 -55 16.5t-61.5 13t-61.5 8.5t-55 3q-81 0 -144.5 -20t-110 -59.5t-76 -96.5t-44.5 -131l-12 -74h616l-172 -914q37 -6 82 -11.5t86 -8.5l-12 -70 q-32 -4 -70.5 -7t-79.5 -5t-80.5 -2.5t-72.5 0.5l174 915h-492l-188 -976q-25 -126 -65 -215t-96 -144.5t-129 -81.5t-165 -26q-45 0 -91 4.5t-87 13.5l33 113q39 -12 81.5 -17.5t81.5 -5.5q64 0 112.5 18.5t86 59t65 108t46.5 166.5l188 983h-217z" />
<glyph unicode="&#xfb02;" horiz-adv-x="1192" d="M895 104q36 -6 82 -11.5t88 -8.5l-14 -70q-31 -4 -69.5 -7t-79.5 -5t-81 -2.5t-73 0.5l264 1384q-48 9 -94 13t-93 4q-156 0 -240 -64t-112 -207l-20 -112h286l-22 -103h-285l-188 -976q-25 -126 -65 -215t-96 -144.5t-129 -81.5t-165 -26q-45 0 -91 4.5t-87 13.5l33 113 q39 -12 81.5 -17.5t81.5 -5.5q64 0 112.5 18.5t86 59t65 108t46.5 166.5l188 983h-217l21 103h217l22 115q18 91 56.5 160.5t98.5 116.5t143 71t188 24q82 0 161.5 -7t159.5 -19z" />
<glyph unicode="&#xfb03;" horiz-adv-x="1798" d="M1661 14q-32 -4 -70.5 -7t-79.5 -5t-80.5 -2.5t-72.5 0.5l174 915h-492l-184 -956q-22 -116 -59.5 -203t-95 -146.5t-139.5 -90.5t-191 -31q-68 0 -154 14.5t-162 44.5q-25 -19 -52.5 -33t-60 -23t-69.5 -14t-80 -5q-50 0 -97.5 4t-84.5 12l35 115q39 -12 80 -17.5 t88 -5.5q62 0 109.5 18t84 58.5t63.5 106.5t46 163l188 989h-217l21 103h217l10 57q34 192 151 302t326 110q87 0 175.5 -17t158.5 -47q63 42 138.5 62t174.5 20q38 0 74 -2.5t69.5 -7.5t63.5 -12t59 -15l-45 -110q-25 9 -55 16.5t-61.5 13t-61.5 8.5t-55 3 q-161 0 -253 -78.5t-122 -228.5l-12 -74h616l-172 -914q18 -3 38.5 -6t42.5 -5.5l44 -5t43 -3.5zM1051 1333q-57 21 -124 35t-128 14q-149 0 -227.5 -74.5t-108.5 -234.5l-10 -55h481l14 82q14 69 41.5 131t61.5 102zM432 915l-188 -981q-20 -101 -45.5 -171t-59.5 -121 q65 -25 128 -36.5t118 -11.5q76 0 131.5 19.5t95.5 62t68 111.5t47 170l186 958h-481z" />
<glyph unicode="&#xfb04;" horiz-adv-x="1796" d="M1503 104q18 -3 38.5 -6t43 -5.5l45 -5t43.5 -3.5l-14 -70q-31 -4 -69.5 -7t-79.5 -5t-81 -2.5t-73 0.5l264 1384q-47 9 -93 13t-93 4q-170 0 -248 -71.5t-105 -199.5l-20 -112h285l-21 -103h-285l-184 -956q-22 -116 -59.5 -203t-95 -146.5t-139.5 -90.5t-191 -31 q-68 0 -154 14.5t-162 44.5q-25 -19 -52.5 -33t-60 -23t-69.5 -14t-80 -5q-50 0 -97.5 4t-84.5 12l35 115q39 -12 80 -17.5t88 -5.5q62 0 109.5 18t84 58.5t63.5 106.5t46 163l188 989h-217l21 103h217l10 57q34 192 151 302t326 110q32 0 70.5 -3t81.5 -10t87.5 -19 t84.5 -28q64 43 140.5 60.5t168.5 17.5q80 0 159.5 -7t157.5 -19zM1040 1335q-66 25 -126 36t-115 11q-149 0 -227.5 -74.5t-108.5 -234.5l-10 -55h481l22 115q12 63 34.5 114.5t49.5 87.5zM432 915l-188 -981q-20 -101 -45.5 -171t-59.5 -121q65 -25 128 -36.5t118 -11.5 q76 0 131.5 19.5t95.5 62t68 111.5t47 170l186 958h-481z" />
<glyph horiz-adv-x="1966" d="M1802 1169q0 -8 -4 -8q-22 3 -43 0.5t-43 -4.5q-35 -2 -61 -3t-47.5 -2.5t-39.5 -3.5t-36 -5q-8 -7 -10.5 -15.5t-3.5 -17t-2 -17.5t-5 -18q0 -9 3.5 -16t5.5 -15q5 -6 12.5 -9t15.5 -5q14 2 27.5 8t19.5 19q0 8 -4 13.5t-10 10.5q-5 4 -10.5 5t-11 1t-10.5 1.5t-9 7.5 q6 10 19.5 8t25.5 -2q11 -3 18.5 -12t12.5 -21q-2 -17 -12 -30.5t-25 -24.5q-11 -3 -21.5 -5t-21.5 -5q-25 6 -51 16t-41 33q-4 12 -3.5 23t2 22t4 22t3.5 23q-5 9 -13.5 7.5t-17.5 0.5l-67 -2q0 3 -2.5 4t-2.5 4q7 5 15 4.5t14 1.5q19 -3 39 -1.5t39 1.5q8 6 9 16t1 19 q6 14 7 32.5t12 29.5q5 3 9 2t7 -4t6 -7t6 -6q6 -8 6.5 -16.5t0.5 -18.5v-20t4 -19q4 -6 9.5 -7.5t11.5 -1l12 1t12 -0.5q24 1 48 1.5t52 1.5t60 3t71 7q3 -2 4.5 -2.5t3.5 -4.5zM1327 1028q-25 0 -52.5 -1t-51.5 -9q-8 3 -15 5t-12 11q5 28 7.5 57.5t-5.5 57.5 q-5 6 -13.5 0.5t-15.5 -8.5q-14 -9 -28 -19t-26 -22t-20 -26.5t-10 -31.5q-8 -8 -18.5 -11.5t-19.5 1.5q-6 7 -6.5 15t0 16t1.5 16.5t-2 16.5l-2 63q-6 6 -16 3.5t-21 0.5q-2 1 -6 1.5t-7.5 1t-6 2t-2.5 6.5q26 -2 52.5 2.5t53.5 -0.5q6 -6 6.5 -14t0 -16.5t1.5 -15.5 t11 -10q28 13 53.5 30t52.5 28q6 -4 14 -4h15t12.5 -2.5t8.5 -12.5q5 -22 3.5 -43.5t0.5 -44.5q3 -6 2.5 -12.5t5.5 -11.5q8 -2 14 -3t12 3q8 0 16 -2.5t19 -2.5q2 -2 2.5 -4.5t-2.5 -5.5zM915 1145q8 -38 -14 -64q-11 -7 -21 -15.5t-20 -16.5t-21 -14t-24 -7q-6 2 -9 -0.5 t-5 -6t-4.5 -5.5t-8.5 2q-11 8 -24.5 4t-26.5 -2q-12 0 -22 0.5t-21 5.5q-8 7 -16 14.5t-14.5 16.5t-9 20t2.5 23q7 18 18.5 34t31.5 27q21 11 44.5 22t51.5 5q16 -1 33 -2.5t32 -6t27 -12.5t20 -22zM926 1360q-11 -13 -27.5 -17.5t-32.5 0.5q-9 13 -17.5 24.5t-10.5 25.5 q-13 21 -31.5 32.5t-40 18.5t-44.5 11.5t-44 10.5l-64 4q-5 -5 -12.5 -3t-13.5 -1q-35 -11 -61.5 -20.5t-51.5 -22.5q-6 -8 -15 -14t-17 -12.5t-15 -14.5t-8 -20q-13 -31 -17 -69.5t-6 -73.5q10 -8 22 -5.5t23 0.5q44 5 87 5h89q4 -2 4.5 -7t-1.5 -8q-9 -6 -16.5 -5t-15.5 4 t-15.5 5.5t-16.5 -0.5q-20 2 -42 -1t-42 -1q-18 -3 -38 -4t-36 -10l-6 -8q-2 -19 -2 -34v-29.5t1 -30t3 -35.5q1 -7 0.5 -14.5t-0.5 -14.5t1.5 -14.5t6.5 -14.5q26 -2 41.5 -1.5t29 2t29.5 3.5t42 3q6 5 13 2t13 -5q2 -2 1 -4t1 -4l-8 -4q-24 4 -42.5 3.5t-37.5 -3t-41 -4.5 t-53 0q-22 -2 -46.5 -4t-47.5 0q-32 -2 -67 -2t-64 8l-4 6q3 3 8 6t10 5q16 -8 37 -10t43 -5q14 2 28 1t25 7q-1 26 2 49t6.5 45t8 45.5t6.5 51.5q-2 4 -6 8q-31 1 -59 -0.5t-56 10.5q-2 5 0.5 8t5.5 3q28 -8 57.5 -8.5t57.5 1.5l4 7q5 34 11.5 70.5t19.5 64.5v6 q46 54 107 86.5t136 40.5q38 5 75 -4t69 -23q9 -3 20 -3t21 -5q35 -8 69.5 -24.5t57.5 -47.5q3 -3 2.5 -8t-2.5 -10zM1571 -127q-23 1 -48.5 -1t-52 -4.5t-51.5 -4t-47 1.5q-57 2 -112.5 -1t-110.5 -7t-110 -5t-111 5q-51 -8 -99 -3.5t-98 9.5q-60 5 -122.5 3.5t-125.5 -1.5 q-21 0 -47.5 -0.5t-54.5 -2.5t-54.5 -5t-47.5 -9q-8 -2 -17 -1.5t-14 10.5q0 32 -2.5 66.5t8.5 66.5q3 40 1.5 81.5t4.5 82.5q-4 23 -3.5 45.5t2 45t2.5 45.5t-3 46q0 66 5.5 132.5t8.5 135.5q5 74 2 146.5t0 146.5q4 9 10.5 11t13.5 2t15 -0.5t15 1.5q8 -5 18 -5.5 t19.5 0.5t19.5 2.5t18 0.5q7 7 16 11.5t11 -9.5q3 -5 0.5 -12t5.5 -12q-4 -29 -3 -78.5t4 -107t7 -117t7 -109.5q32 10 61.5 25t58 31.5t57 32t60.5 26.5q11 5 20 12t23 12q3 2 8 7t13 0q10 -5 8 -15.5t-2 -19.5q-10 -28 -12.5 -61t2.5 -64q5 -9 13.5 -5.5t14.5 3.5 q17 14 35 23t35 22q20 12 41 23.5t43 19.5q25 17 48.5 33.5t49.5 25.5l41 33q3 8 12 14q7 0 12 -3.5t11 -8.5q0 -29 6 -58.5t6 -58.5q2 -6 6 -4.5t6 -3.5q8 -11 3.5 -21.5t-7.5 -19.5l4 -4q35 8 65 26.5t59.5 39t59 39t64.5 26.5q10 9 22 12.5t23 14.5q10 1 19 8.5t18 14 t19 8.5t22 -7q3 0 7.5 -1.5t6.5 -6.5q-2 -8 2 -13t7 -11q-2 -8 -1.5 -15.5t1 -14t0.5 -13.5t-4 -13q1 -13 0 -26t-1 -25.5t2.5 -24t8.5 -22.5q-2 -7 0.5 -13t4.5 -12t2.5 -11.5t-3.5 -10.5q2 -16 0.5 -29.5t7.5 -25.5q2 -10 3 -19.5t-5 -17.5q5 -23 5.5 -47.5t8.5 -47.5 q-5 -8 -2.5 -16t2.5 -16q0 -39 3.5 -76t8 -74t8.5 -74.5t5 -76.5q0 -3 2.5 -8.5t-0.5 -10.5zM870 1104q-5 22 -16 43.5t-37 26.5q-3 -11 -12.5 -8.5t-16.5 1.5q-14 7 -28.5 3t-24.5 -15q-11 -15 -11.5 -30t5 -29.5t14 -28.5t17.5 -27q3 -8 9.5 -6t14.5 0q14 -5 26.5 2.5 t25.5 12.5q6 6 13.5 11.5t13.5 11.5t8.5 13.5t-1.5 18.5zM1513 -20l-16 34t-20 31q-13 22 -27.5 42t-17.5 46q-5 9 -10.5 17.5t-2.5 17.5q14 17 34 27.5t34 25.5l-19 35q-18 -2 -33 -8.5t-30 -11.5q-4 -3 -8.5 -7t-9.5 -6.5t-10.5 -2.5t-10.5 5q2 41 3 81.5t-1 78.5l-4 6 q-16 0 -28.5 5t-26.5 10q-3 -23 -6.5 -48.5t0.5 -50.5q-3 -8 -3 -18.5t1 -21t1 -21t-4 -19.5q2 -32 0.5 -57t-3 -49t-2 -49t2.5 -56l-2 -14h49q7 2 13.5 -2t11.5 2v28t-2 29q1 8 -1.5 17t-3.5 17t1.5 14.5t13.5 9.5q11 -5 11.5 -14t7.5 -17q-1 -7 1.5 -13t6 -11.5l7 -11 t5.5 -11.5q10 -6 17 -14.5t13.5 -18t13.5 -19t16 -16.5q6 2 11.5 -2.5t14.5 -1.5q5 0 8.5 4t3.5 9zM1245 367q-3 9 -8 17t-16 13q-5 5 -11.5 6t-9.5 -6q-9 -12 -13 -30.5t5 -30.5q3 -11 15.5 -12t23.5 4q9 6 12.5 17t1.5 22zM1249 31q0 40 -2 79t-2 76q0 14 1.5 27.5 t-1.5 26.5q-7 5 -14 5.5t-14 -1t-14.5 -3.5t-14.5 -1q-7 -12 -9 -24.5t-1.5 -25.5t1 -26.5t-0.5 -26.5q-5 -11 -5 -25t-2 -28q3 -10 2.5 -21.5t-0.5 -23.5t2 -23.5t9 -21.5q15 0 31 2.5t30 7.5q3 6 3.5 13.5t0.5 13.5zM1147 252q-16 -2 -33.5 -5t-28.5 -22q-4 -4 -5.5 -10.5 t-4 -13t-7 -10t-13.5 -1.5q-5 16 -4.5 29.5t0.5 30.5q-4 2 -8 1.5t-8 -1.5t-7.5 -1.5t-7.5 1.5q-9 -5 -14.5 -12t-8.5 -15q0 -60 1 -114t8 -113l6 -8q5 -4 11.5 -4t13 1t12 2t10.5 -1q-3 11 -2.5 21.5t1.5 21t1 20.5t-4 21q5 23 11 46.5t21 43.5q13 9 27 12t27 14 q2 17 6.5 33t-0.5 33zM938 61q9 18 12 36t1.5 37t-5.5 38t-8 39q1 6 -5.5 11.5t-15.5 11t-18 9.5t-12 7t-9 3.5t-8 -5.5q-22 3 -39 -8q-11 -7 -15.5 -16.5t-12.5 -14.5q-5 -3 -10.5 -1t-8.5 7q8 37 4 75t-10 77l-4 14h-16q-9 -3 -12.5 -9t-4 -13.5t-0.5 -15t-2 -13.5 q-6 -34 -4 -69.5t-4 -70.5q3 -34 0 -67t0 -64q0 -18 -3 -35.5t-1 -37.5q14 -8 32 -2t32 12q10 4 16.5 1.5t11.5 -8t10 -12t11 -10.5h13t13 2q11 6 24 17t24 23.5t18 26t6 25.5zM682 70q-7 22 -6.5 45t1 45t-1.5 43.5t-13 40.5q-26 15 -48 24l-16 11q-9 -2 -17.5 -1.5 t-17 0.5t-17 -2t-16.5 -8q-14 -8 -14 -22.5t-2 -30.5q11 -5 24 -3.5t25.5 2.5t23.5 -1.5t19 -15.5q-1 -4 0.5 -7l3 -6t1.5 -5.5t-3 -6.5q-2 -3 -2.5 -8t4.5 -8q3 -5 1.5 -11t-7.5 -8q-14 -5 -28 -4t-29 -2q-23 -9 -34.5 -31.5t-16.5 -44.5q-3 -5 -3 -10.5t1 -11t1.5 -11 t-3.5 -10.5q0 -14 9.5 -22t20.5 -13q3 4 7.5 7t9.5 -2q8 -3 15.5 0t14.5 8.5t14 12t15 11.5q11 2 13 -2t1.5 -11t-1 -15t4.5 -13q10 -5 17 -0.5t16 4.5q8 4 16.5 5.5t14.5 7.5zM508 371q-25 5 -53 3.5t-54 -3.5q-15 -2 -29.5 -5.5t-25.5 -11.5q-2 -32 -6.5 -66.5t-7.5 -66.5 q5 -54 3 -111.5t1 -113.5q8 0 15 2.5t14 -0.5q12 3 23 -1.5t24 1.5q2 32 2 64.5t2 64.5q5 11 14 15.5l19 9.5q4 2 8 1.5l8 -1t7.5 0t6.5 5.5l-2 57q-8 9 -19 8.5t-24 -0.5q-3 -3 -6 -5.5t-8 -2.5q-8 1 -11 6.5t-4 12t-1 14t-3 12.5q-3 6 0.5 11t8.5 10q20 6 39.5 9.5 t39.5 6.5l13 8q-3 19 1.5 34t4.5 32zM881 158q14 -29 7.5 -60t-26.5 -53q-5 -8 -11.5 -9.5t-12.5 -4.5q-13 1 -19.5 8.5t-9.5 17.5t-4.5 21t-3.5 20q5 16 6 34t10 32q7 4 11.5 10l9 12t9.5 10.5t13 4.5l6 -6q-2 -7 -0.5 -12t5 -8.5t6.5 -7.5t4 -9zM604 86q0 -15 -9 -26.5 t-20 -20.5q-8 -2 -15.5 -8t-18.5 0q-7 1 -9 5.5t-1 9.5t3 11t3 11q0 6 5 11.5t13 8.5q12 0 20 8q7 -2 15.5 -1.5t13.5 -8.5z" />
<glyph horiz-adv-x="879" d="M895 1494l-244 134l-285 -134l-38 80l335 171l282 -166z" />
<glyph horiz-adv-x="1038" d="M1089 1654q-40 -66 -95 -102t-119 -36q-50 0 -85 17.5t-64 39t-56 39t-62 17.5q-18 0 -35.5 -5.5t-35 -17.5t-34.5 -30t-33 -41l-66 52q39 66 93 102t119 36q50 0 85 -17.5t64 -39t56 -39t61 -17.5q35 0 70 23.5t68 70.5l69 -52v0z" />
<glyph horiz-adv-x="846" d="M898 1735q-10 -46 -32.5 -87.5t-59.5 -73.5t-87.5 -50.5t-114.5 -18.5t-104.5 19t-63 51t-28 73.5t3.5 86.5h87q-6 -27 -1 -51t20 -42t41 -28.5t63 -10.5q34 0 64 9t53 25.5t38.5 41t21.5 56.5h99v0z" />
<glyph horiz-adv-x="569" d="M677 1598q0 -20 -7 -37.5t-19.5 -30t-29 -19.5t-35.5 -7t-34.5 6.5t-27 18t-18 27t-6.5 33.5q0 20 7.5 37.5t20 30t29 19.5t35.5 7q18 0 33.5 -6.5t27 -18t18 -27t6.5 -33.5z" />
<glyph horiz-adv-x="801" d="M788 1571q0 -45 -17.5 -83t-47 -66.5t-67 -44.5t-77.5 -16t-73.5 13.5t-58.5 37t-39.5 57t-14.5 73.5q0 46 18 85t47.5 66.5t68 43t77.5 15.5q40 0 74 -14t58 -38t38 -57.5t14 -71.5zM701 1565q0 21 -7 41t-21 34.5t-33 23.5t-42 9t-44 -9.5t-37.5 -26.5t-27 -39.5 t-10.5 -49.5q0 -21 8 -41t22 -34.5t33.5 -23.5t42.5 -9q22 0 43.5 9.5t37.5 26.5t25.5 39.5t9.5 49.5z" />
<glyph horiz-adv-x="854" d="M975 1538l-245 -270l-71 55l222 282z" />
<glyph horiz-adv-x="539" d="M680 1353q0 -20 -7 -37t-19.5 -29.5t-29 -19t-34.5 -6.5q-19 0 -34.5 6.5t-27 18t-17.5 27t-6 32.5q0 20 7 36.5t19.5 29.5t29 19.5t34.5 6.5q19 0 34.5 -6.5t27 -18.5t17.5 -27t6 -32zM341 1353q0 -20 -7.5 -37t-19.5 -29.5t-28.5 -19t-35.5 -6.5q-18 0 -33.5 6.5 t-27 18t-18.5 27t-7 32.5q0 20 7.5 36.5t19.5 29.5t28.5 19.5t35.5 6.5t34 -6.5t27 -18.5t18.5 -27t6.5 -32z" />
<glyph horiz-adv-x="1417" d="M1374 901q0 -129 -27.5 -248t-78.5 -221.5t-122 -185t-158.5 -141.5t-188 -90t-207.5 -31q-120 0 -211 33t-151.5 97t-90.5 157t-30 212q0 124 26.5 241t76 220t120 186.5t157.5 143.5t188.5 92.5t211.5 32.5q116 0 206.5 -33t152.5 -97.5t94 -157t32 -210.5zM1249 -348 q-79 -11 -146.5 -8t-121 13.5t-125.5 30t-115.5 29.5t-100 14t-120.5 -5l21 114q73 9 135.5 5.5t112 -13.5t120 -28.5t119.5 -28.5t110.5 -13.5t133.5 5.5zM1233 887q0 94 -22.5 168t-68.5 126t-115 79.5t-161 27.5q-87 0 -166.5 -28t-148.5 -80t-124.5 -124t-95 -160 t-60.5 -188.5t-21 -207.5q0 -92 23 -167t68.5 -128t112.5 -81t152 -28q84 0 163.5 27t150 77.5t128 122t99 160t64 191t22.5 213.5z" />
</font>
</defs>
</svg>
