<?xml version="1.0" standalone="no"?>
<!DOCTYPE svg PUBLIC "-//W3C//DTD SVG 1.1//EN" "http://www.w3.org/Graphics/SVG/1.1/DTD/svg11.dtd" >
<svg xmlns="http://www.w3.org/2000/svg" xmlns:xlink="http://www.w3.org/1999/xlink" version="1.1">
<metadata>
Copyright   : Copyright 2015 Luc(as) de Groot. All rights reserved. Published by LucasFonts.com
Designer    : Luc(as) de Groot
Foundry     : LucasFonts
Foundry URL : http://lucasfonts.com
</metadata>
<defs>
<font id="TheSerif_200i" horiz-adv-x="1126" >
<font-face units-per-em="2048" ascent="1516" descent="-532" />
<missing-glyph horiz-adv-x="446" />
<glyph unicode="&#xfb01;" horiz-adv-x="1180" d="M-403 -514l28 98q44 -14 88.5 -19t81.5 -5q65 0 116 19t90 62t67.5 113t48.5 172l194 1006h-223l16 86h224l10 57q38 212 161.5 320t346.5 108q37 0 72 -3t67.5 -8t62.5 -11.5t56 -14.5l-39 -92q-26 9 -56 17t-60.5 13t-60.5 8t-54 3q-85 0 -150.5 -21.5t-112.5 -62.5 t-77.5 -101t-44.5 -136l-15 -76h619l-176 -928q35 -6 80.5 -11.5t89.5 -8.5l-11 -56q-28 -4 -64 -7t-74.5 -5t-76.5 -3t-69 1l178 932h-512l-193 -998q-24 -128 -64 -216.5t-96 -144t-129 -80.5t-163 -25q-45 0 -89.5 4.5t-86.5 13.5z" />
<glyph unicode="&#xfb02;" horiz-adv-x="1182" d="M-403 -514l28 98q44 -14 88.5 -19t81.5 -5q65 0 116 19t90 62t67.5 113t48.5 172l194 1006h-223l16 86h224l22 117q18 90 55.5 158.5t96.5 115t140 70.5t185 24q90 0 168 -6.5t144 -17.5l-262 -1389q35 -6 80.5 -11.5t89.5 -8.5l-11 -56q-28 -4 -64 -7t-74.5 -5t-76.5 -3 t-69 1l266 1399q-53 9 -100.5 13.5t-94.5 4.5q-161 0 -249 -67t-117 -215l-23 -117h320l-19 -86h-317l-193 -998q-24 -128 -64 -216.5t-96 -144t-129 -80.5t-163 -25q-45 0 -89.5 4.5t-86.5 13.5z" />
<glyph unicode="&#xfb03;" horiz-adv-x="1798" d="M-403 -514l28 98q44 -14 88.5 -19t81.5 -5q65 0 116 19t90 62t67.5 113t48.5 172l194 1006h-225l18 86h224l10 55q38 209 159.5 319.5t331.5 110.5q85 0 170 -19t166 -57q57 39 135.5 57.5t163.5 18.5q37 0 72.5 -3t68 -8t62 -11.5t55.5 -14.5l-43 -90q-25 9 -54.5 16.5 t-59.5 12.5t-59 7.5t-54 2.5q-160 0 -257.5 -80t-129.5 -252l-12 -65h618l-176 -928q18 -3 38.5 -6t42.5 -5.5t45 -5t44 -3.5l-10 -56q-29 -4 -65 -7t-74.5 -5t-76.5 -3t-69 1l178 932h-512l-194 -1022q-24 -125 -69.5 -209.5t-109 -136t-143.5 -74t-172 -22.5 q-81 0 -162.5 17t-165.5 52q-25 -18 -53 -31.5t-59 -21.5t-64.5 -12t-70.5 -4q-45 0 -89.5 4.5t-86.5 13.5zM102 -383q59 -29 127 -43t133 -14q77 0 138 19.5t107 61t77 106.5t49 157l197 1028h-512l-193 -998q-20 -105 -50.5 -183t-72.5 -134zM434 1018h512l10 59 q14 82 46.5 154t78.5 123q-69 35 -135.5 48t-128.5 13q-158 0 -251.5 -84t-119.5 -241z" />
<glyph unicode="&#xfb04;" horiz-adv-x="1800" d="M-403 -514l28 98q44 -14 88.5 -19t81.5 -5q65 0 116 19t90 62t67.5 113t48.5 172l194 1006h-223l16 86h224l10 55q38 209 159.5 319.5t331.5 110.5q41 0 82 -4.5t82 -13t81 -21.5t79 -30q57 34 129.5 51.5t163.5 17.5q90 0 167.5 -6.5t143.5 -17.5l-262 -1389 q18 -3 38.5 -6t42.5 -5.5t45 -5t44 -3.5l-10 -56q-29 -4 -65 -7t-74.5 -5t-76.5 -3t-69 1l266 1399q-52 9 -100 13.5t-94 4.5q-161 0 -249.5 -67t-117.5 -215l-22 -117h319l-18 -86h-318l-194 -1022q-24 -125 -69.5 -209.5t-109 -136t-143.5 -74t-172 -22.5q-81 0 -162.5 17 t-165.5 52q-25 -18 -53 -31.5t-59 -21.5t-64.5 -12t-70.5 -4q-45 0 -89.5 4.5t-86.5 13.5zM102 -383q59 -29 127 -43t133 -14q77 0 138 19.5t107 61t77 106.5t49 157l197 1028h-512l-193 -998q-20 -105 -50.5 -183t-72.5 -134zM434 1018h512l23 117q14 69 38.5 124.5 t61.5 100.5q-66 32 -129.5 43.5t-122.5 11.5q-158 0 -251.5 -84t-119.5 -241z" />
<glyph horiz-adv-x="0" />
<glyph horiz-adv-x="0" />
<glyph unicode="&#xd;" horiz-adv-x="1024" />
<glyph unicode=" "  horiz-adv-x="446" />
<glyph unicode="&#x09;" horiz-adv-x="446" />
<glyph unicode="&#xa0;" horiz-adv-x="446" />
<glyph unicode="!" horiz-adv-x="639" d="M168 74q0 18 6.5 34t18 28t27.5 19t34 7t34 -7t27.5 -19t18 -28t6.5 -34t-6.5 -34t-18 -28t-27.5 -19t-34 -7t-34 7t-27.5 19t-18 28t-6.5 34zM254 305l192 1125h127l-235 -1125h-84z" />
<glyph unicode="&#x22;" horiz-adv-x="657" d="M154 1004l55 421h125l-105 -421h-75zM446 1004l56 421h125l-105 -421h-76z" />
<glyph unicode="#" horiz-adv-x="1319" d="M57 420l15 74h321l86 450h-321l14 74h322l69 364h88l-69 -364h340l69 364h88l-69 -364h321l-14 -74h-322l-86 -450h322l-14 -74h-322l-78 -420h-88l78 420h-340l-78 -420h-88l78 420h-322zM481 494h340l86 450h-340z" />
<glyph unicode="$" horiz-adv-x="948" d="M55 82l54 278h61q0 -52 -1.5 -102.5t-6.5 -93.5q38 -9 84 -16t94 -7q81 0 142 24t101.5 62.5t60.5 85.5t20 93q0 55 -19 95.5t-50 72t-71 57t-81.5 50t-81.5 50.5t-71 59.5t-50 77.5t-19 103q0 68 24.5 129t72 109t117.5 80t161 42l45 246h90l-45 -242q62 -2 113.5 -8.5 t93.5 -15.5l-51 -269h-60q0 53 1 101t8 90q-38 6 -75.5 9t-72.5 3q-83 0 -142 -20.5t-97 -55t-56 -79.5t-18 -93q0 -50 19 -87.5t50.5 -67t72 -54t82.5 -49.5t82 -52t71.5 -62.5t51 -81.5t19.5 -107q0 -62 -24 -125.5t-72.5 -117t-121.5 -92t-171 -50.5l-55 -282h-90l55 278 q-65 0 -126.5 9.5t-117.5 25.5z" />
<glyph unicode="%" horiz-adv-x="1573" d="M178 1024q0 84 26.5 153.5t72 118.5t106.5 76t131 27q55 0 104.5 -14t87 -46.5t59 -85.5t21.5 -131q0 -68 -21 -134.5t-63.5 -120t-107 -86.5t-152.5 -33q-62 0 -111 16t-83 49.5t-52 86t-18 124.5zM219 14l1084 1409l73 -55l-1083 -1409zM289 1034q0 -105 39.5 -154 t132.5 -49q56 0 96.5 27t67 67.5t39 88t12.5 88.5q0 107 -39 160t-137 53q-53 0 -92.5 -24.5t-65.5 -64.5t-39.5 -90.5t-13.5 -101.5zM809 260q0 84 26 153.5t71.5 118.5t107 76t131.5 27q55 0 104.5 -14t86.5 -46.5t59 -85.5t22 -131q0 -68 -21 -134.5t-63.5 -120 t-107 -86.5t-152.5 -33q-62 0 -111 16t-83 50t-52 86t-18 124zM920 270q0 -105 39.5 -153.5t132.5 -48.5q56 0 96.5 27t67 67.5t39 87.5t12.5 88q0 107 -39 160t-138 53q-52 0 -91.5 -24.5t-65.5 -64.5t-39.5 -90t-13.5 -102z" />
<glyph unicode="&#x26;" horiz-adv-x="1628" d="M92 293q0 99 34 178.5t90 145.5t127.5 122t145.5 107q-58 94 -94.5 173.5t-36.5 151.5q0 68 26 128.5t73.5 105.5t114.5 71.5t149 26.5q67 0 115.5 -17t80 -46t46 -69t14.5 -85q0 -69 -25 -126.5t-71 -110.5t-110.5 -104.5t-143.5 -108.5q42 -62 92 -126t105.5 -128.5 t115 -127.5t119.5 -122q46 49 87.5 112.5t74.5 139t56.5 161.5t33.5 181q-45 3 -88 10t-80 18l10 56h459l-13 -56q-40 -11 -85.5 -18t-90.5 -10q-18 -105 -47.5 -200.5t-69 -178t-87 -152t-99.5 -123.5q54 -52 104.5 -99t96.5 -87q23 -2 44 -5.5t41 -7.5t38 -8.5t35 -9.5 l-13 -55h-213q-55 50 -105 98t-104 101q-133 -112 -281 -163.5t-304 -51.5q-95 0 -164 26t-114 68.5t-67 98.5t-22 116zM207 330q0 -48 15.5 -94t48.5 -81.5t86 -57t128 -21.5q122 0 249.5 41t248.5 141q-55 56 -114 119t-117 129t-112.5 134t-100.5 134 q-65 -45 -124.5 -92.5t-106 -101t-74 -115.5t-27.5 -135zM469 1184q0 -57 31 -125t82 -152q70 48 123 90.5t89 85t54 87.5t18 98q0 66 -38.5 106.5t-118.5 40.5q-58 0 -102.5 -18t-75 -49t-46.5 -73.5t-16 -90.5z" />
<glyph unicode="'" horiz-adv-x="365" d="M154 1004l55 421h125l-105 -421h-75z" />
<glyph unicode="(" horiz-adv-x="602" d="M154 266q0 177 37 353t104.5 344.5t163 327t211.5 300.5l69 -45q-63 -77 -123 -168.5t-113.5 -193t-98.5 -211.5t-77.5 -225t-50.5 -233t-18 -236q0 -89 6 -174.5t20 -167t36.5 -159t54.5 -151.5l-84 -43q-38 89 -64 174t-42.5 168.5t-23.5 167.5t-7 172z" />
<glyph unicode=")" horiz-adv-x="602" d="M-94 -371q63 77 123 168.5t113.5 193t98.5 212t77.5 225.5t50.5 233t18 236q0 89 -6 174.5t-20 167t-36.5 158.5t-54.5 151l84 43q38 -89 64 -173.5t42.5 -168t24 -168t7.5 -172.5q0 -177 -37 -353t-105 -344.5t-163.5 -327t-211.5 -300.5z" />
<glyph unicode="*" horiz-adv-x="729" d="M201 1106l227 100l-188 111l49 72l174 -132l35 242l90 -14l-60 -223l205 127l41 -80l-229 -101l188 -110l-51 -76l-176 135l-33 -242l-90 15l57 221l-198 -127z" />
<glyph unicode="+" d="M100 563l19 92h418l84 439h102l-84 -439h422l-19 -92h-421l-84 -440h-103l84 440h-418z" />
<glyph unicode="," horiz-adv-x="401" d="M-94 -225q55 47 88.5 88t49 76t15.5 63.5t-12 50.5q-9 19 -8 38.5t10 35t25 25.5t37 10q29 0 50 -16.5t28.5 -46.5t0 -71t-35.5 -89.5t-78 -103t-127 -111.5z" />
<glyph unicode="-" horiz-adv-x="653" d="M106 561l19 92h453l-19 -92h-453z" />
<glyph unicode="&#xad;" horiz-adv-x="653" d="M106 561l19 92h453l-19 -92h-453z" />
<glyph unicode="." horiz-adv-x="401" d="M29 70q0 20 7 37t19 29t28 19t34 7t33.5 -7t27 -18.5t17.5 -26.5t6 -32q0 -20 -6.5 -37t-18.5 -29t-28 -19t-35 -7q-18 0 -33 7t-26.5 18.5t-18 26.5t-6.5 32z" />
<glyph unicode="/" horiz-adv-x="829" d="M-133 -330l1061 1880h102l-1061 -1880h-102z" />
<glyph unicode="0" horiz-adv-x="1241" d="M106 362q0 104 22.5 198t63.5 174t98.5 144t127.5 109.5t150.5 69.5t168.5 24q97 0 171 -29t124.5 -81.5t76.5 -125.5t26 -161q0 -102 -23.5 -194t-66.5 -169.5t-102.5 -140t-130.5 -106t-152 -67t-166 -23.5q-95 0 -167.5 25.5t-121.5 74t-74 118.5t-25 160zM217 391 q0 -70 18 -128t55.5 -100t94.5 -65.5t135 -23.5q99 0 190 47t161 127.5t111.5 187.5t41.5 228q0 72 -18.5 132t-56.5 103.5t-96.5 67.5t-139.5 24q-108 0 -199 -49.5t-157 -132t-103 -191.5t-37 -227z" />
<glyph unicode="1" horiz-adv-x="715" d="M8 0l10 59q57 11 118 19t118 10l168 870l-275 -110v102l310 117h94l-184 -979q22 -2 45 -4.5t46 -6t45.5 -8t45.5 -10.5l-10 -59h-531z" />
<glyph unicode="2" horiz-adv-x="969" d="M25 0l14 86l385 293q85 65 144.5 118.5t97 103t54.5 98t17 104.5q0 32 -10 65.5t-34 60.5t-63.5 44.5t-97.5 17.5q-54 0 -106 -10t-98 -27q-14 -48 -29 -96t-37 -100h-61l51 266q34 13 70.5 23.5t74.5 18t77.5 11.5t78.5 4q73 0 129 -20.5t93.5 -55.5t57 -82t19.5 -100 q0 -70 -22 -131.5t-65 -119.5t-106.5 -116t-146.5 -120l-319 -240v-2q27 1 87 2.5t138.5 2t170 1t183.5 0.5l-20 -100h-727z" />
<glyph unicode="3" horiz-adv-x="932" d="M-57 -393l20 106q34 -12 75 -19t81 -7q103 0 189.5 29.5t149.5 83.5t98.5 129t35.5 165q0 72 -31 121t-89.5 76t-141.5 34t-187 -3l15 88q118 0 218 29t172.5 81.5t113 126t40.5 162.5q0 87 -52 134.5t-158 47.5q-50 0 -95 -9.5t-86 -25.5q-12 -49 -29.5 -98t-35.5 -98 h-60l52 268q69 29 137.5 41t136.5 12q81 0 139 -20t95 -54.5t54 -81.5t17 -102q0 -79 -26 -146t-72.5 -122t-109.5 -97.5t-138 -72.5v-2q48 -5 91 -25.5t75.5 -55.5t52 -83t19.5 -108q0 -113 -47.5 -208.5t-130.5 -165t-194.5 -108.5t-238.5 -39q-48 0 -83 3.5t-72 13.5z " />
<glyph unicode="4" horiz-adv-x="1071" d="M-53 0v92l786 973h156l-182 -965h254l-21 -100h-254l-59 -313q45 -3 89 -10.5t81 -18.5l-11 -55h-456l10 55q42 11 88.5 18.5t91.5 10.5l60 313h-633zM61 96q36 1 84 1.5t100 1t105.5 1t101.5 0.5h86.5h61.5l162 858h-4z" />
<glyph unicode="5" horiz-adv-x="946" d="M-31 -401l21 106q26 -6 60.5 -11t66.5 -5q105 0 197 27.5t161 80t108.5 128.5t39.5 173q0 61 -23 119t-77 103t-142.5 72.5t-218.5 27.5l127 645h592l-21 -107h-487l-88 -440q104 -6 188 -37.5t143 -83.5t91 -122t32 -154t-25 -156.5t-69.5 -131.5t-105.5 -104.5 t-131.5 -76t-148.5 -46.5t-157 -16q-34 0 -66.5 2t-66.5 7z" />
<glyph unicode="6" horiz-adv-x="1169" d="M147 373q0 71 10.5 154.5t33.5 172.5t59.5 179.5t87.5 173.5t118 155.5t152 126t188 84.5t226 31q12 0 34.5 -1t35.5 -3l-19 -92q-22 3 -42.5 4.5t-45.5 1.5q-120 0 -221 -42t-182.5 -118t-144 -182t-105.5 -234q-6 -18 -15.5 -40.5t-21.5 -57.5v-2q31 50 74.5 90 t95.5 67.5t111 42.5t122 15q94 0 160.5 -29t108.5 -75.5t61 -105.5t19 -120q0 -90 -21.5 -168.5t-59.5 -143.5t-90 -115.5t-113.5 -85.5t-130 -53.5t-138.5 -18.5q-96 0 -162 30t-107.5 82.5t-59.5 123.5t-18 153zM262 356q0 -25 3.5 -55.5t13 -62t26.5 -61.5t43.5 -53.5 t64.5 -37.5t89 -14q90 0 167.5 33.5t135 95.5t90.5 151.5t33 200.5q0 51 -15.5 96.5t-47 80t-79.5 55t-114 20.5q-81 0 -155.5 -36t-131 -97.5t-90 -143t-33.5 -172.5z" />
<glyph unicode="7" horiz-adv-x="922" d="M92 -397q88 201 178 386t181 355t182 324.5t182 294.5q-11 -1 -51.5 -2t-97 -1.5t-122.5 -1t-127 -0.5h-111h-75q-12 -48 -31 -102t-36 -96h-64l60 305h798l-18 -94q-101 -152 -196.5 -313t-185.5 -332t-173.5 -352t-159.5 -371h-133z" />
<glyph unicode="8" horiz-adv-x="1094" d="M94 264q0 88 34 157.5t89.5 126t127.5 103t147 88.5q-45 31 -86 65.5t-72.5 75.5t-50.5 90.5t-19 110.5q0 81 34.5 149.5t95 117.5t143 76.5t178.5 27.5q81 0 142.5 -19t103 -54t62.5 -85.5t21 -113.5q0 -78 -30.5 -140.5t-81.5 -115t-118 -96.5t-140 -85 q48 -32 93.5 -69.5t80 -82.5t55.5 -97.5t21 -114.5q0 -89 -38.5 -162t-104 -125t-152.5 -80t-185 -28q-95 0 -161.5 19.5t-108.5 56t-61 88t-19 116.5zM211 272q0 -35 13 -70.5t43.5 -64t80 -46t121.5 -17.5q67 0 128.5 22t108.5 59.5t75 88.5t28 108q0 58 -19.5 104.5 t-52.5 86t-76.5 74t-91.5 67.5q-71 -38 -135.5 -80.5t-114 -92.5t-79 -109t-29.5 -130zM379 1090q0 -48 17.5 -87.5t47.5 -74.5t69.5 -66.5t82.5 -62.5q67 37 128 75.5t107.5 82t73.5 93t27 109.5q0 42 -14 79t-42.5 65t-72.5 44.5t-105 16.5q-74 0 -133.5 -23t-100.5 -61 t-63 -87.5t-22 -102.5z" />
<glyph unicode="9" horiz-adv-x="1169" d="M20 -399l19 102q15 -3 29.5 -5.5t29 -4t29 -2t29.5 -0.5q122 0 222.5 38t183 109t147 172.5t114.5 229.5q7 18 12.5 33t10.5 29t10 27.5t12 28.5v2q-36 -50 -81.5 -87t-97.5 -61t-109 -36t-115 -12q-89 0 -153.5 25t-107 69t-63 104t-20.5 130q0 114 38.5 220t108.5 188 t169 131.5t220 49.5q97 0 165.5 -28t112.5 -79t64.5 -123.5t20.5 -160.5q0 -68 -10.5 -151.5t-33 -173.5t-59 -182.5t-88 -178t-119.5 -161t-154.5 -131.5t-193 -88t-233.5 -32q-10 0 -23.5 0.5t-28.5 1.5t-30 2.5t-27 4.5zM240 504q0 -53 17.5 -97.5t49 -76t76.5 -49 t100 -17.5q81 0 157.5 28t135 83.5t94 138.5t35.5 193q0 60 -16.5 112t-49.5 90.5t-83 61t-117 22.5q-85 0 -158 -40t-126.5 -107.5t-84 -156t-30.5 -185.5z" />
<glyph unicode=":" horiz-adv-x="557" d="M137 74q0 18 6.5 34t18 28t27.5 19t34 7t34 -7t27.5 -19t18 -28t6.5 -34t-6.5 -34t-18 -28t-27.5 -19t-34 -7t-34 7t-27.5 19t-18 28t-6.5 34zM256 692q0 18 6.5 34t18 28t27.5 19t34 7t34 -7t27.5 -19t18 -28t6.5 -34t-6.5 -34t-18 -28t-27.5 -19t-34 -7t-34 7t-27.5 19 t-18 28t-6.5 34z" />
<glyph unicode=";" horiz-adv-x="557" d="M20 -225q55 47 88.5 88t49.5 76t16 63.5t-12 50.5q-9 19 -8.5 38.5t9.5 35t25 25.5t37 10q30 0 51 -16.5t28.5 -46.5t-0.5 -71t-36 -89.5t-78 -103t-127 -111.5zM256 692q0 18 6.5 34t18 28t27.5 19t34 7t34 -7t27.5 -19t18 -28t6.5 -34t-6.5 -34t-18 -28t-27.5 -19 t-34 -7t-34 7t-27.5 19t-18 28t-6.5 34z" />
<glyph unicode="&#x3c;" d="M184 633l736 549l61 -74l-657 -483l485 -490l-76 -69z" />
<glyph unicode="=" d="M98 408l19 94h889l-19 -94h-889zM158 717l16 94h889l-16 -94h-889z" />
<glyph unicode="&#x3e;" d="M186 139l658 484l-486 489l76 70l549 -568l-735 -548z" />
<glyph unicode="?" horiz-adv-x="883" d="M209 74q0 18 6.5 34t18 28t27.5 19t34 7t34 -7t27.5 -19t18 -28t6.5 -34t-6.5 -34t-18 -28t-27.5 -19t-34 -7t-34 7t-27.5 19t-18 28t-6.5 34zM285 305q-11 84 2 150.5t41.5 120.5t69 97.5t84 81.5t86.5 73.5t77 73t55 79.5t21 94q0 48 -28 91.5t-77.5 78.5t-116 59 t-143.5 35l33 101q101 -13 184 -47t142.5 -82.5t92 -108t32.5 -123.5q0 -61 -21.5 -109.5t-56.5 -89t-79 -76.5t-88.5 -73t-86 -78t-70.5 -91.5t-42.5 -113t-2.5 -143.5h-108z" />
<glyph unicode="@" horiz-adv-x="1978" d="M199 479q0 142 36 272.5t101 243.5t155 205t197 157.5t228 101.5t249 36q115 0 208.5 -22.5t166.5 -63t127 -96.5t89 -123.5t52 -143.5t17 -157q0 -92 -17.5 -174.5t-48.5 -151.5t-74.5 -124.5t-96.5 -94.5t-113.5 -59.5t-124.5 -20.5q-72 0 -117.5 22.5t-68.5 58 t-25.5 79.5t12.5 88h-6q-12 -31 -45 -73.5t-79 -81.5t-101 -66t-111 -27q-46 0 -79 13.5t-54 40t-31 64.5t-10 87q0 60 12 128t37 135t64 129t93.5 109.5t125 76t159.5 28.5q36 0 71 -1.5t67 -4t61 -6.5t53 -8l-131 -465q-16 -57 -15.5 -100t16 -72t46 -43.5t74.5 -14.5 q78 0 143.5 40t113 111t74.5 167.5t27 210.5q0 98 -31 191.5t-99.5 166.5t-177 117.5t-263.5 44.5q-113 0 -220.5 -32.5t-202 -92.5t-173.5 -144t-136 -187t-88.5 -221.5t-31.5 -246.5q0 -130 39.5 -236t115.5 -181.5t187.5 -116.5t255.5 -41q46 0 88.5 2.5t83.5 8.5 t81.5 15t82.5 21l4 -96q-42 -12 -88 -21t-92 -15t-91 -8.5t-85 -2.5q-162 0 -289.5 46t-215.5 132t-134.5 209t-46.5 278zM745 494q0 -62 22 -95.5t67 -33.5q46 0 99 30t105 91t98.5 151.5t80.5 212.5l34 125q-28 8 -63 11t-70 3q-47 0 -93 -17t-87.5 -49t-76.5 -76.5 t-61 -99.5t-40.5 -119t-14.5 -134z" />
<glyph unicode="A" horiz-adv-x="1374" d="M-90 0l10 55q29 8 67.5 16t69.5 11l738 1300h114l234 -1298q15 -2 33 -5t36 -7t34.5 -8.5t29.5 -8.5l-12 -55h-428l10 55q42 11 88 18.5t92 10.5l-45 278h-645l-154 -278q41 -3 85 -10.5t81 -18.5l-10 -55h-428zM385 453h580l-109 620q-8 47 -15 96t-12 93h-2 q-20 -42 -44 -88.5t-50 -94.5z" />
<glyph unicode="B" horiz-adv-x="1163" d="M-35 0l10 55q41 11 87.5 18.5t93.5 10.5l229 1214q-45 4 -88 11t-80 18l12 55h172q31 0 64 0.5t72 1.5t87 1.5t109 0.5q100 0 168.5 -19.5t111.5 -54t62 -80.5t19 -99q0 -84 -26 -151.5t-68.5 -118t-98 -84.5t-113.5 -52v-2q55 -9 99 -33.5t74.5 -59t46.5 -77.5t16 -90 q0 -95 -37 -180t-111 -150t-184.5 -103t-257.5 -38q-30 0 -67 1t-76 2t-78.5 2t-73.5 1h-174zM266 96q15 -2 34.5 -4.5t44 -4t55 -2.5t67.5 -1q108 0 190.5 29.5t138.5 79.5t84.5 116.5t28.5 141.5q0 110 -87.5 166.5t-276.5 56.5h-46h-47t-43 -0.5t-34 -1.5zM391 762 q35 -2 66.5 -2h74.5q99 0 181.5 23t142 67.5t92.5 110t33 151.5q0 40 -11.5 74t-42.5 59t-86 39t-141 14q-58 0 -107.5 -1t-98.5 -3z" />
<glyph unicode="C" horiz-adv-x="1178" d="M119 453q0 125 22.5 243.5t66.5 223t109.5 192.5t152 151t193.5 98.5t234 35.5q91 0 166 -11.5t147 -31.5l-57 -279h-63q0 51 1.5 101t10.5 100q-62 18 -117.5 24.5t-114.5 6.5q-109 0 -198.5 -33t-160 -91.5t-122 -138t-85 -173t-50 -196.5t-16.5 -208q0 -84 18.5 -155 t63 -122t118.5 -79.5t185 -28.5q37 0 84.5 6.5t96.5 17.5t95.5 26t83.5 32l16 -96q-88 -38 -191.5 -60t-205.5 -22q-93 0 -164.5 16.5t-125.5 47t-90.5 72.5t-59.5 94t-33 112t-10 125z" />
<glyph unicode="D" horiz-adv-x="1421" d="M-35 0l12 55q41 11 87.5 18.5t93.5 10.5l229 1214q-45 4 -89 11t-81 18l12 55h174q39 0 84.5 1t93 2.5t95 2.5t92.5 1q172 0 287.5 -40t185 -109t98.5 -160.5t29 -194.5q0 -112 -23.5 -222t-72 -209t-123 -183t-176 -145.5t-230.5 -96.5t-288 -35q-53 0 -97 1t-81.5 2 t-71 2t-64.5 1h-176zM268 98q24 -3 52 -5.5t55.5 -4.5t52.5 -3t43 -1q139 0 251 31t198.5 85.5t149.5 129t103.5 162t60 184t19.5 194.5q0 91 -24 169.5t-81.5 136.5t-154.5 91t-243 33q-33 0 -68 -0.5t-69 -1.5t-64 -2t-53 -2z" />
<glyph unicode="E" horiz-adv-x="1053" d="M-37 0l12 55q41 11 87.5 18.5t93.5 10.5l229 1214q-45 4 -89 11t-81 18l12 55h830l-56 -288h-65q0 55 0.5 107.5t5.5 92.5h-450l-101 -536h357q14 45 29.5 86.5t37.5 79.5h55l-79 -420h-58q-7 37 -7 79v12q0 36 3 75h-354l-111 -580h451q14 43 33.5 97.5t39.5 107.5h64 l-55 -295h-834z" />
<glyph unicode="F" horiz-adv-x="987" d="M-37 0l10 55q42 11 89 18.5t92 10.5l231 1214q-45 4 -88 11t-80 18l10 55h834l-55 -288h-66q2 57 2.5 106t3.5 94h-452l-105 -546h365q14 45 30.5 86.5t36.5 78.5h58l-80 -419h-60q-3 36 -4 78v21q0 32 2 66h-364l-111 -575q45 -3 89 -10.5t81 -18.5l-10 -55h-459z" />
<glyph unicode="G" horiz-adv-x="1411" d="M113 512q0 132 31 249.5t87 216t134.5 176.5t173.5 132.5t203.5 83.5t224.5 29q99 0 184.5 -13t167.5 -36l-57 -279h-64q0 56 2.5 105t7.5 94q-66 18 -133 28.5t-127 10.5q-101 0 -194 -27.5t-172.5 -78.5t-144.5 -122.5t-111.5 -159.5t-71.5 -190t-25 -213 q0 -80 24 -159t78 -142t141 -102t212 -39q97 0 175.5 14t152.5 37l90 473q-45 3 -88.5 10.5t-81.5 18.5l12 55h432l-10 -55q-37 -10 -76 -17t-80 -12l-104 -545q-54 -18 -111.5 -31.5t-114.5 -22.5t-111.5 -13t-102.5 -4q-138 0 -242 39.5t-173 110t-103.5 167.5t-34.5 211z " />
<glyph unicode="H" horiz-adv-x="1503" d="M-37 0l10 55q42 11 89 18.5t92 10.5l231 1214q-45 4 -88 11t-80 18l10 55h457l-10 -55q-42 -11 -88 -18t-92 -11l-101 -534h805l100 534q-45 4 -87.5 11t-80.5 18l11 55h456l-10 -55q-42 -11 -88 -18t-92 -11l-231 -1214q45 -3 88.5 -10.5t81.5 -18.5l-11 -55h-458l10 55 q42 11 88.5 18.5t91.5 10.5l113 590h-805l-113 -590q45 -3 89 -10.5t81 -18.5l-10 -55h-459z" />
<glyph unicode="I" horiz-adv-x="590" d="M-37 0l10 55q42 11 89 18.5t92 10.5l231 1214q-45 4 -88 11t-80 18l10 55h457l-10 -55q-42 -11 -88 -18t-92 -11l-232 -1214q45 -3 89 -10.5t81 -18.5l-10 -55h-459z" />
<glyph unicode="J" horiz-adv-x="666" d="M-98 4l20 105q29 -11 66.5 -19t72.5 -8q45 0 84 12t69.5 41t53.5 78t37 123l182 962q-45 4 -87.5 11t-80.5 18l11 55h434l-12 -55q-35 -9 -75.5 -16.5t-80.5 -12.5l-182 -962q-17 -89 -46.5 -154t-74.5 -108.5t-107.5 -64.5t-144.5 -21q-19 0 -38 1.5t-37 3.5t-34 5 t-30 6z" />
<glyph unicode="K" horiz-adv-x="1278" d="M-37 0l10 55q42 11 89 18.5t92 10.5l231 1214q-45 4 -88 11t-80 18l10 55h449l-10 -55q-42 -11 -88.5 -18t-83.5 -11l-113 -591l668 591q-42 4 -84.5 11t-77.5 18l10 55h463l-12 -55q-73 -18 -154 -29l-680 -596l465 -618q20 -2 41 -4.5t41.5 -6.5t40 -8.5t35.5 -9.5 l-11 -55h-452l10 55q37 10 77 17t79 10l-459 625l-119 -623q35 -3 80 -10.5t82 -18.5l-10 -55h-451z" />
<glyph unicode="L" horiz-adv-x="903" d="M-37 0l10 55q42 11 89 18.5t92 10.5l231 1214q-45 4 -88 11t-80 18l10 55h457l-10 -55q-42 -11 -88 -18t-92 -11l-230 -1208h432q6 21 14.5 46t18 51.5t19.5 54t20 53.5h66l-58 -295h-813z" />
<glyph unicode="M" horiz-adv-x="1847" d="M-70 0l11 55q15 4 33 8t37 8t37.5 6.5t33.5 4.5l397 1216q-45 4 -89 11t-81 18l13 55h329l154 -985q11 -75 17 -142t9 -118h3q23 51 53.5 114t64.5 128l543 1003h352l-10 -55q-42 -11 -88 -18t-91 -11l-61 -1216q29 -3 67 -11t67 -16l-11 -55h-422l11 55q21 6 42.5 10.5 t44 8t45.5 6t46 4.5l45 848q3 59 5.5 108.5t4.5 92t4.5 79.5t5.5 72h-2q-15 -34 -41 -87t-61 -118l-588 -1079h-98l-164 1014q-6 37 -11 74t-9 71.5t-7 66t-4 58.5h-2q-10 -37 -21.5 -77.5t-24.5 -86t-28 -95.5t-32 -105l-258 -836q45 -3 86.5 -10.5t79.5 -18.5l-11 -55 h-426z" />
<glyph unicode="N" horiz-adv-x="1479" d="M-35 0l10 55q42 11 89 18.5t92 10.5l229 1214q-45 4 -88 11t-80 18l10 55h310l432 -995q31 -69 59.5 -140t54.5 -143q11 63 23.5 134t26 145.5t27 150.5t26.5 148l110 616q-45 4 -87.5 11t-80.5 18l11 55h432l-10 -55q-36 -9 -76 -16.5t-80 -12.5l-248 -1298h-133 l-434 997q-32 75 -61.5 147t-51.5 140q-11 -72 -23.5 -151.5t-27 -161.5t-29 -163.5t-28.5 -156.5l-103 -567q45 -3 88 -10.5t80 -18.5l-10 -55h-459z" />
<glyph unicode="O" horiz-adv-x="1417" d="M111 483q0 126 26.5 243t76 218.5t119.5 185.5t156 143.5t186.5 92.5t211.5 33q116 0 206 -33.5t151.5 -97t93.5 -156.5t32 -211q0 -130 -27.5 -249t-78 -221t-121.5 -184.5t-158 -141t-187 -90t-208 -31.5q-120 0 -210 33.5t-149.5 97t-89.5 156.5t-30 212zM231 496 q0 -95 24 -172.5t71 -132t116 -84t160 -29.5q87 0 169 28t153.5 79t131.5 124t102.5 163t66.5 195.5t24 221.5q0 97 -23.5 174.5t-70.5 131.5t-118.5 83t-168.5 29q-91 0 -173 -29t-153 -81.5t-128.5 -127t-98 -164.5t-62.5 -193.5t-22 -215.5z" />
<glyph unicode="P" horiz-adv-x="1114" d="M-35 0l10 55q42 11 88 18.5t91 10.5l233 1214q-45 4 -89 11t-81 18l12 55h174q47 0 126 3.5t182 3.5q100 0 181 -23.5t137.5 -68t87 -109t30.5 -146.5q0 -117 -47 -216t-130 -171t-196.5 -112.5t-245.5 -40.5q-69 0 -111 3.5t-71 6.5l-84 -428q45 -3 90 -10.5t82 -18.5 l-10 -55h-459zM362 606q15 -3 35.5 -5.5t44.5 -4.5t49.5 -3t51.5 -1q90 0 161 18.5t125 50.5t92.5 75.5t62.5 93t35 103t11 105.5q0 60 -22 108t-65 82t-106 52t-145 18q-63 0 -112 -0.5t-86 -3.5z" />
<glyph unicode="Q" horiz-adv-x="1419" d="M111 483q0 126 26.5 243t76 218.5t119.5 185.5t156 143.5t186.5 92.5t211.5 33q116 0 206 -33.5t152 -97t93.5 -156.5t31.5 -211q0 -161 -40 -301t-110.5 -251t-166 -189t-203.5 -115q54 -2 102.5 -18t101.5 -32.5t116 -26.5q35 -6 77 -6q32 0 68 3l-21 -102 q-49 -6 -90 -6q-23 0 -44 2q-57 5 -105 18.5t-92 32t-92.5 35t-106.5 28t-135 11.5h-39q-120 0 -210 33.5t-149.5 97t-89.5 156.5t-30 212zM231 496q0 -95 24 -172.5t71 -132t116 -84t160 -29.5q87 0 169 28t154 79t131.5 124t102.5 163t66.5 195.5t23.5 221.5 q0 97 -23.5 174.5t-70 131.5t-118.5 83t-169 29q-91 0 -173 -29t-153 -81.5t-128.5 -127t-98 -164.5t-62.5 -193.5t-22 -215.5z" />
<glyph unicode="R" horiz-adv-x="1135" d="M-35 0l10 55q42 11 88 18.5t91 10.5l231 1214q-45 4 -88 11t-80 18l10 55h154q30 0 63 1t70 2.5t78.5 2.5t89.5 1q100 0 172 -20t119 -57t69.5 -91t22.5 -121q0 -105 -45.5 -186.5t-121.5 -137.5q-75 -58 -172 -86q-91 -27 -187 -26h-13q19 -31 35 -62t33 -63l237 -455 q44 -3 90 -11t80 -18l-12 -55h-246l-335 666h-35l-111 -582q45 -3 90 -10.5t82 -18.5l-10 -55h-459zM391 756q9 -1 19.5 -1.5t25 -1t35 -1t51.5 -0.5q88 0 166.5 21t137 63t92.5 106t34 150q0 107 -66.5 157.5t-219.5 50.5q-56 0 -96.5 -1.5t-75.5 -4.5z" />
<glyph unicode="S" horiz-adv-x="930" d="M43 12l55 295h66q-2 -59 -4.5 -112t-5.5 -97q26 -8 58 -12t58 -4q93 0 166 23.5t123 65t76.5 99.5t26.5 127q0 52 -19 92t-50 73t-70.5 61.5t-81 57.5t-81 60.5t-70.5 70.5t-50 87t-19 111q0 78 31.5 148.5t92.5 124t149 85t202 31.5q22 0 45.5 -1t48.5 -3t50.5 -5.5 t52.5 -9.5l-55 -286h-64q0 55 2.5 108.5t7.5 95.5q-21 5 -54 8t-58 3q-88 0 -152.5 -25t-107 -64.5t-63.5 -88.5t-21 -97q0 -55 19 -97t50.5 -77.5t71.5 -65t82 -59.5t82 -61t71.5 -69.5t50.5 -85t19 -107.5q0 -92 -38 -170.5t-106.5 -135.5t-164 -89.5t-209.5 -32.5 q-23 0 -50 1.5t-55.5 4.5t-56 8.5t-51.5 13.5z" />
<glyph unicode="T" horiz-adv-x="1075" d="M145 1083l58 299h995l-57 -299h-64q3 70 3 120.5t5 90.5h-348l-229 -1210q45 -3 88.5 -10.5t81.5 -18.5l-12 -55h-457l10 55q42 11 88 18.5t92 10.5l232 1210h-348q-11 -40 -29 -90.5t-43 -120.5h-66z" />
<glyph unicode="U" horiz-adv-x="1446" d="M188 322q0 32 4.5 66t10.5 69l159 841q-38 5 -75.5 12.5t-69.5 16.5l10 55h435l-13 -55q-40 -11 -86.5 -18t-91.5 -11l-156 -817q-8 -38 -12 -73.5t-4 -69.5q0 -65 18 -114.5t57 -82.5t101.5 -50t151.5 -17q100 0 180.5 22.5t142 75t104 138t66.5 212.5l148 776 q-45 4 -89 11t-81 18l10 55h432l-10 -55q-74 -18 -156 -29l-149 -792q-26 -134 -76.5 -232t-127 -162.5t-179 -96t-230.5 -31.5q-122 0 -203.5 25t-130.5 70t-69.5 107t-20.5 136z" />
<glyph unicode="V" horiz-adv-x="1356" d="M162 1327l10 55h430l-10 -55q-42 -11 -87.5 -18t-90.5 -11l133 -882q4 -32 10 -68t12 -75t11.5 -79.5t9.5 -80.5h2q34 77 76 156.5t86 156.5l479 872q-45 4 -89 11t-81 18l10 55h434l-10 -55q-15 -4 -33 -8t-37 -7.5t-37.5 -6.5t-33.5 -5l-727 -1300h-117l-217 1300 q-15 2 -33 5t-36 6.5t-34.5 7.5t-29.5 8z" />
<glyph unicode="W" horiz-adv-x="1974" d="M164 1327l10 55h428l-10 -55q-42 -11 -90 -18t-99 -11l64 -954q5 -71 6.5 -130.5t1.5 -119.5h2q25 62 52 123.5t55 120.5l503 1044h101l131 -1058q8 -57 13 -116.5t7 -113.5h2q17 48 35 91.5t41 97.5l443 1015q-41 4 -83 11t-79 18l10 55h418l-10 -55q-15 -4 -33 -8 t-37 -7.5t-38 -6.5t-34 -5l-583 -1300h-136l-129 1042q-6 54 -10 104.5t-4 98.5h-2q-19 -48 -40 -97t-46 -101l-504 -1047h-135l-90 1300q-29 4 -67 11.5t-64 15.5z" />
<glyph unicode="X" horiz-adv-x="1298" d="M-78 0l10 55q39 10 79 17t83 10l533 639l-275 579q-40 4 -77.5 11t-69.5 16l10 55h459l-12 -55q-41 -11 -89.5 -18t-95.5 -11l223 -493l406 493q-47 4 -87 11t-77 18l10 55h457l-10 -55q-38 -9 -79.5 -16.5t-84.5 -12.5l-492 -585l299 -631q41 -3 77.5 -10t68.5 -17 l-10 -55h-457l10 55q42 11 88 18.5t92 10.5l-241 543l-443 -543q42 -3 83.5 -10.5t78.5 -18.5l-10 -55h-457z" />
<glyph unicode="Y" horiz-adv-x="1159" d="M160 1327l10 55h432l-10 -55q-38 -11 -85.5 -18t-98.5 -11l116 -448q9 -32 17 -63.5t16.5 -63t16 -63t14.5 -62.5h2q21 33 42 66.5t44 70t49.5 78t58.5 90.5l252 395q-38 4 -81 11t-78 18l12 55h422l-11 -55q-30 -8 -69 -15.5t-70 -11.5l-534 -794l-80 -422 q45 -3 88 -10.5t80 -18.5l-10 -55h-457l10 55q40 11 87 18.5t93 10.5l80 422l-223 794q-31 4 -68.5 11.5t-66.5 15.5z" />
<glyph unicode="Z" horiz-adv-x="1057" d="M-6 0l14 76l803 1011q45 56 87.5 104t88.5 99q-62 -2 -142 -3t-192 -1h-297q-11 -40 -28.5 -90t-38.5 -109h-64l56 295h841l-14 -75l-848 -1065q-31 -39 -62 -75.5t-63 -74.5q18 2 54 3.5t85.5 2t111 0.5h130.5h272q14 44 32 94t40 109h64l-58 -301h-872z" />
<glyph unicode="[" horiz-adv-x="635" d="M25 -395l374 1964h353l-17 -80h-252l-344 -1802h254l-16 -82h-352z" />
<glyph unicode="\" horiz-adv-x="813" d="M227 1550h92l349 -1880h-97z" />
<glyph unicode="]" horiz-adv-x="635" d="M-96 -395l16 82h252l344 1802h-254l17 80h352l-375 -1964h-352z" />
<glyph unicode="^" d="M188 758l455 624h94l230 -622l-88 -45l-205 577l-412 -577z" />
<glyph unicode="_" d="M-178 -516l16 84h1104l-16 -84h-1104z" />
<glyph unicode="`" horiz-adv-x="733" d="M319 1440l93 63l188 -264l-72 -49z" />
<glyph unicode="a" horiz-adv-x="1106" d="M70 283q0 91 15.5 182t48 174t83 154.5t120 124t159 82.5t200.5 30q82 0 151 -8t128 -21l-174 -911q34 -6 80 -11.5t90 -8.5l-10 -56q-29 -4 -65 -7t-74 -5q-40 -2 -78 -3h-25q-25 0 -47 1q14 74 48.5 197.5t90.5 304.5l-4 2q-16 -40 -40.5 -94.5t-58.5 -112.5 t-77 -114.5t-95.5 -101t-114.5 -72t-134 -27.5q-105 0 -161 71.5t-56 229.5zM180 301q0 -62 9.5 -105t26.5 -70t40.5 -39.5t52.5 -12.5q60 0 118.5 36.5t112.5 97t102 139t86.5 162t66 165.5t41.5 151l18 97q-37 9 -80 15.5t-96 6.5q-92 0 -164.5 -27.5t-128 -74.5 t-94.5 -110.5t-63.5 -134.5t-36 -147t-11.5 -149z" />
<glyph unicode="b" horiz-adv-x="1090" d="M102 16l265 1389q-36 6 -81.5 11.5t-88.5 8.5l10 56q28 4 64.5 7t74.5 5q38 3 76 3h25q24 0 45 -1l-107 -555q-6 -32 -14.5 -65.5t-21.5 -80t-32 -111.5t-47 -159l4 -2q40 105 93 198t118 163.5t141.5 111.5t164.5 41q104 0 160.5 -71.5t56.5 -229.5q0 -91 -15.5 -182 t-48.5 -174t-83 -154.5t-120 -124t-159.5 -82.5t-200.5 -30q-82 0 -151 8t-128 20zM223 96q40 -11 82 -16.5t94 -5.5q92 0 164.5 27.5t128 74.5t94.5 110.5t63.5 134.5t36 147t11.5 149q0 61 -9.5 104.5t-26.5 70.5t-41 39.5t-52 12.5q-60 0 -118.5 -36.5t-112.5 -97 t-101.5 -138.5t-85.5 -161t-65.5 -164t-40.5 -148z" />
<glyph unicode="c" horiz-adv-x="854" d="M74 309q0 144 38.5 275t111.5 230t179 157.5t242 58.5q60 0 116 -10t105 -27l-51 -268l-59 2q-2 25 -2 51t1 52t3 51t6 49q-29 8 -61.5 12t-69.5 4q-75 0 -137 -26.5t-111 -72t-85.5 -106t-61 -128.5t-36.5 -140t-12 -139q0 -45 8 -90t34 -81t74 -58.5t128 -22.5 q65 0 133 15.5t125 41.5l17 -88q-57 -25 -135 -43t-164 -18q-98 0 -162.5 25t-103 68.5t-54.5 101.5t-16 124z" />
<glyph unicode="d" horiz-adv-x="1106" d="M70 283q0 91 15.5 182t48 174t83 154.5t120 124t159 82.5t200.5 30q48 0 90.5 -4t85.5 -10l72 389q-34 6 -79.5 11.5t-90.5 8.5l12 56q28 4 64 7t74 5q39 3 76 3h24q24 0 45 -1l-268 -1405q34 -6 80 -11.5t90 -8.5l-10 -56q-29 -4 -64.5 -7t-74 -5t-76.5 -3h-25 q-24 0 -47 1q12 74 46.5 197.5t90.5 304.5l-4 2q-16 -40 -40.5 -94.5t-58.5 -112.5t-77 -114.5t-95.5 -101t-114.5 -72t-134 -27.5q-105 0 -161 71.5t-56 229.5zM180 301q0 -62 9.5 -105t26.5 -70t40.5 -39.5t52.5 -12.5q60 0 118.5 36.5t112.5 97t102 139t86.5 162 t66 165.5t41.5 151l18 97q-37 9 -80 15.5t-96 6.5q-92 0 -164.5 -27.5t-128 -74.5t-94.5 -110.5t-63.5 -134.5t-36 -147t-11.5 -149z" />
<glyph unicode="e" horiz-adv-x="946" d="M74 299q0 92 15.5 182t45.5 171.5t75.5 151.5t106 121t135 80t164.5 29q68 0 118.5 -16.5t84 -45.5t50 -68.5t16.5 -84.5q0 -73 -39.5 -132t-123 -102.5t-212 -70.5t-305.5 -35q-3 -14 -5.5 -33t-5 -40t-3.5 -42.5t-1 -39.5q0 -75 13.5 -122.5t43.5 -75t78 -38t117 -10.5 q73 0 144 15.5t131 41.5l10 -90q-68 -29 -148.5 -45t-179.5 -16q-78 0 -139 16t-102 53t-62.5 97t-21.5 149zM225 578q146 6 249.5 23.5t169 46.5t96 68.5t30.5 90.5q0 34 -12.5 60.5t-35 44.5t-53 27t-67.5 9q-71 0 -131 -28.5t-107.5 -78.5t-82.5 -117.5t-56 -145.5z" />
<glyph unicode="f" horiz-adv-x="678" d="M-403 -514l28 98q44 -14 87.5 -19t80.5 -5q65 0 116.5 19t90.5 62t68 113t49 172l194 1006h-223l16 86h224l12 67q19 108 56 186.5t91.5 130t127.5 76.5t163 25q45 0 82.5 -4.5t83.5 -13.5l-29 -92q-40 11 -80.5 16.5t-78.5 5.5q-65 0 -116 -19t-89.5 -59t-64 -101.5 t-40.5 -145.5l-12 -72h318l-15 -86h-319l-193 -998q-24 -128 -64.5 -216.5t-96.5 -144t-129.5 -80.5t-163.5 -25q-45 0 -88.5 4.5t-85.5 13.5z" />
<glyph unicode="g" horiz-adv-x="1085" d="M-47 -498l22 117q28 -12 60 -21t66 -16t69.5 -10.5t71.5 -3.5q86 0 155 18t121.5 60.5t89 112t56.5 173.5q13 73 25.5 131t28 118.5t36.5 133t53 174.5l-4 3q-15 -37 -39 -89.5t-57.5 -109.5t-76 -112.5t-95 -99.5t-114.5 -71.5t-134 -27.5q-105 0 -161 71.5t-56 229.5 q0 91 15.5 182t48.5 174t83.5 154.5t120 124t158.5 82.5t200 30q82 0 151 -8t128 -21l-215 -1124q-15 -78 -50 -152t-99.5 -131t-163 -91.5t-240.5 -34.5q-84 0 -143.5 9.5t-110.5 24.5zM180 301q0 -62 9.5 -105t26.5 -70t40.5 -39.5t52.5 -12.5q60 0 118.5 36.5t112.5 97 t102 139t86.5 162t66 165.5t41.5 151l18 97q-37 9 -80 15.5t-96 6.5q-92 0 -164.5 -27.5t-128 -74.5t-94.5 -110.5t-63.5 -134.5t-36 -147t-11.5 -149z" />
<glyph unicode="h" horiz-adv-x="1180" d="M100 0l267 1405q-34 6 -80.5 11.5t-89.5 8.5l10 56q28 4 64.5 7t74.5 5q38 3 76 3h25q24 0 45 -1l-101 -524q-5 -26 -12.5 -59.5t-20 -83t-33.5 -120.5t-53 -173l4 -3q37 94 89 184.5t116.5 161.5t141 114.5t163.5 43.5q68 0 115 -23.5t73 -68.5q25 -44 30 -110 q1 -16 1 -33q0 -53 -12 -117l-114 -594q35 -6 80 -11.5t90 -8.5l-11 -56q-28 -4 -64 -7t-74 -5t-76 -3h-24q-24 0 -44 1l127 664q14 72 14 125q-1 53 -15 87q-28 68 -116 68q-60 0 -118 -36.5t-112 -97t-102 -138.5t-86 -161t-65 -164t-39 -148l-37 -199h-107z" />
<glyph unicode="i" horiz-adv-x="549" d="M121 0l180 930q-35 6 -81 10.5t-89 7.5l10 56q28 4 64 7t74.5 5t75.5 2q12 0 24 1q24 0 45 -1l-180 -928q18 -3 38.5 -6t43 -5.5t45.5 -5t45 -3.5l-10 -56q-29 -4 -65 -7t-74.5 -5t-76.5 -3h-25q-23 0 -44 1zM352 1346q0 19 7 35t18.5 28t26.5 18.5t32 6.5t31 -6 t24 -16.5t15.5 -25t5.5 -30.5q0 -18 -7 -34t-18 -27.5t-26 -18t-31 -6.5q-17 0 -31 6t-24.5 16.5t-16.5 24.5t-6 29z" />
<glyph unicode="j" horiz-adv-x="532" d="M-297 -518l21 100q29 -11 62 -16.5t60 -5.5q60 0 100.5 16t69 53t47.5 98.5t37 151.5l201 1049q-34 6 -80.5 11.5t-91.5 8.5l10 56q28 4 64.5 7t75 5t75.5 2q13 1 25 1q24 0 45 -1l-225 -1186q-18 -95 -46 -163.5t-71.5 -113t-105 -66t-146.5 -21.5q-37 0 -69.5 4 t-57.5 10zM350 1346q0 19 7 35t18.5 28t26.5 18.5t32 6.5t31 -6t24 -16.5t15.5 -25t5.5 -30.5q0 -18 -7 -34t-18 -27.5t-26 -18t-31 -6.5q-17 0 -31 6t-24.5 16.5t-16.5 24.5t-6 29z" />
<glyph unicode="k" horiz-adv-x="1012" d="M100 0l267 1405q-34 6 -80.5 11.5t-89.5 8.5l10 56q28 4 64.5 7t74.5 5q38 3 76 3h25q24 0 45 -1l-50 -260q-11 -60 -24.5 -118.5t-29 -118.5t-35 -124t-42.5 -135l4 -2q28 65 65.5 119.5t84.5 94t106 61.5t131 22q56 0 99 -14.5t72 -40t44 -61t15 -78.5 q0 -62 -24.5 -117t-79.5 -101t-145 -82t-220 -61l223 -393q45 -5 87 -12t79 -17l-10 -57h-242l-291 537l-102 -537h-107zM309 539q141 23 238 49.5t157 59.5t86.5 74.5t26.5 94.5q0 25 -8.5 48.5t-25.5 41.5t-43 28.5t-60 10.5q-51 0 -96 -21t-83.5 -54.5t-70 -77t-56 -89 t-41 -88.5t-24.5 -77z" />
<glyph unicode="l" horiz-adv-x="528" d="M100 0l267 1405q-34 6 -80.5 11.5t-89.5 8.5l10 56q28 4 64 7t74 5q37 3 75 3h25q24 0 44 -1l-266 -1405q35 -6 80 -11.5t88 -8.5l-10 -56q-29 -4 -64.5 -7t-73 -5t-75.5 -3h-24q-23 0 -44 1z" />
<glyph unicode="m" horiz-adv-x="1823" d="M121 0l178 928q-17 3 -38.5 6t-44 5.5t-45 4.5t-40.5 4l10 56q22 4 57.5 7t75.5 5t80 2q14 0 26 1q25 0 46 -1q-25 -124 -60 -243.5t-73 -239.5l4 -3q35 93 86 183.5t115 161.5t139.5 115t161.5 44q51 0 89 -14t62.5 -40t36.5 -62.5t12 -81.5q0 -32 -4 -64t-12.5 -68 t-21 -78t-29.5 -93l4 -3q35 93 86 183.5t115 161.5t139.5 115t161.5 44q64 0 109.5 -23.5t70.5 -68.5q26 -44 30 -110q1 -14 0 -30q0 -54 -12 -120l-114 -594q35 -6 79.5 -11.5t88.5 -8.5l-11 -56q-27 -4 -62.5 -7t-73.5 -5q-37 -2 -75 -3h-25q-24 0 -44 1l127 664 q14 74 14 127t-14 87q-28 68 -109 68q-51 0 -104 -30.5t-104.5 -84t-99.5 -125.5t-88.5 -155t-71 -173t-46.5 -179l-37 -199h-106l127 664q14 75 14 129q-1 52 -13 85q-26 68 -110 68q-51 0 -104 -30.5t-104.5 -84t-99.5 -125.5t-88.5 -155t-71 -173t-46.5 -179l-37 -199 h-106z" />
<glyph unicode="n" horiz-adv-x="1202" d="M121 0l178 928q-34 6 -78.5 11.5t-89.5 8.5l10 56q28 4 64 7t74.5 5t76.5 2q13 0 25 1q24 0 45 -1q-5 -28 -14 -68.5t-24.5 -98.5t-38 -136t-54.5 -180l4 -3q37 94 88.5 184.5t116.5 161.5t141.5 114.5t163.5 43.5q67 0 114 -23.5t73 -68.5q26 -44 31 -110q1 -16 1 -33 q0 -53 -12 -117l-115 -594q35 -6 80 -11.5t88 -8.5l-10 -56q-28 -4 -63.5 -7t-73.5 -5t-76 -3h-24q-24 0 -44 1l127 664q14 72 14 125q-1 53 -15 87q-28 68 -116 68q-59 0 -117.5 -36.5t-112 -96.5t-101 -137t-85.5 -158.5t-65 -160.5t-39 -142l-41 -213h-106z" />
<glyph unicode="o" horiz-adv-x="1083" d="M76 342q0 97 18.5 186t53 165.5t84.5 139.5t112.5 107.5t137 69t159.5 24.5q92 0 159.5 -26.5t111.5 -74t65.5 -114t21.5 -147.5q0 -158 -48 -285.5t-128 -217t-183 -137.5t-214 -48q-85 0 -150.5 22.5t-109.5 67.5t-67 112t-23 156zM188 365q0 -72 15 -126t47 -91 t82 -55.5t119 -18.5q82 0 160 41t139 117.5t98 185.5t37 246q0 136 -63.5 209t-196.5 73q-97 0 -177.5 -47.5t-138 -128t-89.5 -185.5t-32 -220z" />
<glyph unicode="p" horiz-adv-x="1112" d="M-133 -516l10 55q35 11 76 18.5t86 10.5l260 1360q-17 3 -38 6t-43.5 5.5t-45 4.5t-41.5 4l10 56q25 4 61 7t75 5t78 2q13 1 25 1q25 0 46 -1q-7 -37 -16.5 -79t-25 -99t-38 -134t-53.5 -182l4 -2q40 105 92.5 198t117.5 163.5t142 111.5t164 41q104 0 160.5 -71.5 t56.5 -229.5q0 -91 -15.5 -182t-48 -174t-83 -154t-120 -123t-159.5 -82t-201 -30q-51 0 -93 4t-83 10l-82 -436q22 -2 44.5 -4.5t44.5 -6t42.5 -8t38.5 -10.5l-10 -55h-438zM248 106q19 -7 42.5 -12.5t47 -9.5t46 -6t40.5 -2q90 0 162 27.5t127.5 74t94.5 109.5t64 134.5 t36.5 147t11.5 148.5q0 61 -9.5 104.5t-27 70.5t-41 39.5t-51.5 12.5q-60 0 -118.5 -36.5t-112.5 -97t-101.5 -138.5t-86 -161t-66 -164t-40.5 -148z" />
<glyph unicode="q" horiz-adv-x="1087" d="M70 283q0 91 15.5 182t48 174t83 154.5t120 124t159 82.5t200.5 30q82 0 151 -8t128 -21l-273 -1433q45 -3 88 -10.5t80 -18.5l-10 -55h-454l10 55q42 11 88 18.5t92 10.5l82 432q9 49 19.5 96t25.5 103.5t36 129t52 173.5l-4 2q-16 -40 -40.5 -94.5t-58.5 -112.5 t-77 -114.5t-95.5 -101t-114.5 -72t-134 -27.5q-105 0 -161 71.5t-56 229.5zM180 301q0 -62 9.5 -105t26.5 -70t41.5 -39.5t53.5 -12.5q60 0 118 36.5t112 97t101.5 139t86 162t66 165.5t41.5 151l18 97q-37 9 -80 15.5t-96 6.5q-92 0 -164.5 -27.5t-128 -74.5t-94.5 -110.5 t-63.5 -134.5t-36 -147t-11.5 -149z" />
<glyph unicode="r" horiz-adv-x="733" d="M121 0l180 928q-34 6 -79.5 11.5t-90.5 8.5l10 56q28 4 64.5 7t74.5 5t76 2h25h45q-7 -37 -17 -80t-25 -96t-35.5 -119t-47.5 -148l4 -2q46 105 94 195t105 154q56 63 126 94q47 21 103 21q27 0 55 -5l-18 -106q-21 5 -42 5q-27 -1 -53 -9q-46 -16 -88 -51t-80 -86 t-71 -110t-61 -121.5t-49 -121t-35 -108.5t-21 -84l-43 -240h-106z" />
<glyph unicode="s" horiz-adv-x="793" d="M33 -4l53 287h59q0 -48 -1.5 -100t-6.5 -95q9 -2 21 -3t24.5 -2.5t25.5 -2t25 -0.5q61 0 112.5 12.5t89 38t58.5 63.5t21 89q0 47 -26 82t-65 66t-84 60.5t-84 65t-65 81t-26 107.5q0 61 24 113.5t70.5 91.5t115 61.5t158.5 22.5q28 0 52.5 -1t46 -3t41 -5t39.5 -7 l-54 -275h-59q0 50 2.5 99.5t7.5 97.5q-21 3 -44 4.5t-46 1.5q-60 0 -105.5 -14.5t-76.5 -40t-46.5 -59.5t-15.5 -74q0 -49 26 -86t65 -68t84.5 -60.5t84.5 -64t65 -78t26 -102.5q0 -63 -28.5 -120t-82.5 -100.5t-131.5 -69t-175.5 -25.5q-26 0 -49 0.5t-44.5 2t-41.5 4 t-39 5.5z" />
<glyph unicode="t" horiz-adv-x="739" d="M76 932l18 86h238l65 348l115 31l-74 -379h314l-19 -86h-311l-115 -604q-13 -72 -15 -119q0 -5 -1 -10q0 -41 11 -65q12 -28 39.5 -39t72.5 -11q35 0 78 5t75 13v-98q-40 -8 -85 -13t-87 -5q-74 0 -120.5 18t-70.5 56q-22 39 -24 98q0 5 -1 11q0 56 14 130l120 633h-237z " />
<glyph unicode="u" horiz-adv-x="1202" d="M129 948l10 56q28 4 64 7t73.5 5t74.5 2q12 0 24 1q24 0 45 -1l-127 -664q-14 -72 -14 -125q1 -53 15 -87q28 -68 116 -68q59 0 117.5 36.5t112 97t101 138.5t86 161t65.5 164t40 148l20 109q-35 6 -81.5 11.5t-90.5 8.5l11 56q29 4 65 7t74 5t76 2q12 0 24 1q24 0 45 -1 l-178 -928q34 -6 81.5 -11.5t90.5 -8.5l-10 -56q-29 -4 -65 -7t-74 -5q-40 -2 -78 -3h-25q-25 0 -47 1q5 28 14.5 68.5t25 98.5t38.5 136t55 180l-4 2q-37 -93 -88.5 -183.5t-116 -161.5t-141.5 -114.5t-164 -43.5q-68 0 -114.5 23.5t-72.5 68.5q-26 44 -31 110q-1 16 -1 33 q0 53 12 117l113 592q-34 6 -77.5 12.5t-88.5 9.5z" />
<glyph unicode="v" horiz-adv-x="1012" d="M92 948l10 56q57 8 118 12q37 3 74 3q25 0 50 -1l105 -756q2 -18 4.5 -38t4.5 -40t3.5 -39.5t3.5 -38.5h2l502 953l98 -43l-567 -1016h-111l-145 928q-35 6 -71.5 11.5t-80.5 8.5z" />
<glyph unicode="w" horiz-adv-x="1460" d="M59 948l11 56q28 4 61 7t67.5 5t69.5 2q12 0 23 1q23 0 45 -1l82 -907h2l344 682l-14 135q-36 6 -82.5 11.5t-89.5 8.5l10 56q25 4 57 7t66.5 5t70.5 2q12 0 23 1q23 0 45 -1l94 -909h2l463 950l96 -41l-516 -1018h-129l-74 633l-321 -633h-129l-107 928 q-35 6 -80.5 11.5t-89.5 8.5z" />
<glyph unicode="x" horiz-adv-x="1106" d="M8 16l477 502l-170 416q-19 2 -43 5t-48.5 7t-47 8t-39.5 9l10 55h259l157 -416l436 467l72 -65l-469 -494l186 -424q19 -2 44.5 -5.5t51.5 -7.5t50 -8.5t41 -9.5l-12 -55h-267l-172 424l-442 -479z" />
<glyph unicode="y" horiz-adv-x="1040" d="M-195 -516l21 106q29 -11 62.5 -15.5t68.5 -4.5q59 0 127.5 40t130.5 109q36 41 62 82.5t42.5 88t24.5 100t8 116.5q0 85 -8 182t-23 202t-36.5 215.5t-48.5 222.5q-36 6 -82 11.5t-91 8.5l11 56q29 4 61.5 7t66 5t66.5 2q12 1 23 1q22 0 43 -1q28 -114 51.5 -233.5 t40.5 -233.5t26 -217t9 -184q0 -38 -5.5 -82t-15.5 -84h2q71 119 136 239t129.5 250.5t129.5 274.5t136 311l98 -35q-61 -145 -125 -285.5t-129.5 -271.5t-132 -250.5t-134 -224t-135 -192.5t-134.5 -154q-42 -41 -85 -73.5t-86 -55.5t-86 -35t-83 -12q-20 0 -38 1t-35 2.5 t-32.5 4t-30.5 6.5z" />
<glyph unicode="z" horiz-adv-x="866" d="M-2 0l14 76l684 850q-28 -1 -60.5 -1.5t-69.5 -1t-77.5 -1t-85.5 -0.5h-129q-14 -45 -28 -87t-33 -87h-59l53 270h635l-15 -74l-684 -848q25 1 60.5 1.5t75.5 1t82 1t81 0.5h146q12 41 28.5 87.5t36.5 93.5h58l-54 -281h-659z" />
<glyph unicode="{" horiz-adv-x="645" d="M76 608l18 94q68 4 114 17t76 38.5t47.5 66t28.5 100.5l58 301q12 64 35.5 126t61.5 110.5t94 78t134 29.5h35l-14 -80q-56 0 -96.5 -14t-69.5 -44.5t-48 -79t-32 -118.5l-57 -299q-12 -63 -33 -112.5t-51.5 -84.5t-70 -56.5t-89.5 -27.5v-4q45 -7 76 -29.5t47.5 -57.5 t19.5 -82t-8 -103l-84 -436q-13 -70 -12.5 -118.5t17 -78.5t50.5 -43.5t89 -13.5l-15 -82h-30q-75 0 -120.5 26t-67.5 71.5t-23 108.5t14 138l86 438q12 58 8.5 98.5t-24.5 66.5t-61.5 39t-102.5 17z" />
<glyph unicode="|" horiz-adv-x="565" d="M43 -516l389 2048h84l-389 -2048h-84z" />
<glyph unicode="}" horiz-adv-x="647" d="M-96 -393l16 82q56 0 96.5 13.5t69 43.5t47 78.5t31.5 118.5l82 434q11 63 32 112.5t51 84.5t70 56t90 27v5q-45 7 -75.5 29t-47.5 57.5t-20 82.5t8 103l60 301q14 70 13.5 118.5t-17 79t-51 44.5t-89.5 14l15 80h24q77 0 123.5 -28.5t69 -76.5t23.5 -110t-13 -129 l-61 -303q-12 -59 -8.5 -99t24.5 -66t61.5 -39.5t102.5 -17.5l-19 -94q-68 -4 -114 -16.5t-76 -38t-47 -66t-29 -100.5l-82 -436q-16 -85 -41.5 -149.5t-64.5 -107.5t-92.5 -65t-126.5 -22h-35z" />
<glyph unicode="~" d="M221 918q3 61 23 112t54 88t80 57.5t101 20.5t93 -17.5t66 -44t50.5 -57.5t46.5 -57.5t53 -44t72 -17.5q39 0 68.5 16.5t50 44t32.5 63.5t15 75h82q-3 -62 -23 -113t-54 -87.5t-80 -57t-101 -20.5t-93 17.5t-66 44t-50.5 57t-46.5 57t-53.5 44t-71.5 17.5 q-38 0 -67.5 -16.5t-50.5 -43.5t-33 -63t-15 -75h-82z" />
<glyph unicode="&#xa1;" horiz-adv-x="639" d="M55 -412l236 1125h84l-193 -1125h-127zM289 944q0 18 6.5 34t18 28t27.5 19t34 7t34 -7t27.5 -19t18 -28t6.5 -34t-6.5 -34t-18 -28t-27.5 -19t-34 -7t-34 7t-27.5 19t-18 28t-6.5 34z" />
<glyph unicode="&#xa2;" horiz-adv-x="928" d="M90 573q0 143 41 254t111.5 189.5t163 124t196.5 57.5l45 236h92l-45 -232q57 -2 116 -13t112 -30l-50 -250h-57q-2 42 -0.5 87.5t6.5 93.5q-38 11 -79.5 16.5t-86.5 5.5q-101 0 -184 -39.5t-142.5 -109.5t-92.5 -164.5t-33 -204.5q0 -57 14.5 -106.5t47.5 -85.5 t86.5 -57t131.5 -21t150.5 17t132.5 48v-98q-54 -25 -119 -42t-139 -22l-51 -280h-90l51 280q-76 6 -137 30t-103.5 67t-65 105.5t-22.5 143.5z" />
<glyph unicode="&#xa3;" horiz-adv-x="1024" d="M29 0l12 78q79 63 135.5 113t95 94.5t62.5 88t38.5 93t22.5 109.5t15 139h-246l16 84h236q3 35 6 76t6.5 82.5t8.5 81.5t12 75q32 170 130.5 252t270.5 82q15 0 35 -1t42 -3t43.5 -5t39.5 -7l-52 -267h-59q-2 50 -1.5 97t5.5 92q-20 3 -38.5 4.5t-37.5 1.5 q-60 0 -105.5 -17t-78.5 -49.5t-54.5 -79.5t-33.5 -106q-4 -20 -7.5 -53t-7.5 -74t-8 -87.5t-8 -94.5h320l-15 -84h-313q-6 -73 -14 -134t-22.5 -114.5t-37 -101t-57 -92.5t-83 -90t-114.5 -93q34 3 80 5.5t97 2.5h378q6 20 13.5 42.5t15.5 46t17.5 49t19.5 51.5h61 l-55 -287h-786z" />
<glyph unicode="&#xa4;" d="M98 209l195 192q-23 29 -36 72t-13 100q0 48 9 98t28.5 98t50 92t74.5 81l-130 205l82 55l117 -215q47 25 96 36t97 11q49 0 98.5 -9.5t87.5 -37.5l205 215l59 -61l-211 -213q17 -25 27 -61t10 -87q0 -44 -8 -90t-25 -91t-44.5 -88.5t-67.5 -80.5l141 -225l-80 -58 l-129 232q-52 -32 -107 -48t-106 -16q-56 0 -96 9t-66 26l-190 -203zM350 590q0 -40 10 -74.5t32.5 -60t59 -40t89.5 -14.5q64 0 119 31.5t95 83t62.5 116t22.5 130.5q0 39 -10.5 73t-33.5 59t-59.5 39.5t-89.5 14.5q-74 0 -129.5 -32t-92.5 -83t-56 -115t-19 -128z" />
<glyph unicode="&#xa5;" horiz-adv-x="1303" d="M180 225l15 84h350l30 166h-350l17 84h325l-209 741q-31 4 -69.5 11.5t-67.5 15.5l10 55h435l-11 -55q-38 -11 -85.5 -18t-98.5 -11l117 -448q18 -69 33.5 -130t29.5 -124h2q41 65 85 135.5t87 138.5l275 428q-38 4 -80.5 11t-77.5 18l10 55h426l-10 -55 q-31 -8 -71.5 -15.5t-71.5 -11.5l-500 -741h324l-17 -84h-348l-31 -166h348l-14 -84h-350l-27 -141q45 -3 88 -10.5t80 -18.5l-10 -55h-457l11 55q40 11 86.5 18.5t93.5 10.5l26 141h-348z" />
<glyph unicode="&#xa6;" horiz-adv-x="565" d="M41 -516l145 774h84l-145 -774h-84zM287 778l143 754h84l-143 -754h-84z" />
<glyph unicode="&#xa7;" horiz-adv-x="1024" d="M127 -309l20 94q41 -14 74 -20.5t70 -6.5q63 0 107.5 23.5t73 59t41.5 77t13 76.5q0 51 -24 101t-60 101.5t-77.5 105.5t-77.5 112t-60 120.5t-24 131.5q0 46 12.5 90t38.5 87t67.5 84.5t100.5 82.5q-25 48 -36 86t-11 75q0 30 8 66t25 73t45 71.5t67 61.5t91 43.5 t118 16.5q34 0 71 -4.5t66 -13.5l-20 -94q-37 12 -66 17t-57 5q-71 0 -117 -25t-73 -61.5t-37.5 -77t-10.5 -71.5q0 -49 24 -98t60.5 -99.5t78.5 -104t78.5 -111t60.5 -120.5t24 -133q0 -46 -12.5 -91t-39.5 -88t-68.5 -84t-98.5 -79q20 -37 31.5 -75t11.5 -83 q0 -66 -25.5 -128t-72 -110t-111.5 -77t-145 -29q-38 0 -77.5 5t-76.5 18zM311 678q0 -56 22.5 -110t57 -107t75.5 -106t77 -107q43 26 73 56.5t49 63t28 65.5t9 65q0 56 -23 110t-57.5 107.5t-75.5 107t-77 109.5q-86 -53 -122 -119t-36 -135z" />
<glyph unicode="&#xa8;" horiz-adv-x="1096" d="M422 1348q0 18 6.5 33.5t17.5 27t26 17.5t32 6t31 -6t24.5 -16.5t16.5 -24.5t6 -29q0 -18 -6.5 -33.5t-17.5 -27t-26 -17.5t-32 -6t-31 6t-24.5 16.5t-16.5 24.5t-6 29zM795 1348q0 18 6.5 33.5t17.5 27t26 17.5t32 6t31 -6t24.5 -16.5t16 -24.5t5.5 -29 q0 -18 -6.5 -33.5t-17.5 -27t-26 -17.5t-32 -6t-31 6t-24.5 16.5t-16 24.5t-5.5 29z" />
<glyph unicode="&#xa9;" horiz-adv-x="1505" d="M117 659q0 100 25 191t69.5 168.5t107.5 141t139.5 108t163.5 68.5t181 24q92 0 174.5 -22.5t153 -64t127.5 -99.5t97 -129.5t61.5 -154t21.5 -171.5q0 -100 -25 -191.5t-70 -169.5t-107.5 -141t-138.5 -108t-163 -69t-180 -24q-95 0 -179 22.5t-154.5 64t-127 100 t-95.5 130t-60 154t-21 172.5zM213 664q0 -116 41 -218t113.5 -178.5t172.5 -121t218 -44.5q80 0 154.5 21t139.5 59.5t118.5 93.5t92 123.5t59.5 148.5t21 169q0 113 -41 214t-113.5 176.5t-172.5 120t-217 44.5q-121 0 -227.5 -46t-186 -127t-126 -192.5t-46.5 -242.5z M459 567q0 102 28.5 190.5t81.5 154t129.5 103.5t171.5 38q42 0 86.5 -5.5t73.5 -11.5l-45 -233h-55q0 40 1.5 81.5t4.5 82.5q-20 3 -40.5 4.5t-39.5 1.5q-56 0 -99.5 -18t-76.5 -48t-55 -69.5t-36 -82.5t-20 -86t-6 -81q0 -42 10 -75.5t31 -56t53.5 -34.5t77.5 -12 t92.5 7.5t92.5 22.5v-84q-23 -8 -49 -13.5t-52 -9t-50.5 -5.5t-45.5 -2q-74 0 -124.5 17.5t-81.5 49.5t-44.5 76t-13.5 98z" />
<glyph unicode="&#xaa;" horiz-adv-x="778" d="M145 504l17 88h543l-17 -88h-543zM182 922q0 90 26 174.5t77.5 149.5t128.5 104t178 39q51 0 99.5 -3.5t99.5 -11.5q-12 -64 -27 -139.5t-29.5 -150.5t-27 -143.5t-21.5 -119.5q14 -2 28.5 -4.5t29 -4t28 -3t25.5 -2.5l-11 -57q-23 -3 -50.5 -6t-56 -4.5t-56 -2 t-50.5 1.5q7 35 24 94t42 134h-2q-50 -112 -125 -175t-168 -63q-85 0 -123.5 49.5t-38.5 143.5zM281 944q0 -74 21.5 -102.5t62.5 -28.5q53 0 101.5 35.5t89 94t70.5 135t46 157.5l12 63q-32 8 -61 10.5t-52 2.5q-70 0 -124 -32t-91 -84t-56 -118t-19 -133z" />
<glyph unicode="&#xab;" horiz-adv-x="958" d="M152 608l299 338l71 -57l-254 -285l164 -287l-86 -53zM496 608l315 338l72 -57l-271 -285l181 -287l-86 -53z" />
<glyph unicode="&#xac;" d="M100 563l19 92h880l-81 -428h-93l64 336h-789z" />
<glyph unicode="&#xae;" d="M248 1053q0 97 36.5 179.5t97.5 142.5t140.5 94t165.5 34q84 0 156.5 -30t125.5 -84t83 -128t30 -161q0 -94 -37 -175t-98 -141t-140 -94.5t-163 -34.5q-86 0 -158.5 30.5t-125.5 84.5t-83 126.5t-30 156.5zM338 1067q0 -67 24 -127t65.5 -105.5t98.5 -72.5t123 -27 q68 0 130.5 27.5t110.5 75.5t76.5 114t28.5 144q0 65 -24 124.5t-65.5 104.5t-98.5 71.5t-123 26.5q-68 0 -130.5 -27t-110.5 -75t-76.5 -113t-28.5 -141zM451 844l6 39q14 9 27 14t30 8l66 355q-16 3 -29 8.5t-23 11.5l9 41h51h67.5h65.5q36 0 62 -6.5t42.5 -19.5t24.5 -31 t8 -41q0 -36 -12 -63.5t-32 -47.5t-46 -32.5t-53 -16.5q5 -9 13.5 -28.5t16.5 -39.5l35 -90q14 -3 28.5 -8.5t27.5 -13.5l-7 -39h-106l-82 213h-25l-28 -152q15 -5 27 -9.5t24 -12.5l-6 -39h-182zM627 1110h18h17q29 0 51 8.5t37 22.5t22.5 32.5t7.5 38.5q0 25 -15.5 36.5 t-49.5 11.5h-30h-30z" />
<glyph unicode="&#xaf;" horiz-adv-x="793" d="M307 1296l17 86h471l-17 -86h-471z" />
<glyph unicode="&#xb0;" horiz-adv-x="731" d="M262 1249q0 61 22 108t57.5 79t81 48.5t93.5 16.5q55 0 97 -16.5t71 -45.5t44 -69t15 -88q0 -61 -22 -108t-57.5 -79t-81 -48.5t-93.5 -16.5q-54 0 -96.5 16.5t-71.5 45.5t-44 69t-15 88zM358 1257q0 -68 37 -108.5t103 -40.5q31 0 58 11.5t47 33t32 52t12 69.5 q0 22 -6 48t-21.5 48.5t-42.5 37.5t-69 15q-31 0 -58 -11.5t-47.5 -33t-32.5 -52t-12 -69.5z" />
<glyph unicode="&#xb1;" d="M-6 0l18 92h942l-18 -92h-942zM121 666l16 92h420l82 426h102l-82 -426h420l-16 -92h-420l-82 -428h-102l82 428h-420z" />
<glyph unicode="&#xb2;" horiz-adv-x="668" d="M69 553l15 80l280 231q51 43 89.5 82t64 75t38.5 70t13 68q0 71 -35 109.5t-110 38.5q-23 0 -50 -3.5t-53 -13.5q-12 -43 -27.5 -87t-33.5 -89h-64l45 242q21 7 44.5 13.5t49 11.5t52 8.5t53.5 3.5q58 0 102 -15t73.5 -43t44.5 -68t15 -91q0 -45 -15.5 -88.5t-45 -87.5 t-72.5 -88.5t-98 -90.5l-211 -174q71 3 171 4.5t214 -0.5l-18 -98h-531z" />
<glyph unicode="&#xb3;" horiz-adv-x="623" d="M81 553l31 92q15 -5 32.5 -9t36 -6.5t38 -3.5t37.5 -1q106 0 165.5 50t59.5 132q0 32 -18 57t-53 40.5t-87 20t-121 -4.5l19 86q78 0 138 13t100.5 37t61.5 58.5t21 77.5q0 24 -6 44.5t-20.5 36.5t-37.5 25t-57 9q-27 0 -47 -2t-37 -7q-12 -42 -26.5 -81t-28.5 -70h-65 l43 225q46 11 91.5 16t80.5 5q60 0 101 -14t67 -38.5t37.5 -58.5t11.5 -74q0 -41 -14 -77.5t-40.5 -66.5t-64 -53t-84.5 -36q32 -5 59 -19t46 -34.5t29.5 -47t10.5 -57.5q0 -59 -26 -110.5t-72.5 -89t-110.5 -59t-139 -21.5q-45 0 -84.5 4t-77.5 12z" />
<glyph unicode="&#xb4;" horiz-adv-x="770" d="M348 1249l262 254l70 -76l-279 -237z" />
<glyph unicode="&#xb5;" horiz-adv-x="1202" d="M70 -516q0 145 8.5 261.5t23.5 215t34 185t40 171t42.5 172t41.5 189.5l47 248q-34 6 -80.5 12.5t-91.5 9.5l10 56q28 4 65 7t75.5 5t76.5 2.5t70 -0.5l-113 -588q-18 -98 -20 -165.5t12.5 -110t44 -61.5t74.5 -19q57 0 114 36.5t110 97t100 138.5t85 161t65 164t40 148 l21 109q-35 6 -82 11.5t-90 8.5l10 56q29 4 65 7t74 5t75.5 2.5t69.5 -0.5l-120 -639q-16 -81 -21.5 -137.5t-5.5 -85.5q0 -42 16.5 -58t47.5 -16q11 0 20.5 0.5t28.5 5.5v-92q-23 -5 -43 -6.5t-31 -1.5q-31 0 -57.5 6.5t-46 23.5t-30.5 46.5t-11 74.5q0 57 16.5 141.5 t62.5 204.5h-2q-37 -93 -88.5 -183.5t-115 -161.5t-138.5 -114.5t-159 -43.5q-41 0 -74 9.5t-57 29.5t-39.5 51t-20.5 75q-2 -37 -3.5 -78t-6.5 -73q-8 -53 -14 -109.5t-10.5 -119t-6.5 -132.5t-2 -151h-106z" />
<glyph unicode="&#xb6;" horiz-adv-x="1120" d="M227 866q0 59 15 120t43.5 118.5t71.5 108t99.5 88t125.5 59.5t151 22l-160 -841q-90 -1 -155 23.5t-107.5 68.5t-63 103.5t-20.5 129.5zM428 -197l14 80h154l285 1499h112h148l-13 -79h-153l-287 -1500h-108h-152z" />
<glyph unicode="&#xb7;" horiz-adv-x="410" d="M123 604q0 21 8 38.5t21.5 31t31.5 21t37 7.5q18 0 34.5 -7t29 -19t19.5 -28.5t7 -35.5q0 -21 -8 -38.5t-21.5 -31t-31.5 -21t-37 -7.5q-18 0 -34.5 7t-29 19.5t-19.5 29t-7 34.5z" />
<glyph unicode="&#xb8;" horiz-adv-x="803" d="M203 -483q50 55 82 100.5t45 86.5t6 80.5t-35 82.5l105 49q30 -48 37.5 -96t-6 -97t-45 -100t-79.5 -106h-110z" />
<glyph unicode="&#xb9;" horiz-adv-x="571" d="M81 553l11 55q35 11 83 18.5t107 10.5l125 641l-211 -78v96l254 86h86l-145 -745q37 -3 79 -10.5t80 -18.5l-10 -55h-459z" />
<glyph unicode="&#xba;" horiz-adv-x="830" d="M152 504l18 88h512l-18 -88h-512zM205 954q0 85 25.5 164.5t72.5 141.5t115 99.5t153 37.5q65 0 112.5 -15.5t78 -45.5t45 -72.5t14.5 -96.5q0 -113 -34 -195.5t-89 -136.5t-123 -80t-137 -26q-54 0 -97.5 12.5t-73.5 39.5t-46 70t-16 103zM319 977q0 -74 33 -115 t103 -41q54 0 100.5 25t80 69.5t52.5 104.5t19 131q0 30 -7 58t-23.5 50t-44 35t-69.5 13q-68 0 -114.5 -33.5t-75 -83t-41.5 -107.5t-13 -106z" />
<glyph unicode="&#xbb;" horiz-adv-x="958" d="M145 324l271 284l-180 287l86 53l210 -344l-315 -338zM506 324l254 284l-164 287l86 53l195 -344l-299 -338z" />
<glyph unicode="&#xbc;" horiz-adv-x="1370" d="M102 12l1207 1411l63 -53l-1206 -1411zM143 686l7 49q35 10 78.5 17t97.5 10l100 530l-164 -73l-12 79l205 88h88l-119 -624q35 -3 74 -10t77 -17l-8 -49h-424zM676 166l2 61l401 469h123l-86 -448h139l-14 -82h-141l-19 -98q26 -7 48 -12t42 -11l-8 -45h-286l8 45 q17 5 43 10.5t57 12.5l19 98h-328zM793 248h227l65 352z" />
<glyph unicode="&#xbd;" horiz-adv-x="1356" d="M102 12l1207 1411l63 -53l-1206 -1411zM143 686l7 49q35 10 78.5 17t97.5 10l100 530l-164 -73l-12 79l205 88h88l-119 -624q35 -3 74 -10t77 -17l-8 -49h-424zM745 0l9 53l247 215q28 25 57.5 53t53.5 60.5t39.5 69.5t15.5 79q0 47 -27.5 76t-84.5 29q-19 0 -42.5 -4.5 t-35.5 -9.5l-57 -144h-54l43 197q25 9 49.5 15.5t48 11t46 6.5t43.5 2q43 0 76 -12.5t55.5 -34t33.5 -50.5t11 -63q0 -43 -15.5 -84t-41.5 -79.5t-60 -74t-72 -67.5l-194 -166h309l-14 -78h-439z" />
<glyph unicode="&#xbe;" horiz-adv-x="1370" d="M127 12l1206 1411l64 -53l-1207 -1411zM174 698l37 82q22 -9 53.5 -14.5t63.5 -5.5q33 0 70 7t68.5 24t52 46.5t20.5 73.5q0 51 -44.5 69.5t-134.5 18.5h-30.5t-36.5 -2l16 78h58q21 0 44.5 4t46.5 12.5t43.5 21.5t36 30.5t24.5 40.5t9 51q0 18 -6 35t-20.5 29.5 t-38.5 20t-60 7.5q-15 0 -28.5 -2.5t-24.5 -5.5q-11 -29 -22.5 -59t-22.5 -52h-49l35 172q32 8 71.5 14.5t79.5 6.5q51 0 87.5 -9.5t60 -27t34.5 -42t11 -54.5q0 -37 -12 -69.5t-34 -60t-52.5 -50t-67.5 -39.5q63 -11 96 -45t33 -82q0 -40 -14.5 -73.5t-39.5 -60.5 t-58.5 -47t-72 -33.5t-80 -20.5t-81.5 -7q-31 0 -63 6t-58 12zM676 166l2 61l401 469h123l-86 -448h139l-14 -82h-141l-19 -98q26 -7 48 -12t42 -11l-8 -45h-286l8 45q17 5 43 10.5t57 12.5l19 98h-328zM793 248h227l65 352z" />
<glyph unicode="&#xbf;" horiz-adv-x="883" d="M33 -61q0 61 21.5 109.5t56.5 89t79 76.5t88.5 73t85.5 78t70.5 91.5t42.5 113t2 143.5h109q11 -84 -2 -150.5t-42 -120.5t-69 -97.5t-83.5 -81.5t-86.5 -73.5t-77 -73t-55 -79.5t-21 -94q0 -48 28 -91.5t77 -78.5t115.5 -59.5t143.5 -35.5l-33 -100q-101 13 -184 47 t-142 82.5t-91.5 108t-32.5 123.5zM492 944q0 18 6.5 34t18 28t27 19t34.5 7q18 0 34 -7t27.5 -19t18 -28t6.5 -34t-6.5 -34t-18 -28t-27.5 -19t-34 -7q-19 0 -34.5 7t-27 19t-18 28t-6.5 34z" />
<glyph unicode="&#xc0;" horiz-adv-x="1374" d="M-90 0l10 55q29 8 67.5 16t69.5 11l738 1300h114l234 -1298q15 -2 33 -5t36 -7t34.5 -8.5t29.5 -8.5l-12 -55h-428l10 55q42 11 88 18.5t92 10.5l-45 278h-645l-154 -278q41 -3 85 -10.5t81 -18.5l-10 -55h-428zM385 453h580l-109 620q-8 47 -15 96t-12 93h-2 q-20 -42 -44 -88.5t-50 -94.5zM575 1624l49 98l332 -149l-30 -70z" />
<glyph unicode="&#xc1;" horiz-adv-x="1374" d="M-90 0l10 55q29 8 67.5 16t69.5 11l738 1300h114l234 -1298q15 -2 33 -5t36 -7t34.5 -8.5t29.5 -8.5l-12 -55h-428l10 55q42 11 88 18.5t92 10.5l-45 278h-645l-154 -278q41 -3 85 -10.5t81 -18.5l-10 -55h-428zM385 453h580l-109 620q-8 47 -15 96t-12 93h-2 q-20 -42 -44 -88.5t-50 -94.5zM751 1573l344 149l35 -98l-352 -121z" />
<glyph unicode="&#xc2;" horiz-adv-x="1374" d="M-90 0l10 55q29 8 67.5 16t69.5 11l738 1300h114l234 -1298q15 -2 33 -5t36 -7t34.5 -8.5t29.5 -8.5l-12 -55h-428l10 55q42 11 88 18.5t92 10.5l-45 278h-645l-154 -278q41 -3 85 -10.5t81 -18.5l-10 -55h-428zM385 453h580l-109 620q-8 47 -15 96t-12 93h-2 q-20 -42 -44 -88.5t-50 -94.5zM578 1571l332 170l278 -164l-47 -78l-242 135l-284 -135z" />
<glyph unicode="&#xc3;" horiz-adv-x="1374" d="M-90 0l10 55q29 8 67.5 16t69.5 11l738 1300h114l234 -1298q15 -2 33 -5t36 -7t34.5 -8.5t29.5 -8.5l-12 -55h-428l10 55q42 11 88 18.5t92 10.5l-45 278h-645l-154 -278q41 -3 85 -10.5t81 -18.5l-10 -55h-428zM385 453h580l-109 620q-8 47 -15 96t-12 93h-2 q-20 -42 -44 -88.5t-50 -94.5zM553 1587q37 63 89.5 98t115.5 35q50 0 85 -18t64 -40t56.5 -40t62.5 -18t71 24t70 72l60 -47q-39 -63 -92 -98t-115 -35q-50 0 -85 18t-64 40t-56.5 40t-63.5 18q-18 0 -36 -6t-36 -18t-35.5 -30t-33.5 -42z" />
<glyph unicode="&#xc4;" horiz-adv-x="1374" d="M-90 0l10 55q29 8 67.5 16t69.5 11l738 1300h114l234 -1298q15 -2 33 -5t36 -7t34.5 -8.5t29.5 -8.5l-12 -55h-428l10 55q42 11 88 18.5t92 10.5l-45 278h-645l-154 -278q41 -3 85 -10.5t81 -18.5l-10 -55h-428zM385 453h580l-109 620q-8 47 -15 96t-12 93h-2 q-20 -42 -44 -88.5t-50 -94.5zM592 1587q0 17 6.5 32t17.5 26t26 17.5t32 6.5t31 -6t24.5 -16.5t16.5 -24.5t6 -31t-6.5 -32t-17.5 -26t-26 -17.5t-32 -6.5t-31 6t-24.5 16.5t-16.5 24.5t-6 31zM1016 1587q0 17 6.5 32t17.5 26t26 17.5t32 6.5t31 -6t24.5 -16.5t16.5 -24.5 t6 -31t-6.5 -32t-17.5 -26t-26 -17.5t-32 -6.5t-31 6t-24.5 16.5t-16.5 24.5t-6 31z" />
<glyph unicode="&#xc5;" horiz-adv-x="1374" d="M-90 0l10 55q29 8 67.5 16t69.5 11l738 1300h114l234 -1298q15 -2 33 -5t36 -7t34.5 -8.5t29.5 -8.5l-12 -55h-428l10 55q42 11 88 18.5t92 10.5l-45 278h-645l-154 -278q41 -3 85 -10.5t81 -18.5l-10 -55h-428zM385 453h580l-109 620q-8 47 -15 96t-12 93h-2 q-20 -42 -44 -88.5t-50 -94.5zM708 1638q0 45 17.5 83t46.5 65t66 42t75 15q39 0 71.5 -13.5t56 -37t37 -56t13.5 -69.5q0 -43 -17.5 -80.5t-46 -65t-65 -43.5t-75.5 -16q-38 0 -70.5 13t-56.5 36t-38 55.5t-14 71.5zM786 1644q0 -22 8 -42t22 -35t34 -24t43 -9t44.5 9.5 t38 27t26.5 40.5t10 50q0 22 -7.5 42t-21.5 35t-33.5 24t-42.5 9t-44.5 -9.5t-38.5 -27t-27.5 -40.5t-10.5 -50z" />
<glyph unicode="&#xc6;" horiz-adv-x="1669" d="M-164 0l12 55q28 8 66.5 16t69.5 11l905 1216q-45 4 -88 11t-80 18l12 55h922l-56 -288h-63q-2 55 -1.5 107.5t5.5 92.5h-442l-103 -536h357q14 45 31.5 86.5t35.5 79.5h56l-80 -420h-58q-5 37 -5 80.5t3 85.5h-356l-111 -580h463q14 43 33 97t41 108h63l-55 -295h-842 l11 55q42 11 86.5 18.5t89.5 10.5l55 278h-498l-204 -278q45 -3 86 -10.5t79 -18.5l-10 -55h-430zM381 453h448l160 835h-4q-15 -23 -32.5 -48.5t-39.5 -57.5t-51 -72t-67 -92z" />
<glyph unicode="&#xc7;" horiz-adv-x="1178" d="M119 453q0 125 22.5 243.5t66.5 223t109.5 192.5t152 151t193.5 98.5t234 35.5q91 0 166 -11.5t147 -31.5l-57 -279h-63q0 51 1.5 101t10.5 100q-62 18 -117.5 24.5t-114.5 6.5q-109 0 -198.5 -33t-160 -91.5t-122 -138t-85 -173t-50 -196.5t-16.5 -208q0 -84 18.5 -155 t63 -122t118.5 -79.5t185 -28.5q37 0 84.5 6.5t96.5 17.5t95.5 26t83.5 32l16 -96q-88 -38 -191.5 -60t-205.5 -22q-93 0 -164.5 16.5t-125.5 47t-90.5 72.5t-59.5 94t-33 112t-10 125zM357 -483q50 55 82 100.5t45 86.5t6 80.5t-35 82.5l105 49q30 -48 37.5 -96t-6 -97 t-45 -100t-79.5 -106h-110z" />
<glyph unicode="&#xc8;" horiz-adv-x="1053" d="M-37 0l12 55q41 11 87.5 18.5t93.5 10.5l229 1214q-45 4 -89 11t-81 18l12 55h830l-56 -288h-65q0 55 0.5 107.5t5.5 92.5h-450l-101 -536h357q14 45 29.5 86.5t37.5 79.5h55l-79 -420h-58q-6 37 -6.5 79t2.5 87h-354l-111 -580h451q14 43 33.5 97.5t39.5 107.5h64 l-55 -295h-834zM440 1624l49 98l332 -149l-30 -70z" />
<glyph unicode="&#xc9;" horiz-adv-x="1053" d="M-37 0l12 55q41 11 87.5 18.5t93.5 10.5l229 1214q-45 4 -89 11t-81 18l12 55h830l-56 -288h-65q0 55 0.5 107.5t5.5 92.5h-450l-101 -536h357q14 45 29.5 86.5t37.5 79.5h55l-79 -420h-58q-6 37 -6.5 79t2.5 87h-354l-111 -580h451q14 43 33.5 97.5t39.5 107.5h64 l-55 -295h-834zM596 1573l344 149l35 -98l-352 -121z" />
<glyph unicode="&#xca;" horiz-adv-x="1053" d="M-37 0l12 55q41 11 87.5 18.5t93.5 10.5l229 1214q-45 4 -89 11t-81 18l12 55h830l-56 -288h-65q0 55 0.5 107.5t5.5 92.5h-450l-101 -536h357q14 45 29.5 86.5t37.5 79.5h55l-79 -420h-58q-6 37 -6.5 79t2.5 87h-354l-111 -580h451q14 43 33.5 97.5t39.5 107.5h64 l-55 -295h-834zM418 1571l332 170l278 -164l-47 -78l-242 135l-284 -135z" />
<glyph unicode="&#xcb;" horiz-adv-x="1053" d="M-37 0l12 55q41 11 87.5 18.5t93.5 10.5l229 1214q-45 4 -89 11t-81 18l12 55h830l-56 -288h-65q0 55 0.5 107.5t5.5 92.5h-450l-101 -536h357q14 45 29.5 86.5t37.5 79.5h55l-79 -420h-58q-6 37 -6.5 79t2.5 87h-354l-111 -580h451q14 43 33.5 97.5t39.5 107.5h64 l-55 -295h-834zM420 1587q0 17 6.5 32t17.5 26t26 17.5t32 6.5t31 -6t24.5 -16.5t16.5 -24.5t6 -31t-6.5 -32t-17.5 -26t-26 -17.5t-32 -6.5t-31 6t-24.5 16.5t-16.5 24.5t-6 31zM844 1587q0 17 6.5 32t17.5 26t26 17.5t32 6.5t31 -6t24.5 -16.5t16.5 -24.5t6 -31t-6.5 -32 t-17.5 -26t-26 -17.5t-32 -6.5t-31 6t-24.5 16.5t-16.5 24.5t-6 31z" />
<glyph unicode="&#xcc;" horiz-adv-x="590" d="M-37 0l10 55q42 11 89 18.5t92 10.5l231 1214q-45 4 -88 11t-80 18l10 55h457l-10 -55q-42 -11 -88 -18t-92 -11l-232 -1214q45 -3 89 -10.5t81 -18.5l-10 -55h-459zM210 1624l49 98l332 -149l-30 -70z" />
<glyph unicode="&#xcd;" horiz-adv-x="590" d="M-37 0l10 55q42 11 89 18.5t92 10.5l231 1214q-45 4 -88 11t-80 18l10 55h457l-10 -55q-42 -11 -88 -18t-92 -11l-232 -1214q45 -3 89 -10.5t81 -18.5l-10 -55h-459zM380 1573l344 149l35 -98l-352 -121z" />
<glyph unicode="&#xce;" horiz-adv-x="590" d="M-37 0l10 55q42 11 89 18.5t92 10.5l231 1214q-45 4 -88 11t-80 18l10 55h457l-10 -55q-42 -11 -88 -18t-92 -11l-232 -1214q45 -3 89 -10.5t81 -18.5l-10 -55h-459zM196 1571l332 170l278 -164l-47 -78l-242 135l-284 -135z" />
<glyph unicode="&#xcf;" horiz-adv-x="590" d="M-37 0l10 55q42 11 89 18.5t92 10.5l231 1214q-45 4 -88 11t-80 18l10 55h457l-10 -55q-42 -11 -88 -18t-92 -11l-232 -1214q45 -3 89 -10.5t81 -18.5l-10 -55h-459zM201 1587q0 17 6.5 32t17.5 26t26 17.5t32 6.5t31 -6t24.5 -16.5t16.5 -24.5t6 -31t-6.5 -32t-17.5 -26 t-26 -17.5t-32 -6.5t-31 6t-24.5 16.5t-16.5 24.5t-6 31zM625 1587q0 17 6.5 32t17.5 26t26 17.5t32 6.5t31 -6t24.5 -16.5t16.5 -24.5t6 -31t-6.5 -32t-17.5 -26t-26 -17.5t-32 -6.5t-31 6t-24.5 16.5t-16.5 24.5t-6 31z" />
<glyph unicode="&#xd0;" horiz-adv-x="1444" d="M-12 0l10 55q42 11 87 18.5t91 10.5l113 590h-211l16 86h211l103 538q-45 4 -88 11t-80 18l10 55h172q31 0 76 1t94.5 2.5t100.5 2.5t95 1q172 0 287.5 -40t185 -109t99 -160.5t29.5 -194.5q0 -112 -23.5 -222t-72 -209t-123 -183t-176 -145.5t-231 -96.5t-288.5 -35 q-53 0 -96.5 1t-81.5 2t-71.5 2t-65.5 1h-172zM289 98q24 -3 51.5 -5.5t55 -4.5t52.5 -3t44 -1q139 0 251 31t198.5 85.5t149.5 129t103.5 162t60 184t19.5 194.5q0 91 -24 169.5t-82 136.5t-155 91t-243 33q-33 0 -68 -0.5t-68.5 -1.5t-64 -2t-53.5 -2l-102 -534h334 l-19 -86h-332z" />
<glyph unicode="&#xd1;" horiz-adv-x="1479" d="M-35 0l10 55q42 11 89 18.5t92 10.5l229 1214q-45 4 -88 11t-80 18l10 55h310l432 -995q31 -69 59.5 -140t54.5 -143q11 63 23.5 134t26 145.5t27 150.5t26.5 148l110 616q-45 4 -87.5 11t-80.5 18l11 55h432l-10 -55q-36 -9 -76 -16.5t-80 -12.5l-248 -1298h-133 l-434 997q-32 75 -61.5 147t-51.5 140q-11 -72 -23.5 -151.5t-27 -161.5t-29 -163.5t-28.5 -156.5l-103 -567q45 -3 88 -10.5t80 -18.5l-10 -55h-459zM619 1587q37 63 89.5 98t115.5 35q50 0 85 -18t64 -40t56.5 -40t62.5 -18t71 24t70 72l60 -47q-39 -63 -92 -98t-115 -35 q-50 0 -85 18t-64 40t-56.5 40t-63.5 18q-18 0 -36 -6t-36 -18t-35.5 -30t-33.5 -42z" />
<glyph unicode="&#xd2;" horiz-adv-x="1417" d="M111 483q0 126 26.5 243t76 218.5t119.5 185.5t156 143.5t186.5 92.5t211.5 33q116 0 206 -33.5t151.5 -97t93.5 -156.5t32 -211q0 -130 -27.5 -249t-78 -221t-121.5 -184.5t-158 -141t-187 -90t-208 -31.5q-120 0 -210 33.5t-149.5 97t-89.5 156.5t-30 212zM231 496 q0 -95 24 -172.5t71 -132t116 -84t160 -29.5q87 0 169 28t153.5 79t131.5 124t102.5 163t66.5 195.5t24 221.5q0 97 -23.5 174.5t-70.5 131.5t-118.5 83t-168.5 29q-91 0 -173 -29t-153 -81.5t-128.5 -127t-98 -164.5t-62.5 -193.5t-22 -215.5zM618 1624l49 98l332 -149 l-30 -70z" />
<glyph unicode="&#xd3;" horiz-adv-x="1417" d="M111 483q0 126 26.5 243t76 218.5t119.5 185.5t156 143.5t186.5 92.5t211.5 33q116 0 206 -33.5t151.5 -97t93.5 -156.5t32 -211q0 -130 -27.5 -249t-78 -221t-121.5 -184.5t-158 -141t-187 -90t-208 -31.5q-120 0 -210 33.5t-149.5 97t-89.5 156.5t-30 212zM231 496 q0 -95 24 -172.5t71 -132t116 -84t160 -29.5q87 0 169 28t153.5 79t131.5 124t102.5 163t66.5 195.5t24 221.5q0 97 -23.5 174.5t-70.5 131.5t-118.5 83t-168.5 29q-91 0 -173 -29t-153 -81.5t-128.5 -127t-98 -164.5t-62.5 -193.5t-22 -215.5zM839 1573l344 149l35 -98 l-352 -121z" />
<glyph unicode="&#xd4;" horiz-adv-x="1417" d="M111 483q0 126 26.5 243t76 218.5t119.5 185.5t156 143.5t186.5 92.5t211.5 33q116 0 206 -33.5t151.5 -97t93.5 -156.5t32 -211q0 -130 -27.5 -249t-78 -221t-121.5 -184.5t-158 -141t-187 -90t-208 -31.5q-120 0 -210 33.5t-149.5 97t-89.5 156.5t-30 212zM231 496 q0 -95 24 -172.5t71 -132t116 -84t160 -29.5q87 0 169 28t153.5 79t131.5 124t102.5 163t66.5 195.5t24 221.5q0 97 -23.5 174.5t-70.5 131.5t-118.5 83t-168.5 29q-91 0 -173 -29t-153 -81.5t-128.5 -127t-98 -164.5t-62.5 -193.5t-22 -215.5zM621 1571l332 170l278 -164 l-47 -78l-242 135l-284 -135z" />
<glyph unicode="&#xd5;" horiz-adv-x="1417" d="M111 483q0 126 26.5 243t76 218.5t119.5 185.5t156 143.5t186.5 92.5t211.5 33q116 0 206 -33.5t151.5 -97t93.5 -156.5t32 -211q0 -130 -27.5 -249t-78 -221t-121.5 -184.5t-158 -141t-187 -90t-208 -31.5q-120 0 -210 33.5t-149.5 97t-89.5 156.5t-30 212zM231 496 q0 -95 24 -172.5t71 -132t116 -84t160 -29.5q87 0 169 28t153.5 79t131.5 124t102.5 163t66.5 195.5t24 221.5q0 97 -23.5 174.5t-70.5 131.5t-118.5 83t-168.5 29q-91 0 -173 -29t-153 -81.5t-128.5 -127t-98 -164.5t-62.5 -193.5t-22 -215.5zM609 1587q37 63 89.5 98 t115.5 35q50 0 85 -18t64 -40t56.5 -40t62.5 -18t71 24t70 72l60 -47q-39 -63 -92 -98t-115 -35q-50 0 -85 18t-64 40t-56.5 40t-63.5 18q-18 0 -36 -6t-36 -18t-35.5 -30t-33.5 -42z" />
<glyph unicode="&#xd6;" horiz-adv-x="1417" d="M111 483q0 126 26.5 243t76 218.5t119.5 185.5t156 143.5t186.5 92.5t211.5 33q116 0 206 -33.5t151.5 -97t93.5 -156.5t32 -211q0 -130 -27.5 -249t-78 -221t-121.5 -184.5t-158 -141t-187 -90t-208 -31.5q-120 0 -210 33.5t-149.5 97t-89.5 156.5t-30 212zM231 496 q0 -95 24 -172.5t71 -132t116 -84t160 -29.5q87 0 169 28t153.5 79t131.5 124t102.5 163t66.5 195.5t24 221.5q0 97 -23.5 174.5t-70.5 131.5t-118.5 83t-168.5 29q-91 0 -173 -29t-153 -81.5t-128.5 -127t-98 -164.5t-62.5 -193.5t-22 -215.5zM612 1587q0 17 6.5 32 t17.5 26t26 17.5t32 6.5t31 -6t24.5 -16.5t16.5 -24.5t6 -31t-6.5 -32t-17.5 -26t-26 -17.5t-32 -6.5t-31 6t-24.5 16.5t-16.5 24.5t-6 31zM1036 1587q0 17 6.5 32t17.5 26t26 17.5t32 6.5t31 -6t24.5 -16.5t16.5 -24.5t6 -31t-6.5 -32t-17.5 -26t-26 -17.5t-32 -6.5t-31 6 t-24.5 16.5t-16.5 24.5t-6 31z" />
<glyph unicode="&#xd7;" d="M76 242l442 370l-301 371l72 59l301 -370l440 370l55 -67l-440 -371l299 -371l-72 -59l-299 371l-440 -371z" />
<glyph unicode="&#xd8;" horiz-adv-x="1417" d="M111 483q0 126 26.5 243t76 218.5t119.5 185.5t156 143.5t186.5 92.5t211.5 33q48 0 91 -6t83 -17l108 195l80 -43l-104 -187q111 -55 169 -166.5t58 -273.5q0 -130 -28 -249t-78.5 -221t-121.5 -184.5t-158 -141t-187.5 -90t-208.5 -31.5q-54 0 -101.5 7t-89.5 19 l-116 -209l-80 43l112 203q-103 59 -153.5 168.5t-50.5 267.5zM231 496q0 -118 33.5 -206.5t108.5 -142.5l637 1141q-31 9 -66 14t-76 5q-91 0 -173 -29t-153 -81.5t-128.5 -127t-98 -164.5t-62.5 -193.5t-22 -215.5zM453 102q64 -24 149 -24q87 0 169 28t154 79t132 124 t103 163t67 195.5t24 221.5q0 125 -38.5 216.5t-118.5 143.5z" />
<glyph unicode="&#xd9;" horiz-adv-x="1446" d="M188 322q0 32 4.5 66t10.5 69l159 841q-38 5 -75.5 12.5t-69.5 16.5l10 55h435l-13 -55q-40 -11 -86.5 -18t-91.5 -11l-156 -817q-8 -38 -12 -73.5t-4 -69.5q0 -65 18 -114.5t57 -82.5t101.5 -50t151.5 -17q100 0 180.5 22.5t142 75t104 138t66.5 212.5l148 776 q-45 4 -89 11t-81 18l10 55h432l-10 -55q-74 -18 -156 -29l-149 -792q-26 -134 -76.5 -232t-127 -162.5t-179 -96t-230.5 -31.5q-122 0 -203.5 25t-130.5 70t-69.5 107t-20.5 136zM571 1624l49 98l332 -149l-30 -70z" />
<glyph unicode="&#xda;" horiz-adv-x="1446" d="M188 322q0 32 4.5 66t10.5 69l159 841q-38 5 -75.5 12.5t-69.5 16.5l10 55h435l-13 -55q-40 -11 -86.5 -18t-91.5 -11l-156 -817q-8 -38 -12 -73.5t-4 -69.5q0 -65 18 -114.5t57 -82.5t101.5 -50t151.5 -17q100 0 180.5 22.5t142 75t104 138t66.5 212.5l148 776 q-45 4 -89 11t-81 18l10 55h432l-10 -55q-74 -18 -156 -29l-149 -792q-26 -134 -76.5 -232t-127 -162.5t-179 -96t-230.5 -31.5q-122 0 -203.5 25t-130.5 70t-69.5 107t-20.5 136zM821 1573l344 149l35 -98l-352 -121z" />
<glyph unicode="&#xdb;" horiz-adv-x="1446" d="M188 322q0 32 4.5 66t10.5 69l159 841q-38 5 -75.5 12.5t-69.5 16.5l10 55h435l-13 -55q-40 -11 -86.5 -18t-91.5 -11l-156 -817q-8 -38 -12 -73.5t-4 -69.5q0 -65 18 -114.5t57 -82.5t101.5 -50t151.5 -17q100 0 180.5 22.5t142 75t104 138t66.5 212.5l148 776 q-45 4 -89 11t-81 18l10 55h432l-10 -55q-74 -18 -156 -29l-149 -792q-26 -134 -76.5 -232t-127 -162.5t-179 -96t-230.5 -31.5q-122 0 -203.5 25t-130.5 70t-69.5 107t-20.5 136zM615 1571l332 170l278 -164l-47 -78l-242 135l-284 -135z" />
<glyph unicode="&#xdc;" horiz-adv-x="1446" d="M188 322q0 32 4.5 66t10.5 69l159 841q-38 5 -75.5 12.5t-69.5 16.5l10 55h435l-13 -55q-40 -11 -86.5 -18t-91.5 -11l-156 -817q-8 -38 -12 -73.5t-4 -69.5q0 -65 18 -114.5t57 -82.5t101.5 -50t151.5 -17q100 0 180.5 22.5t142 75t104 138t66.5 212.5l148 776 q-45 4 -89 11t-81 18l10 55h432l-10 -55q-74 -18 -156 -29l-149 -792q-26 -134 -76.5 -232t-127 -162.5t-179 -96t-230.5 -31.5q-122 0 -203.5 25t-130.5 70t-69.5 107t-20.5 136zM632 1587q0 17 6.5 32t17.5 26t26 17.5t32 6.5t31 -6t24.5 -16.5t16.5 -24.5t6 -31t-6.5 -32 t-17.5 -26t-26 -17.5t-32 -6.5t-31 6t-24.5 16.5t-16.5 24.5t-6 31zM1056 1587q0 17 6.5 32t17.5 26t26 17.5t32 6.5t31 -6t24.5 -16.5t16.5 -24.5t6 -31t-6.5 -32t-17.5 -26t-26 -17.5t-32 -6.5t-31 6t-24.5 16.5t-16.5 24.5t-6 31z" />
<glyph unicode="&#xdd;" horiz-adv-x="1159" d="M160 1327l10 55h432l-10 -55q-38 -11 -85.5 -18t-98.5 -11l116 -448q9 -32 17 -63.5t16.5 -63t16 -63t14.5 -62.5h2q21 33 42 66.5t44 70t49.5 78t58.5 90.5l252 395q-38 4 -81 11t-78 18l12 55h422l-11 -55q-30 -8 -69 -15.5t-70 -11.5l-534 -794l-80 -422 q45 -3 88 -10.5t80 -18.5l-10 -55h-457l10 55q40 11 87 18.5t93 10.5l80 422l-223 794q-31 4 -68.5 11.5t-66.5 15.5zM721 1573l344 149l35 -98l-352 -121z" />
<glyph unicode="&#xde;" horiz-adv-x="1073" d="M-35 0l10 55q42 11 88 18.5t93 10.5l231 1214q-45 4 -89 11t-81 18l10 55h459l-10 -55q-42 -11 -88 -18t-92 -11l-27 -149q48 3 101.5 4.5t115.5 1.5q105 0 180.5 -24.5t124 -68t71.5 -103.5t23 -130q0 -98 -41 -192.5t-121 -169t-198.5 -120.5t-273.5 -46q-42 0 -76 3.5 t-66 8.5l-45 -229q45 -3 88 -10.5t80 -18.5l-10 -55h-457zM326 403q35 -5 71.5 -8.5t71.5 -3.5q124 0 218 36.5t157 96.5t95 136.5t32 156.5q0 58 -19 104.5t-58 79t-99 49.5t-142 17q-23 0 -50 -1t-54 -2.5t-52.5 -3.5t-45.5 -5z" />
<glyph unicode="&#xdf;" horiz-adv-x="1139" d="M-369 -518l25 100q35 -11 70.5 -15.5t78.5 -4.5q63 0 110 15.5t82 56.5t61.5 111.5t47.5 180.5l195 1002q-18 3 -38.5 6t-42.5 5.5t-45 4.5t-44 4l10 56q37 5 83.5 8.5t94.5 5.5q21 126 61 217.5t100 151t140 88t181 28.5q67 0 117.5 -16.5t85 -45t52 -67t17.5 -82.5 q0 -80 -27.5 -132.5t-68.5 -89t-89.5 -64t-89.5 -57t-68.5 -68.5t-27.5 -99q0 -50 22.5 -89.5t56.5 -73.5t74 -66.5t74 -69.5t56.5 -81.5t22.5 -102.5q0 -68 -30.5 -125.5t-84.5 -99.5t-128 -66t-161 -24q-29 0 -50.5 0.5t-40.5 2t-36.5 4t-36.5 5.5l54 280h59 q0 -55 -1.5 -100t-6.5 -88q18 -3 41 -5.5t37 -2.5q131 0 201.5 54.5t70.5 148.5q0 49 -22.5 88t-56 73t-73 66t-73 68.5t-56 81t-22.5 102.5q0 57 16 99t42 74t59.5 56.5t68 46.5t68 44t59.5 49t42 61t16 80q0 63 -44.5 103t-134.5 40q-68 0 -124.5 -20t-101 -65t-77 -113.5 t-56.5 -198.5l-212 -1090q-26 -136 -65 -224.5t-93 -141t-124 -73.5t-158 -21q-32 0 -71 4t-71 10z" />
<glyph unicode="&#xe0;" horiz-adv-x="1106" d="M70 283q0 91 15.5 182t48 174t83 154.5t120 124t159 82.5t200.5 30q82 0 151 -8t128 -21l-174 -911q34 -6 80 -11.5t90 -8.5l-10 -56q-29 -4 -65 -7t-74.5 -5t-77 -3t-72.5 1q14 74 48.5 197.5t90.5 304.5l-4 2q-16 -40 -40.5 -94.5t-58.5 -112.5t-77 -114.5t-95.5 -101 t-114.5 -72t-134 -27.5q-105 0 -161 71.5t-56 229.5zM180 301q0 -62 9.5 -105t26.5 -70t40.5 -39.5t52.5 -12.5q60 0 118.5 36.5t112.5 97t102 139t86.5 162t66 165.5t41.5 151l18 97q-37 9 -80 15.5t-96 6.5q-92 0 -164.5 -27.5t-128 -74.5t-94.5 -110.5t-63.5 -134.5 t-36 -147t-11.5 -149zM477 1440l93 63l188 -264l-72 -49z" />
<glyph unicode="&#xe1;" horiz-adv-x="1106" d="M70 283q0 91 15.5 182t48 174t83 154.5t120 124t159 82.5t200.5 30q82 0 151 -8t128 -21l-174 -911q34 -6 80 -11.5t90 -8.5l-10 -56q-29 -4 -65 -7t-74.5 -5t-77 -3t-72.5 1q14 74 48.5 197.5t90.5 304.5l-4 2q-16 -40 -40.5 -94.5t-58.5 -112.5t-77 -114.5t-95.5 -101 t-114.5 -72t-134 -27.5q-105 0 -161 71.5t-56 229.5zM180 301q0 -62 9.5 -105t26.5 -70t40.5 -39.5t52.5 -12.5q60 0 118.5 36.5t112.5 97t102 139t86.5 162t66 165.5t41.5 151l18 97q-37 9 -80 15.5t-96 6.5q-92 0 -164.5 -27.5t-128 -74.5t-94.5 -110.5t-63.5 -134.5 t-36 -147t-11.5 -149zM616 1249l262 254l70 -76l-279 -237z" />
<glyph unicode="&#xe2;" horiz-adv-x="1106" d="M70 283q0 91 15.5 182t48 174t83 154.5t120 124t159 82.5t200.5 30q82 0 151 -8t128 -21l-174 -911q34 -6 80 -11.5t90 -8.5l-10 -56q-29 -4 -65 -7t-74.5 -5t-77 -3t-72.5 1q14 74 48.5 197.5t90.5 304.5l-4 2q-16 -40 -40.5 -94.5t-58.5 -112.5t-77 -114.5t-95.5 -101 t-114.5 -72t-134 -27.5q-105 0 -161 71.5t-56 229.5zM180 301q0 -62 9.5 -105t26.5 -70t40.5 -39.5t52.5 -12.5q60 0 118.5 36.5t112.5 97t102 139t86.5 162t66 165.5t41.5 151l18 97q-37 9 -80 15.5t-96 6.5q-92 0 -164.5 -27.5t-128 -74.5t-94.5 -110.5t-63.5 -134.5 t-36 -147t-11.5 -149zM419 1243l293 260l209 -256l-63 -57l-164 180l-221 -180z" />
<glyph unicode="&#xe3;" horiz-adv-x="1106" d="M70 283q0 91 15.5 182t48 174t83 154.5t120 124t159 82.5t200.5 30q82 0 151 -8t128 -21l-174 -911q34 -6 80 -11.5t90 -8.5l-10 -56q-29 -4 -65 -7t-74.5 -5t-77 -3t-72.5 1q14 74 48.5 197.5t90.5 304.5l-4 2q-16 -40 -40.5 -94.5t-58.5 -112.5t-77 -114.5t-95.5 -101 t-114.5 -72t-134 -27.5q-105 0 -161 71.5t-56 229.5zM180 301q0 -62 9.5 -105t26.5 -70t40.5 -39.5t52.5 -12.5q60 0 118.5 36.5t112.5 97t102 139t86.5 162t66 165.5t41.5 151l18 97q-37 9 -80 15.5t-96 6.5q-92 0 -164.5 -27.5t-128 -74.5t-94.5 -110.5t-63.5 -134.5 t-36 -147t-11.5 -149zM339 1317q37 65 88 100t111 35q48 0 82 -18.5t62.5 -41t55 -41t60.5 -18.5t67 24.5t64 74.5l61 -50q-37 -65 -89.5 -100t-112.5 -35q-48 0 -81.5 18.5t-60.5 41t-52.5 41t-59.5 18.5t-67.5 -24.5t-68.5 -73.5z" />
<glyph unicode="&#xe4;" horiz-adv-x="1106" d="M70 283q0 91 15.5 182t48 174t83 154.5t120 124t159 82.5t200.5 30q82 0 151 -8t128 -21l-174 -911q34 -6 80 -11.5t90 -8.5l-10 -56q-29 -4 -65 -7t-74.5 -5t-77 -3t-72.5 1q14 74 48.5 197.5t90.5 304.5l-4 2q-16 -40 -40.5 -94.5t-58.5 -112.5t-77 -114.5t-95.5 -101 t-114.5 -72t-134 -27.5q-105 0 -161 71.5t-56 229.5zM180 301q0 -62 9.5 -105t26.5 -70t40.5 -39.5t52.5 -12.5q60 0 118.5 36.5t112.5 97t102 139t86.5 162t66 165.5t41.5 151l18 97q-37 9 -80 15.5t-96 6.5q-92 0 -164.5 -27.5t-128 -74.5t-94.5 -110.5t-63.5 -134.5 t-36 -147t-11.5 -149zM400 1348q0 18 6.5 33.5t17.5 27t26 17.5t32 6t31 -6t24.5 -16.5t16.5 -24.5t6 -29q0 -18 -6.5 -33.5t-17.5 -27t-26 -17.5t-32 -6t-31 6t-24.5 16.5t-16.5 24.5t-6 29zM773 1348q0 18 6.5 33.5t17.5 27t26 17.5t32 6t31 -6t24.5 -16.5t16 -24.5 t5.5 -29q0 -18 -6.5 -33.5t-17.5 -27t-26 -17.5t-32 -6t-31 6t-24.5 16.5t-16 24.5t-5.5 29z" />
<glyph unicode="&#xe5;" horiz-adv-x="1106" d="M70 283q0 91 15.5 182t48 174t83 154.5t120 124t159 82.5t200.5 30q82 0 151 -8t128 -21l-174 -911q34 -6 80 -11.5t90 -8.5l-10 -56q-29 -4 -65 -7t-74.5 -5t-77 -3t-72.5 1q14 74 48.5 197.5t90.5 304.5l-4 2q-16 -40 -40.5 -94.5t-58.5 -112.5t-77 -114.5t-95.5 -101 t-114.5 -72t-134 -27.5q-105 0 -161 71.5t-56 229.5zM180 301q0 -62 9.5 -105t26.5 -70t40.5 -39.5t52.5 -12.5q60 0 118.5 36.5t112.5 97t102 139t86.5 162t66 165.5t41.5 151l18 97q-37 9 -80 15.5t-96 6.5q-92 0 -164.5 -27.5t-128 -74.5t-94.5 -110.5t-63.5 -134.5 t-36 -147t-11.5 -149zM456 1333q0 48 18.5 87.5t49.5 68t69.5 44t79.5 15.5t75.5 -14t60 -39t39.5 -59t14 -74q0 -45 -18.5 -84.5t-49 -68.5t-69.5 -45.5t-80 -16.5q-40 0 -74.5 13.5t-60 38t-40 59t-14.5 75.5zM540 1339q0 -24 8 -45t22.5 -36.5t35 -25t45.5 -9.5 q24 0 47 10t41 28t28.5 42t10.5 53q0 24 -8 45t-22.5 37t-35 25.5t-45.5 9.5q-24 0 -47 -10.5t-41 -28.5t-28.5 -42.5t-10.5 -52.5z" />
<glyph unicode="&#xe6;" horiz-adv-x="1567" d="M45 178q0 75 25.5 131.5t71 97t109 68t140 46t162.5 29t178 17.5l17 80q15 74 14 129.5t-22 93t-63.5 56t-111.5 18.5q-52 0 -113 -7.5t-118 -23.5q-13 -46 -30 -95.5t-36 -100.5h-61l49 262q72 26 156 40.5t174 14.5q78 0 128.5 -15.5t81.5 -41.5t46 -60t22 -71 q26 35 64 69t85 60.5t103.5 42.5t120.5 16q67 0 117.5 -16.5t84 -45.5t50 -68.5t16.5 -84.5q0 -44 -11.5 -83.5t-41 -74t-79 -64t-125.5 -52.5t-180.5 -40t-244.5 -26q-2 -14 -4.5 -33t-4 -40t-2.5 -42.5t-1 -39.5q0 -75 13.5 -122.5t43.5 -75t78 -38t117 -10.5 q72 0 143 15.5t131 41.5l11 -90q-69 -29 -149 -45t-179 -16q-84 0 -140.5 19.5t-92 54t-54 81t-26.5 101.5q-23 -46 -64.5 -92t-96 -82.5t-120.5 -59t-139 -22.5q-60 0 -105.5 13.5t-75.5 38.5t-45.5 61t-15.5 81zM162 209q0 -30 11 -54.5t30 -42t45 -27t57 -9.5 q75 0 142.5 32.5t121 87t91 126.5t53.5 151q-119 -8 -219.5 -22.5t-174.5 -43.5t-115.5 -76.5t-41.5 -121.5zM846 578q122 8 222.5 21.5t172 38.5t111 65.5t39.5 103.5q0 34 -12.5 60.5t-35 44.5t-53 27t-67.5 9q-72 0 -131.5 -28.5t-107 -78.5t-82.5 -117.5t-56 -145.5z " />
<glyph unicode="&#xe7;" horiz-adv-x="854" d="M74 309q0 144 38.5 275t111.5 230t179 157.5t242 58.5q60 0 116 -10t105 -27l-51 -268l-59 2q-2 25 -2 51t1 52t3 51t6 49q-29 8 -61.5 12t-69.5 4q-75 0 -137 -26.5t-111 -72t-85.5 -106t-61 -128.5t-36.5 -140t-12 -139q0 -45 8 -90t34 -81t74 -58.5t128 -22.5 q65 0 133 15.5t125 41.5l17 -88q-57 -25 -135 -43t-164 -18q-98 0 -162.5 25t-103 68.5t-54.5 101.5t-16 124zM190 -483q50 55 82 100.5t45 86.5t6 80.5t-35 82.5l105 49q30 -48 37.5 -96t-6 -97t-45 -100t-79.5 -106h-110z" />
<glyph unicode="&#xe8;" horiz-adv-x="946" d="M74 299q0 92 15.5 182t45.5 171.5t75.5 151.5t106 121t135 80t164.5 29q68 0 118.5 -16.5t84 -45.5t50 -68.5t16.5 -84.5q0 -73 -39.5 -132t-123 -102.5t-212 -70.5t-305.5 -35q-3 -14 -5.5 -33t-5 -40t-3.5 -42.5t-1 -39.5q0 -75 13.5 -122.5t43.5 -75t78 -38t117 -10.5 q73 0 144 15.5t131 41.5l10 -90q-68 -29 -148.5 -45t-179.5 -16q-78 0 -139 16t-102 53t-62.5 97t-21.5 149zM225 578q146 6 249.5 23.5t169 46.5t96 68.5t30.5 90.5q0 34 -12.5 60.5t-35 44.5t-53 27t-67.5 9q-71 0 -131 -28.5t-107.5 -78.5t-82.5 -117.5t-56 -145.5z M399 1440l93 63l188 -264l-72 -49z" />
<glyph unicode="&#xe9;" horiz-adv-x="946" d="M74 299q0 92 15.5 182t45.5 171.5t75.5 151.5t106 121t135 80t164.5 29q68 0 118.5 -16.5t84 -45.5t50 -68.5t16.5 -84.5q0 -73 -39.5 -132t-123 -102.5t-212 -70.5t-305.5 -35q-3 -14 -5.5 -33t-5 -40t-3.5 -42.5t-1 -39.5q0 -75 13.5 -122.5t43.5 -75t78 -38t117 -10.5 q73 0 144 15.5t131 41.5l10 -90q-68 -29 -148.5 -45t-179.5 -16q-78 0 -139 16t-102 53t-62.5 97t-21.5 149zM225 578q146 6 249.5 23.5t169 46.5t96 68.5t30.5 90.5q0 34 -12.5 60.5t-35 44.5t-53 27t-67.5 9q-71 0 -131 -28.5t-107.5 -78.5t-82.5 -117.5t-56 -145.5z M530 1249l262 254l70 -76l-279 -237z" />
<glyph unicode="&#xea;" horiz-adv-x="946" d="M74 299q0 92 15.5 182t45.5 171.5t75.5 151.5t106 121t135 80t164.5 29q68 0 118.5 -16.5t84 -45.5t50 -68.5t16.5 -84.5q0 -73 -39.5 -132t-123 -102.5t-212 -70.5t-305.5 -35q-3 -14 -5.5 -33t-5 -40t-3.5 -42.5t-1 -39.5q0 -75 13.5 -122.5t43.5 -75t78 -38t117 -10.5 q73 0 144 15.5t131 41.5l10 -90q-68 -29 -148.5 -45t-179.5 -16q-78 0 -139 16t-102 53t-62.5 97t-21.5 149zM225 578q146 6 249.5 23.5t169 46.5t96 68.5t30.5 90.5q0 34 -12.5 60.5t-35 44.5t-53 27t-67.5 9q-71 0 -131 -28.5t-107.5 -78.5t-82.5 -117.5t-56 -145.5z M378 1243l293 260l209 -256l-63 -57l-164 180l-221 -180z" />
<glyph unicode="&#xeb;" horiz-adv-x="946" d="M74 299q0 92 15.5 182t45.5 171.5t75.5 151.5t106 121t135 80t164.5 29q68 0 118.5 -16.5t84 -45.5t50 -68.5t16.5 -84.5q0 -73 -39.5 -132t-123 -102.5t-212 -70.5t-305.5 -35q-3 -14 -5.5 -33t-5 -40t-3.5 -42.5t-1 -39.5q0 -75 13.5 -122.5t43.5 -75t78 -38t117 -10.5 q73 0 144 15.5t131 41.5l10 -90q-68 -29 -148.5 -45t-179.5 -16q-78 0 -139 16t-102 53t-62.5 97t-21.5 149zM225 578q146 6 249.5 23.5t169 46.5t96 68.5t30.5 90.5q0 34 -12.5 60.5t-35 44.5t-53 27t-67.5 9q-71 0 -131 -28.5t-107.5 -78.5t-82.5 -117.5t-56 -145.5z M396 1348q0 18 6.5 33.5t17.5 27t26 17.5t32 6t31 -6t24.5 -16.5t16.5 -24.5t6 -29q0 -18 -6.5 -33.5t-17.5 -27t-26 -17.5t-32 -6t-31 6t-24.5 16.5t-16.5 24.5t-6 29zM769 1348q0 18 6.5 33.5t17.5 27t26 17.5t32 6t31 -6t24.5 -16.5t16 -24.5t5.5 -29q0 -18 -6.5 -33.5 t-17.5 -27t-26 -17.5t-32 -6t-31 6t-24.5 16.5t-16 24.5t-5.5 29z" />
<glyph unicode="&#xec;" horiz-adv-x="549" d="M121 0l180 930q-35 6 -81 10.5t-89 7.5l10 56q28 4 64 7t74.5 5t75.5 2.5t69 -0.5l-180 -928q18 -3 38.5 -6t43 -5.5t45.5 -5t45 -3.5l-10 -56q-29 -4 -65 -7t-74.5 -5t-76.5 -3t-69 1zM205 1440l93 63l188 -264l-72 -49z" />
<glyph unicode="&#xed;" horiz-adv-x="549" d="M121 0l180 930q-35 6 -81 10.5t-89 7.5l10 56q28 4 64 7t74.5 5t75.5 2.5t69 -0.5l-180 -928q18 -3 38.5 -6t43 -5.5t45.5 -5t45 -3.5l-10 -56q-29 -4 -65 -7t-74.5 -5t-76.5 -3t-69 1zM288 1249l262 254l70 -76l-279 -237z" />
<glyph unicode="&#xee;" horiz-adv-x="549" d="M121 0l180 930q-35 6 -81 10.5t-89 7.5l10 56q28 4 64 7t74.5 5t75.5 2.5t69 -0.5l-180 -928q18 -3 38.5 -6t43 -5.5t45.5 -5t45 -3.5l-10 -56q-29 -4 -65 -7t-74.5 -5t-76.5 -3t-69 1zM151 1243l293 260l209 -256l-63 -57l-164 180l-221 -180z" />
<glyph unicode="&#xef;" horiz-adv-x="549" d="M121 0l180 930q-35 6 -81 10.5t-89 7.5l10 56q28 4 64 7t74.5 5t75.5 2.5t69 -0.5l-180 -928q18 -3 38.5 -6t43 -5.5t45.5 -5t45 -3.5l-10 -56q-29 -4 -65 -7t-74.5 -5t-76.5 -3t-69 1zM152 1348q0 18 6.5 33.5t17.5 27t26 17.5t32 6t31 -6t24.5 -16.5t16.5 -24.5t6 -29 q0 -18 -6.5 -33.5t-17.5 -27t-26 -17.5t-32 -6t-31 6t-24.5 16.5t-16.5 24.5t-6 29zM525 1348q0 18 6.5 33.5t17.5 27t26 17.5t32 6t31 -6t24.5 -16.5t16 -24.5t5.5 -29q0 -18 -6.5 -33.5t-17.5 -27t-26 -17.5t-32 -6t-31 6t-24.5 16.5t-16 24.5t-5.5 29z" />
<glyph unicode="&#xf0;" horiz-adv-x="1079" d="M74 346q0 84 16.5 167.5t49 160t80.5 142.5t111 114.5t140.5 76t169.5 27.5q42 0 81.5 -7t72.5 -21.5t58 -38t38 -56.5q-11 42 -25 76t-20 51q-26 62 -53 112t-58 95l-248 -102l-36 76l231 96q-29 35 -63 70t-74 75l108 51q37 -35 72 -73t66 -78l245 100l35 -76l-231 -96 q40 -64 71 -131.5t51.5 -137.5t31 -142.5t10.5 -145.5q0 -90 -15.5 -180.5t-47 -173.5t-79 -154.5t-110.5 -124.5t-142.5 -83.5t-175.5 -30.5q-85 0 -152 22t-113 67t-70.5 113t-24.5 160zM186 375q0 -72 18 -128t51.5 -94.5t83 -58.5t112.5 -20q83 0 147.5 31t113 81.5 t82 115t54 131.5t30 130.5t9.5 112.5q0 61 -16 110.5t-48.5 85t-81.5 55t-114 19.5q-70 0 -129.5 -23.5t-108.5 -64.5t-87 -96.5t-63.5 -118.5t-39 -132t-13.5 -136z" />
<glyph unicode="&#xf1;" horiz-adv-x="1202" d="M121 0l178 928q-34 6 -78.5 11.5t-89.5 8.5l10 56q28 4 64 7t74.5 5t76.5 2.5t70 -0.5q-5 -28 -14 -68.5t-24.5 -98.5t-38 -136t-54.5 -180l4 -3q37 94 88.5 184.5t116.5 161.5t141.5 114.5t163.5 43.5q67 0 114 -23.5t73 -68.5t31 -110.5t-11 -149.5l-115 -594 q35 -6 80 -11.5t88 -8.5l-10 -56q-28 -4 -63.5 -7t-73.5 -5t-75.5 -3t-68.5 1l127 664q28 145 -0.5 212.5t-116.5 67.5q-59 0 -117.5 -36.5t-112 -96.5t-101 -137t-85.5 -158.5t-65 -160.5t-39 -142l-41 -213h-106zM418 1317q37 65 88 100t111 35q48 0 82 -18.5t62.5 -41 t55 -41t60.5 -18.5t67 24.5t64 74.5l61 -50q-37 -65 -89.5 -100t-112.5 -35q-48 0 -81.5 18.5t-60.5 41t-52.5 41t-59.5 18.5t-67.5 -24.5t-68.5 -73.5z" />
<glyph unicode="&#xf2;" horiz-adv-x="1083" d="M76 342q0 97 18.5 186t53 165.5t84.5 139.5t112.5 107.5t137 69t159.5 24.5q92 0 159.5 -26.5t111.5 -74t65.5 -114t21.5 -147.5q0 -158 -48 -285.5t-128 -217t-183 -137.5t-214 -48q-85 0 -150.5 22.5t-109.5 67.5t-67 112t-23 156zM188 365q0 -72 15 -126t47 -91 t82 -55.5t119 -18.5q82 0 160 41t139 117.5t98 185.5t37 246q0 136 -63.5 209t-196.5 73q-97 0 -177.5 -47.5t-138 -128t-89.5 -185.5t-32 -220zM458 1440l93 63l188 -264l-72 -49z" />
<glyph unicode="&#xf3;" horiz-adv-x="1083" d="M76 342q0 97 18.5 186t53 165.5t84.5 139.5t112.5 107.5t137 69t159.5 24.5q92 0 159.5 -26.5t111.5 -74t65.5 -114t21.5 -147.5q0 -158 -48 -285.5t-128 -217t-183 -137.5t-214 -48q-85 0 -150.5 22.5t-109.5 67.5t-67 112t-23 156zM188 365q0 -72 15 -126t47 -91 t82 -55.5t119 -18.5q82 0 160 41t139 117.5t98 185.5t37 246q0 136 -63.5 209t-196.5 73q-97 0 -177.5 -47.5t-138 -128t-89.5 -185.5t-32 -220zM553 1249l262 254l70 -76l-279 -237z" />
<glyph unicode="&#xf4;" horiz-adv-x="1083" d="M76 342q0 97 18.5 186t53 165.5t84.5 139.5t112.5 107.5t137 69t159.5 24.5q92 0 159.5 -26.5t111.5 -74t65.5 -114t21.5 -147.5q0 -158 -48 -285.5t-128 -217t-183 -137.5t-214 -48q-85 0 -150.5 22.5t-109.5 67.5t-67 112t-23 156zM188 365q0 -72 15 -126t47 -91 t82 -55.5t119 -18.5q82 0 160 41t139 117.5t98 185.5t37 246q0 136 -63.5 209t-196.5 73q-97 0 -177.5 -47.5t-138 -128t-89.5 -185.5t-32 -220zM444 1243l293 260l209 -256l-63 -57l-164 180l-221 -180z" />
<glyph unicode="&#xf5;" horiz-adv-x="1083" d="M76 342q0 97 18.5 186t53 165.5t84.5 139.5t112.5 107.5t137 69t159.5 24.5q92 0 159.5 -26.5t111.5 -74t65.5 -114t21.5 -147.5q0 -158 -48 -285.5t-128 -217t-183 -137.5t-214 -48q-85 0 -150.5 22.5t-109.5 67.5t-67 112t-23 156zM188 365q0 -72 15 -126t47 -91 t82 -55.5t119 -18.5q82 0 160 41t139 117.5t98 185.5t37 246q0 136 -63.5 209t-196.5 73q-97 0 -177.5 -47.5t-138 -128t-89.5 -185.5t-32 -220zM392 1317q37 65 88 100t111 35q48 0 82 -18.5t62.5 -41t55 -41t60.5 -18.5t67 24.5t64 74.5l61 -50q-37 -65 -89.5 -100 t-112.5 -35q-48 0 -81.5 18.5t-60.5 41t-52.5 41t-59.5 18.5t-67.5 -24.5t-68.5 -73.5z" />
<glyph unicode="&#xf6;" horiz-adv-x="1083" d="M76 342q0 97 18.5 186t53 165.5t84.5 139.5t112.5 107.5t137 69t159.5 24.5q92 0 159.5 -26.5t111.5 -74t65.5 -114t21.5 -147.5q0 -158 -48 -285.5t-128 -217t-183 -137.5t-214 -48q-85 0 -150.5 22.5t-109.5 67.5t-67 112t-23 156zM188 365q0 -72 15 -126t47 -91 t82 -55.5t119 -18.5q82 0 160 41t139 117.5t98 185.5t37 246q0 136 -63.5 209t-196.5 73q-97 0 -177.5 -47.5t-138 -128t-89.5 -185.5t-32 -220zM462 1348q0 18 6.5 33.5t17.5 27t26 17.5t32 6t31 -6t24.5 -16.5t16.5 -24.5t6 -29q0 -18 -6.5 -33.5t-17.5 -27t-26 -17.5 t-32 -6t-31 6t-24.5 16.5t-16.5 24.5t-6 29zM835 1348q0 18 6.5 33.5t17.5 27t26 17.5t32 6t31 -6t24.5 -16.5t16 -24.5t5.5 -29q0 -18 -6.5 -33.5t-17.5 -27t-26 -17.5t-32 -6t-31 6t-24.5 16.5t-16 24.5t-5.5 29z" />
<glyph unicode="&#xf7;" d="M100 563l19 92h942l-19 -92h-942zM408 195q0 18 6.5 34t18 28t27 19t34.5 7q18 0 34 -7t27.5 -19t18 -28t6.5 -34q0 -19 -6.5 -35t-18 -28t-27.5 -19t-34 -7q-19 0 -34.5 7t-27 19t-18 28t-6.5 35zM569 1022q0 18 6.5 34t18 28t27.5 19t34 7q19 0 34.5 -7t27 -19t18 -28 t6.5 -34t-6.5 -34t-18 -28t-27 -19t-34.5 -7q-18 0 -34 7t-27.5 19t-18 28t-6.5 34z" />
<glyph unicode="&#xf8;" horiz-adv-x="1085" d="M76 342q0 145 41 271.5t115.5 220t179 147t231.5 53.5q29 0 56.5 -3t52.5 -9l110 199l80 -43l-104 -187q82 -43 122.5 -126t40.5 -193q0 -158 -48.5 -285.5t-128.5 -217t-183.5 -137.5t-214.5 -48q-40 0 -75 4.5t-66 15.5l-119 -209l-80 43l117 207q-62 43 -94.5 118 t-32.5 179zM188 365q0 -75 17 -131t51 -93l446 797q-17 5 -35.5 6.5t-39.5 1.5q-97 0 -177.5 -47.5t-138.5 -128t-90.5 -185.5t-32.5 -220zM334 92q49 -18 117 -18q55 0 108.5 18.5t102 53.5t89.5 86t71.5 116.5t47.5 145t17 170.5q0 85 -25 145t-76 94z" />
<glyph unicode="&#xf9;" horiz-adv-x="1202" d="M129 948l10 56q28 4 64 7t73.5 5t74.5 2.5t69 -0.5l-127 -664q-28 -145 0.5 -212.5t116.5 -67.5q59 0 117.5 36.5t112 97t101 138.5t86 161t65.5 164t40 148l20 109q-35 6 -81.5 11.5t-90.5 8.5l11 56q29 4 65 7t74 5t75.5 2.5t69.5 -0.5l-178 -928q34 -6 81.5 -11.5 t90.5 -8.5l-10 -56q-29 -4 -65 -7t-74.5 -5t-77 -3t-72.5 1q5 28 14.5 68.5t25 98.5t38.5 136t55 180l-4 2q-37 -93 -88.5 -183.5t-116 -161.5t-141.5 -114.5t-164 -43.5q-68 0 -114.5 23.5t-72.5 68.5t-31 110.5t11 149.5l113 592q-34 6 -77.5 12.5t-88.5 9.5zM503 1440 l93 63l188 -264l-72 -49z" />
<glyph unicode="&#xfa;" horiz-adv-x="1202" d="M129 948l10 56q28 4 64 7t73.5 5t74.5 2.5t69 -0.5l-127 -664q-28 -145 0.5 -212.5t116.5 -67.5q59 0 117.5 36.5t112 97t101 138.5t86 161t65.5 164t40 148l20 109q-35 6 -81.5 11.5t-90.5 8.5l11 56q29 4 65 7t74 5t75.5 2.5t69.5 -0.5l-178 -928q34 -6 81.5 -11.5 t90.5 -8.5l-10 -56q-29 -4 -65 -7t-74.5 -5t-77 -3t-72.5 1q5 28 14.5 68.5t25 98.5t38.5 136t55 180l-4 2q-37 -93 -88.5 -183.5t-116 -161.5t-141.5 -114.5t-164 -43.5q-68 0 -114.5 23.5t-72.5 68.5t-31 110.5t11 149.5l113 592q-34 6 -77.5 12.5t-88.5 9.5zM659 1249 l262 254l70 -76l-279 -237z" />
<glyph unicode="&#xfb;" horiz-adv-x="1202" d="M129 948l10 56q28 4 64 7t73.5 5t74.5 2.5t69 -0.5l-127 -664q-28 -145 0.5 -212.5t116.5 -67.5q59 0 117.5 36.5t112 97t101 138.5t86 161t65.5 164t40 148l20 109q-35 6 -81.5 11.5t-90.5 8.5l11 56q29 4 65 7t74 5t75.5 2.5t69.5 -0.5l-178 -928q34 -6 81.5 -11.5 t90.5 -8.5l-10 -56q-29 -4 -65 -7t-74.5 -5t-77 -3t-72.5 1q5 28 14.5 68.5t25 98.5t38.5 136t55 180l-4 2q-37 -93 -88.5 -183.5t-116 -161.5t-141.5 -114.5t-164 -43.5q-68 0 -114.5 23.5t-72.5 68.5t-31 110.5t11 149.5l113 592q-34 6 -77.5 12.5t-88.5 9.5zM458 1243 l293 260l209 -256l-63 -57l-164 180l-221 -180z" />
<glyph unicode="&#xfc;" horiz-adv-x="1202" d="M129 948l10 56q28 4 64 7t73.5 5t74.5 2.5t69 -0.5l-127 -664q-28 -145 0.5 -212.5t116.5 -67.5q59 0 117.5 36.5t112 97t101 138.5t86 161t65.5 164t40 148l20 109q-35 6 -81.5 11.5t-90.5 8.5l11 56q29 4 65 7t74 5t75.5 2.5t69.5 -0.5l-178 -928q34 -6 81.5 -11.5 t90.5 -8.5l-10 -56q-29 -4 -65 -7t-74.5 -5t-77 -3t-72.5 1q5 28 14.5 68.5t25 98.5t38.5 136t55 180l-4 2q-37 -93 -88.5 -183.5t-116 -161.5t-141.5 -114.5t-164 -43.5q-68 0 -114.5 23.5t-72.5 68.5t-31 110.5t11 149.5l113 592q-34 6 -77.5 12.5t-88.5 9.5zM459 1348 q0 18 6.5 33.5t17.5 27t26 17.5t32 6t31 -6t24.5 -16.5t16.5 -24.5t6 -29q0 -18 -6.5 -33.5t-17.5 -27t-26 -17.5t-32 -6t-31 6t-24.5 16.5t-16.5 24.5t-6 29zM832 1348q0 18 6.5 33.5t17.5 27t26 17.5t32 6t31 -6t24.5 -16.5t16 -24.5t5.5 -29q0 -18 -6.5 -33.5t-17.5 -27 t-26 -17.5t-32 -6t-31 6t-24.5 16.5t-16 24.5t-5.5 29z" />
<glyph unicode="&#xfd;" horiz-adv-x="1040" d="M-195 -516l21 106q29 -11 62.5 -15.5t68.5 -4.5q59 0 127.5 40t130.5 109q36 41 62 82.5t42.5 88t24.5 100t8 116.5q0 85 -8 182t-23 202t-36.5 215.5t-48.5 222.5q-36 6 -82 11.5t-91 8.5l11 56q29 4 61.5 7t66 5t67 2.5t65.5 -0.5q28 -114 51.5 -233.5t40.5 -233.5 t26 -217t9 -184q0 -38 -5.5 -82t-15.5 -84h2q71 119 136 239t129.5 250.5t129.5 274.5t136 311l98 -35q-61 -145 -125 -285.5t-129.5 -271.5t-132 -250.5t-134 -224t-135 -192.5t-134.5 -154q-42 -41 -85 -73.5t-86 -55.5t-86 -35t-83 -12q-20 0 -38 1t-35 2.5t-32.5 4 t-30.5 6.5zM627 1249l262 254l70 -76l-279 -237z" />
<glyph unicode="&#xfe;" horiz-adv-x="1090" d="M-174 -516l10 55q42 11 88.5 18.5t91.5 10.5l351 1831l2 6q-34 6 -81.5 11.5t-90.5 8.5l10 56q28 4 64.5 7t75 5t76 2.5t69.5 -0.5l-93 -477q-7 -37 -16 -79t-23.5 -99t-36.5 -134t-53 -182l4 -2q40 105 93 198t118 163.5t141.5 111.5t164.5 41q104 0 160.5 -71.5 t56.5 -229.5q0 -91 -15.5 -182t-48.5 -174t-83 -154t-120 -123t-159.5 -82t-200.5 -30q-51 0 -93.5 4t-82.5 10l-82 -436q45 -3 89 -10.5t81 -18.5l-10 -55h-457zM225 106q19 -7 42.5 -12.5t47 -9.5t46 -6t40.5 -2q91 0 163 27.5t127 74t94 109.5t64 134.5t36.5 147 t11.5 148.5q0 61 -9.5 104.5t-26.5 70.5t-41 39.5t-52 12.5q-60 0 -118.5 -36.5t-112.5 -97t-101.5 -138.5t-85.5 -161t-65.5 -164t-40.5 -148z" />
<glyph unicode="&#xff;" horiz-adv-x="1040" d="M-195 -516l21 106q29 -11 62.5 -15.5t68.5 -4.5q59 0 127.5 40t130.5 109q36 41 62 82.5t42.5 88t24.5 100t8 116.5q0 85 -8 182t-23 202t-36.5 215.5t-48.5 222.5q-36 6 -82 11.5t-91 8.5l11 56q29 4 61.5 7t66 5t67 2.5t65.5 -0.5q28 -114 51.5 -233.5t40.5 -233.5 t26 -217t9 -184q0 -38 -5.5 -82t-15.5 -84h2q71 119 136 239t129.5 250.5t129.5 274.5t136 311l98 -35q-61 -145 -125 -285.5t-129.5 -271.5t-132 -250.5t-134 -224t-135 -192.5t-134.5 -154q-42 -41 -85 -73.5t-86 -55.5t-86 -35t-83 -12q-20 0 -38 1t-35 2.5t-32.5 4 t-30.5 6.5zM447 1348q0 18 6.5 33.5t17.5 27t26 17.5t32 6t31 -6t24.5 -16.5t16.5 -24.5t6 -29q0 -18 -6.5 -33.5t-17.5 -27t-26 -17.5t-32 -6t-31 6t-24.5 16.5t-16.5 24.5t-6 29zM820 1348q0 18 6.5 33.5t17.5 27t26 17.5t32 6t31 -6t24.5 -16.5t16 -24.5t5.5 -29 q0 -18 -6.5 -33.5t-17.5 -27t-26 -17.5t-32 -6t-31 6t-24.5 16.5t-16 24.5t-5.5 29z" />
<glyph unicode="&#x152;" horiz-adv-x="1732" d="M109 483q0 126 26.5 243t76 218.5t119.5 185.5t156 143.5t186.5 92.5t211.5 33q55 0 104 -4.5t92 -12.5h650l-56 -288h-65q0 55 0.5 107.5t5.5 92.5h-447l-102 -536h358q14 45 30 86.5t38 79.5h55l-80 -420h-57q-6 37 -6.5 79t2.5 87h-356l-111 -580h457q14 43 35 97.5 t41 107.5h63l-57 -295h-664q-59 -8 -114.5 -12t-112.5 -4q-120 0 -210 33.5t-149.5 97t-89.5 156.5t-30 212zM229 496q0 -95 24 -172.5t71 -132t116 -84t160 -29.5q65 0 123 6t111 18l223 1176q-47 14 -92 21.5t-99 7.5q-91 0 -173 -29t-153 -81.5t-128.5 -127t-98 -164.5 t-62.5 -193.5t-22 -215.5z" />
<glyph unicode="&#x153;" horiz-adv-x="1722" d="M76 342q0 97 18.5 186t53.5 165.5t85.5 139.5t113.5 107.5t138 69t160 24.5q71 0 127 -16.5t98.5 -47t71 -73.5t43.5 -96q34 52 77 95t94 73.5t110 47.5t127 17q67 0 117.5 -16.5t84 -45.5t50 -68.5t16.5 -84.5q0 -73 -39.5 -132t-123 -102.5t-212 -70.5t-305.5 -35 q-2 -14 -4.5 -33t-4.5 -40t-3.5 -42.5t-1.5 -39.5q0 -75 13.5 -122.5t43.5 -75t78 -38t117 -10.5q72 0 143 15.5t131 41.5l10 -90q-68 -29 -148 -45t-179 -16q-69 0 -123.5 12.5t-94.5 40t-65.5 72t-34.5 108.5q-38 -54 -87 -97.5t-105 -73.5t-117 -46t-123 -16 q-85 0 -150.5 22.5t-109.5 67.5t-67 112t-23 156zM188 365q0 -72 15 -126t47 -91t82 -55.5t119 -18.5q82 0 161 41t140.5 117.5t99 185.5t37.5 246q0 136 -63.5 209t-196.5 73q-97 0 -178 -47.5t-139.5 -128t-91 -185.5t-32.5 -220zM1001 578q146 6 249.5 23.5t169 46.5 t96 68.5t30.5 90.5q0 34 -12.5 60.5t-34.5 44.5t-53 27t-68 9q-71 0 -130.5 -28.5t-107.5 -78.5t-83 -117.5t-56 -145.5z" />
<glyph unicode="&#x178;" horiz-adv-x="1159" d="M160 1327l10 55h432l-10 -55q-38 -11 -85.5 -18t-98.5 -11l116 -448q9 -32 17 -63.5t16.5 -63t16 -63t14.5 -62.5h2q21 33 42 66.5t44 70t49.5 78t58.5 90.5l252 395q-38 4 -81 11t-78 18l12 55h422l-11 -55q-30 -8 -69 -15.5t-70 -11.5l-534 -794l-80 -422 q45 -3 88 -10.5t80 -18.5l-10 -55h-457l10 55q40 11 87 18.5t93 10.5l80 422l-223 794q-31 4 -68.5 11.5t-66.5 15.5zM481 1587q0 17 6.5 32t17.5 26t26 17.5t32 6.5t31 -6t24.5 -16.5t16.5 -24.5t6 -31t-6.5 -32t-17.5 -26t-26 -17.5t-32 -6.5t-31 6t-24.5 16.5t-16.5 24.5 t-6 31zM905 1587q0 17 6.5 32t17.5 26t26 17.5t32 6.5t31 -6t24.5 -16.5t16.5 -24.5t6 -31t-6.5 -32t-17.5 -26t-26 -17.5t-32 -6.5t-31 6t-24.5 16.5t-16.5 24.5t-6 31z" />
<glyph unicode="&#x2c6;" horiz-adv-x="883" d="M319 1243l293 260l209 -256l-63 -57l-164 180l-221 -180z" />
<glyph unicode="&#x2dc;" horiz-adv-x="1053" d="M344 1317q37 65 88 100t111 35q48 0 82 -18.5t62.5 -41t55 -41t60.5 -18.5t67 24.5t64 74.5l61 -50q-37 -65 -89.5 -100t-112.5 -35q-48 0 -81.5 18.5t-60.5 41t-52.5 41t-59.5 18.5t-67.5 -24.5t-68.5 -73.5z" />
<glyph unicode="&#x2013;" d="M8 563l19 92h1126l-18 -92h-1127z" />
<glyph unicode="&#x2014;" horiz-adv-x="2048" d="M264 563l19 92h1536l-19 -92h-1536z" />
<glyph unicode="&#x2018;" horiz-adv-x="444" d="M254.5 1148q-7.5 30 0.5 71t36 90t78 103.5t127 111.5l43 -51q-56 -47 -89 -88t-48.5 -76t-15.5 -64t11 -51q10 -19 9 -38.5t-10 -35t-25 -25.5t-37 -10q-30 0 -51 16.5t-28.5 46.5z" />
<glyph unicode="&#x2019;" horiz-adv-x="444" d="M203 1126q55 47 88 88t48.5 76t15.5 64t-11 51q-9 19 -8 38.5t10 35t25 25t37 9.5q29 0 50 -16.5t28.5 -46.5t-0.5 -70.5t-35.5 -89.5t-77.5 -103.5t-127 -111.5z" />
<glyph unicode="&#x201a;" horiz-adv-x="444" d="M-57 -225q55 47 88.5 88t49 76t15.5 63.5t-12 50.5q-9 19 -8.5 38.5t9.5 35t25 25.5t37 10q30 0 51 -16.5t28.5 -46.5t-0.5 -71t-35.5 -89.5t-77.5 -103t-127 -111.5z" />
<glyph unicode="&#x201c;" horiz-adv-x="768" d="M254.5 1148q-7.5 30 0.5 71t36 90t78 103.5t127 111.5l43 -51q-56 -47 -89 -88t-48.5 -76t-15.5 -64t11 -51q9 -19 8 -38.5t-10 -35t-24.5 -25.5t-36.5 -10q-30 0 -51 16.5t-28.5 46.5zM577.5 1164q-3.5 25 3 55t23 65.5t46 74.5t71.5 80.5t100 84.5l43 -51 q-55 -47 -88.5 -88t-49 -76t-15.5 -64t12 -51q9 -19 8 -38.5t-10 -35t-25 -25.5t-37 -10q-22 0 -39.5 9.5t-28 27t-14 42.5z" />
<glyph unicode="&#x201d;" horiz-adv-x="768" d="M203 1126q55 47 88.5 88t49 76t15.5 64t-12 51q-9 19 -8 38.5t10 35t25 25t37 9.5q29 0 50 -16.5t28.5 -46.5t-0.5 -70.5t-35.5 -89.5t-77.5 -103.5t-127 -111.5zM526 1126q55 47 88.5 88t49 76t15.5 64t-11 51q-9 19 -8.5 38.5t9.5 35t25 25t37 9.5q30 0 51 -16.5 t28.5 -46.5t-0.5 -70.5t-36 -89.5t-78 -103.5t-127 -111.5z" />
<glyph unicode="&#x201e;" horiz-adv-x="768" d="M-57 -225q55 47 88.5 88t49 76t15.5 63.5t-12 50.5q-9 19 -8.5 38.5t9.5 35t25 25.5t37 10q30 0 51 -16.5t28.5 -46.5t-0.5 -71t-35.5 -89.5t-77.5 -103t-127 -111.5zM268 -225q55 47 88.5 88t49 76t15.5 63.5t-11 50.5q-9 19 -8.5 38.5t9.5 35t25 25.5t37 10 q30 0 51 -16.5t28.5 -46.5t-0.5 -71t-36 -89.5t-78 -103t-127 -111.5z" />
<glyph unicode="&#x2022;" horiz-adv-x="856" d="M248 598q0 44 16 81t43 64t63 42.5t76 15.5t74.5 -15t59.5 -40t39 -58.5t14 -69.5q0 -44 -16 -81t-43.5 -64t-63.5 -42t-76 -15t-74 15t-59 40t-39 58t-14 69z" />
<glyph unicode="&#x2026;" horiz-adv-x="1221" d="M29 68q0 21 7.5 38t20 29.5t29.5 19.5t35 7t33 -7t25.5 -18t16 -26t5.5 -31q0 -21 -7.5 -38t-20 -29.5t-29.5 -19.5t-35 -7q-19 0 -33.5 7t-25 18t-16 26t-5.5 31zM424 68q0 21 7.5 38t20 29.5t29.5 19.5t35 7t33 -7t25.5 -18t16 -26t5.5 -31q0 -21 -7.5 -38t-20 -29.5 t-29.5 -19.5t-35 -7t-33 7t-25.5 18t-16 26t-5.5 31zM819 68q0 21 7.5 38t20 29.5t29.5 19.5t35 7q19 0 33.5 -7t25 -18t16 -26t5.5 -31q0 -21 -7.5 -38t-20 -29.5t-29.5 -19.5t-35 -7t-33 7t-25.5 18t-16 26t-5.5 31z" />
<glyph unicode="&#x2039;" horiz-adv-x="631" d="M150 612l307 334l71 -61l-264 -281l166 -282l-82 -58z" />
<glyph unicode="&#x203a;" horiz-adv-x="631" d="M139 326l264 280l-165 283l81 57l199 -348l-307 -334z" />
<glyph unicode="&#x20ac;" horiz-adv-x="1192" d="M133 494l15 81h196q3 22 7 45t9 46q6 32 14 64t16 63h-199l15 81h209q41 117 100.5 213.5t140.5 166t184.5 107.5t231.5 38q38 0 77.5 -3.5t78 -10t76.5 -16t74 -21.5l-50 -254h-65q0 40 2.5 84t8.5 88q-50 23 -108 34t-136 11q-100 0 -179 -31.5t-140.5 -89t-107.5 -138 t-78 -178.5h514l-15 -81h-522q-8 -28 -13 -55.5t-11 -55.5q-5 -28 -10.5 -54.5t-8.5 -52.5h522l-15 -81h-512q-6 -93 9.5 -170t55.5 -132t108 -85.5t169 -30.5q38 0 85 5t95.5 14t93.5 22t78 28l11 -90q-40 -17 -92.5 -30t-108.5 -22t-110.5 -14t-97.5 -5q-117 0 -199 34.5 t-132.5 100.5t-70 160.5t-10.5 214.5h-205z" />
<glyph unicode="&#x2122;" horiz-adv-x="1622" d="M231 1169l41 213h500l-41 -213h-55q-2 15 -1.5 34t1.5 39t2 38.5t2 32.5h-125l-82 -432q29 -3 60.5 -9t54.5 -14l-10 -51h-328l8 51q26 8 58 14t63 9l82 432h-123q-4 -15 -9.5 -33.5t-12 -38.5t-13.5 -38.5t-14 -33.5h-58zM696 807l11 51q21 6 46.5 10.5t51.5 8.5 l147 436q-26 3 -48 7.5t-42 10.5l10 51h230l39 -376l4 -105l37 92l194 389h234l-11 -51q-20 -6 -45.5 -10.5t-50.5 -7.5l-16 -436q25 -4 47.5 -8.5t42.5 -10.5l-12 -51h-275l10 51q20 6 44.5 10.5t50.5 8.5l12 284l6 123l-47 -102l-188 -375h-105l-41 379l-8 98l-20 -78 l-113 -329q25 -4 47.5 -8.5t42.5 -10.5l-10 -51h-275z" />
<glyph unicode="&#x25fc;" horiz-adv-x="1070" d="M0 0v1070h1070v-1070h-1070z" />
</font>
</defs>
</svg>
