<?xml version="1.0" standalone="no"?>
<!DOCTYPE svg PUBLIC "-//W3C//DTD SVG 1.1//EN" "http://www.w3.org/Graphics/SVG/1.1/DTD/svg11.dtd" >
<svg xmlns="http://www.w3.org/2000/svg">
<metadata>
Copyright   : Copyright 2014 Luc(as) de Groot. All rights reserved. Published by LucasFonts.com
Designer    : Luc(as) de Groot
Foundry     : LucasFonts
Foundry URL : http://lucasfonts.com
</metadata>
<defs>
<font id="TheSerif_200_" horiz-adv-x="1126" >
<font-face units-per-em="2048" ascent="1516" descent="-532" />
<missing-glyph horiz-adv-x="446" />
<glyph unicode="fi" horiz-adv-x="1225" d="M711 0v55q39 11 85 18.5t93 10.5v848h-527v-848q47 -3 93 -10.5t86 -18.5v-55h-465v55q39 11 85 18.5t93 10.5v848h-242v86h242v53q0 103 27.5 183t82.5 135.5t139.5 84.5t196.5 29q66 0 133 -10t130 -27l-25 -92q-30 9 -62 17t-64.5 13t-64 8t-59.5 3q-85 0 -147 -21.5 t-101.5 -63t-58.5 -101t-19 -135.5v-76h635v-934q47 -3 93 -10.5t86 -18.5v-55h-465z" />
<glyph unicode="fl" horiz-adv-x="1223" d="M711 0v55q39 11 85 18.5t93 10.5v1315q-56 9 -108.5 13.5t-102.5 4.5q-82 0 -141.5 -16.5t-98 -50.5t-57.5 -88t-19 -129v-115h326v-86h-326v-848q47 -3 93 -10.5t86 -18.5v-55h-465v55q39 11 85 18.5t93 10.5v848h-242v86h242v135q0 84 27.5 149t82 110t136.5 68t190 23 q74 0 152 -6.5t155 -17.5v-1395q47 -3 93 -10.5t86 -18.5v-55h-465z" />
<glyph unicode="fb" horiz-adv-x="1823" d="M362 84q47 -3 92.5 -10.5t86.5 -18.5v-55h-465v55q40 11 86 18.5t92 10.5v848h-242v86h242v135q0 84 27 149t81 109.5t135.5 68t190.5 23.5q78 0 156 -6.5t149 -17.5v-533q0 -21 -1 -44.5t-3.5 -48t-6 -47.5t-7.5 -42l4 -2q22 64 58.5 115t83.5 85.5t103.5 53t118.5 18.5 q89 0 159 -30t118.5 -90t74 -150.5t25.5 -210.5q0 -139 -37 -244.5t-104.5 -176t-162.5 -106.5t-210 -36q-50 0 -92.5 2t-80.5 6t-74.5 11t-73.5 16v1374q-27 4 -53.5 7.5t-53 6t-52 3.5t-50.5 1q-163 0 -238.5 -67t-75.5 -217v-115h326v-86h-326v-848zM1606 545 q0 93 -16.5 167.5t-50 126t-85.5 79.5t-123 28q-58 0 -105.5 -21t-85 -56t-65 -81t-46 -96.5t-27.5 -102t-9 -97.5v-386q51 -17 106 -23.5t120 -6.5q88 0 159.5 27t122 84t78 145.5t27.5 212.5z" />
<glyph unicode="fh" horiz-adv-x="1888" d="M1559 0v664q0 67 -10.5 120t-36 89.5t-67.5 55.5t-106 19q-76 0 -139 -34t-108 -95.5t-70 -146t-25 -185.5v-403q47 -3 92.5 -10.5t86.5 -18.5v-55h-465v55q40 11 85.5 18.5t92.5 10.5v1315q-56 9 -108 13.5t-103 4.5q-81 0 -140.5 -16.5t-98.5 -51t-58 -88t-19 -128.5 v-115h326v-86h-326v-848q47 -3 92.5 -10.5t86.5 -18.5v-55h-465v55q40 11 86 18.5t92 10.5v848h-242v86h242v135q0 84 27 149t81.5 109.5t136.5 68t191 23.5q78 0 156.5 -6.5t150.5 -17.5v-508q0 -26 -1 -54t-2.5 -54.5t-5 -50.5t-7.5 -42l4 -2q22 61 58 111t83.5 84.5 t106.5 53.5t127 19q88 0 147 -25.5t94.5 -70t50.5 -104t15 -127.5v-625q47 -3 92.5 -10.5t85.5 -18.5v-55h-286z" />
<glyph unicode="fj" horiz-adv-x="1198" d="M993 -150q0 -101 -15 -173.5t-50.5 -119t-95 -68t-148.5 -21.5q-32 0 -69 4.5t-66 13.5l14 100q29 -11 63.5 -17.5t71.5 -6.5q56 0 92.5 12.5t57.5 45t29 87.5t8 139v1086h-523v-848q47 -3 92.5 -10.5t86.5 -18.5v-55h-465v55q40 11 86 18.5t92 10.5v848h-242v86h242v53 q0 102 27 182t82.5 135.5t139 85t197.5 29.5q66 0 134.5 -10.5t123.5 -26.5l-24 -92q-29 9 -60.5 17t-64 13t-63.5 8t-58 3q-86 0 -147.5 -22t-101.5 -63.5t-58.5 -101t-18.5 -134.5v-76h631v-1168v0z" />
<glyph unicode="fk" horiz-adv-x="1708" d="M1411 0l-414 547v-463q47 -3 92.5 -10.5t86.5 -18.5v-55h-465v55q40 11 85.5 18.5t92.5 10.5v1315q-56 9 -108 13.5t-103 4.5q-81 0 -140.5 -16.5t-98.5 -51t-58 -88t-19 -128.5v-115h326v-86h-326v-848q47 -3 92.5 -10.5t86.5 -18.5v-55h-465v55q40 11 86 18.5t92 10.5 v848h-242v86h242v135q0 84 27 149t81.5 109.5t136.5 68t191 23.5q78 0 156.5 -6.5t150.5 -17.5v-930l357 385q-44 5 -82 11.5t-64 17.5v55h426v-55q-34 -10 -73 -17t-82 -12l-357 -379l367 -467q40 -5 87 -13t95 -18v-57h-260z" />
<glyph unicode=" "  horiz-adv-x="446" />
<glyph unicode="&#x09;" horiz-adv-x="446" />
<glyph unicode="&#xa0;" horiz-adv-x="446" />
<glyph unicode="!" horiz-adv-x="651" d="M389 305h-86l-22 1125h131zM434 74q0 -18 -7 -34t-19 -28t-28 -19t-34 -7t-34 7t-28 19t-19 28t-7 34t7 34t19 28t28 19t34 7t34 -7t28 -19t19 -28t7 -34z" />
<glyph unicode="&#x22;" horiz-adv-x="672" d="M524 1004h-78l-24 421h127zM225 1004h-78l-24 421h127z" />
<glyph unicode="#" horiz-adv-x="1370" d="M918 420l-46 -420h-90l45 420h-346l-45 -420h-90l45 420h-325v74h333l47 450h-325v74h334l39 364h90l-39 -364h346l39 364h90l-39 -364h322v-74h-330l-47 -450h321v-74h-329zM883 944h-346l-48 -450h347z" />
<glyph unicode="$" horiz-adv-x="993" d="M168 369h65q11 -59 18.5 -109.5t12.5 -93.5q45 -11 94.5 -18t90.5 -7q63 0 118.5 13.5t97 43.5t65.5 77.5t24 115.5q0 61 -26.5 103t-69.5 73t-98 55t-112.5 47.5t-112.5 51t-98 66t-69.5 92t-26.5 129.5q0 65 24 121t68 98.5t106 69t138 34.5v246h88v-242 q66 -2 121 -8.5t100 -17.5v-281h-65q-11 57 -18.5 107t-10.5 92q-34 8 -72 12t-75 4q-85 0 -142 -19t-92 -49.5t-50 -70t-15 -80.5q0 -59 26.5 -101t70 -73.5t99 -55.5t113.5 -48t113.5 -52t99 -66t70 -90.5t26.5 -125.5q0 -70 -23 -131t-67.5 -108t-109 -78.5t-148.5 -43.5 v-282h-88v278q-77 0 -139 8t-121 27v287z" />
<glyph unicode="%" horiz-adv-x="1606" d="M719 1090q0 -83 -27 -146.5t-72 -107t-103.5 -66t-121.5 -22.5q-60 0 -113.5 16t-94 52.5t-64 96t-23.5 146.5q0 84 27 148t71.5 106.5t101.5 64t118 21.5q62 0 117 -16t96 -52.5t64.5 -95.5t23.5 -145zM610 1077q0 60 -12.5 104.5t-37.5 74.5t-63 44.5t-89 14.5 q-42 0 -78.5 -17.5t-63.5 -49t-42 -76t-15 -97.5q0 -58 11.5 -103.5t35 -76.5t60 -47.5t87.5 -16.5q47 0 85 17.5t65 49.5t42 77.5t15 101.5zM342 -41l-76 53l957 1411l75 -53zM1473 326q0 -83 -27 -146.5t-72 -107t-103.5 -66t-121.5 -22.5q-60 0 -113.5 16t-94 52.5 t-64 96t-23.5 146.5q0 84 27 148t71 106.5t101.5 64t117.5 21.5q62 0 117 -16t96 -52.5t65 -95.5t24 -145zM1364 313q0 60 -12.5 104.5t-37.5 74.5t-63.5 44.5t-89.5 14.5q-42 0 -78 -17.5t-63 -49t-42 -76t-15 -97.5q0 -58 11.5 -103.5t35 -76.5t60 -47t87.5 -16 q47 0 85 17.5t65 49.5t42 77t15 101z" />
<glyph unicode="&#x26;" horiz-adv-x="1661" d="M1370 0q-68 49 -134.5 100t-121.5 99q-51 -48 -111 -88t-129 -68t-146.5 -43.5t-164.5 -15.5q-101 0 -181.5 29t-136 80.5t-85 124t-29.5 159.5q0 73 23 135t64 117.5t98.5 106.5t125.5 104q-60 70 -100 123t-63.5 97t-33 82.5t-9.5 78.5q0 57 21 108t62 89.5t100.5 61.5 t137.5 23q72 0 126 -19.5t91 -54t55.5 -81t18.5 -99.5q0 -51 -13.5 -99.5t-45 -98t-82 -101t-123.5 -108.5q51 -56 114 -121t132.5 -131.5t142 -131t141.5 -120.5v-2q33 43 61 95t49 112.5t33 129t13 144.5q-47 3 -92.5 10.5t-85.5 18.5v55h467v-55q-41 -11 -86.5 -18.5 t-92.5 -10.5q-6 -159 -55.5 -296.5t-136.5 -244.5q74 -58 139 -107t119 -87q38 -5 74.5 -11t70.5 -16v-55h-221zM739 1233q0 37 -11 70.5t-35 59t-61 40t-89 14.5q-44 0 -80.5 -14t-63 -39.5t-41 -60.5t-14.5 -78q0 -29 9 -60.5t30.5 -69.5t56.5 -85t86 -105q53 42 93 81.5 t66.5 79t40 80.5t13.5 87zM1044 256q-72 61 -147.5 129t-147 137t-135.5 134.5t-114 121.5q-69 -54 -118 -102.5t-80 -95t-45.5 -92.5t-14.5 -95q0 -66 24.5 -124t69.5 -100.5t109 -67.5t143 -25q76 0 143 15t124 40t104 57.5t85 67.5z" />
<glyph unicode="'" horiz-adv-x="373" d="M225 1004h-78l-24 421h127z" />
<glyph unicode="(" horiz-adv-x="614" d="M475 -416q-95 151 -153 287t-89.5 259t-42 235t-10.5 215t13 219.5t46 244t90.5 264.5t147.5 281l74 -43q-133 -221 -199.5 -463t-66.5 -491q0 -133 16 -258t49 -245t83.5 -235t119.5 -227z" />
<glyph unicode=")" horiz-adv-x="614" d="M451 594q0 -103 -13 -220t-46 -244.5t-90.5 -264.5t-147.5 -281l-74 43q133 221 199.5 463.5t66.5 491.5q0 265 -65 502.5t-203 461.5l78 43q95 -151 153 -287t89.5 -259t42 -234.5t10.5 -214.5z" />
<glyph unicode="*" horiz-adv-x="743" d="M590 1024l-197 131l15 -235h-91l15 235l-197 -131l-43 78l213 104l-213 105l45 78l197 -129l-15 235h91l-15 -235l197 129l43 -76l-213 -105l213 -104z" />
<glyph unicode="+" d="M614 563v-440h-102v440h-420v92h420v439h102v-439h420v-92h-420z" />
<glyph unicode="," horiz-adv-x="410" d="M199 162q27 0 48 -15.5t31 -44t7.5 -68t-22.5 -88.5t-60 -106t-103 -119l-51 46q46 50 70.5 93t33 78t4.5 61t-16 42q-10 14 -13.5 28t-2 27.5t8 25.5t16 21t22 14t27.5 5z" />
<glyph unicode="-" horiz-adv-x="668" d="M102 561v92h463v-92h-463z" />
<glyph unicode="&#xad;" horiz-adv-x="668" d="M102 561v92h463v-92h-463z" />
<glyph unicode="." horiz-adv-x="410" d="M293 74q0 -18 -7 -34t-19 -28t-28 -19t-34 -7t-34 7t-28 19t-19 28t-7 34t7 34t19 28t28 19t34 7t34 -7t28 -19t19 -28t7 -34z" />
<glyph unicode="/" horiz-adv-x="846" d="M131 -330h-98l717 1880h98z" />
<glyph unicode="0" horiz-adv-x="1266" d="M1143 547q0 -132 -42.5 -236.5t-115.5 -177t-170 -111t-205 -38.5q-109 0 -199 34t-154 101.5t-99 168t-35 232.5q0 131 42.5 235t115.5 176.5t169.5 111t204.5 38.5q73 0 137.5 -15.5t118.5 -45.5t97 -75t73 -104t46 -133t16 -161zM1030 530q0 95 -22.5 179t-70 146.5 t-121 99t-175.5 36.5q-85 0 -159 -31.5t-128.5 -90.5t-86 -143t-31.5 -189q0 -96 22.5 -180.5t69.5 -147t121 -99t176 -36.5q85 0 159 31.5t128.5 90.5t86 143.5t31.5 190.5z" />
<glyph unicode="1" horiz-adv-x="729" d="M113 0v59q55 11 114.5 18.5t118.5 10.5v873l-254 -109l-22 100l295 115h94v-979q46 -3 94 -10.5t100 -18.5v-59h-540z" />
<glyph unicode="2" horiz-adv-x="989" d="M127 0v86l336 293q53 46 97 89.5t75.5 87.5t49 90.5t17.5 98.5q0 53 -16.5 98t-49 78t-80.5 51.5t-110 18.5q-51 0 -100.5 -11t-91.5 -28q-5 -48 -12 -97.5t-17 -98.5h-63v266q65 26 139.5 42.5t161.5 16.5t153.5 -24.5t111 -67t67 -101t22.5 -126.5q0 -56 -15.5 -107 t-47.5 -102t-82 -104.5t-119 -112.5l-281 -240l-4 -2q32 1 95 2.5t144.5 2t175.5 1t187 0.5v-100h-743z" />
<glyph unicode="3" horiz-adv-x="950" d="M418 1081q99 0 169 -26.5t114 -71t64.5 -103.5t20.5 -124q0 -63 -20.5 -120t-57.5 -104t-87.5 -83t-110.5 -58v-2q67 -12 122.5 -42.5t95.5 -75.5t62.5 -102.5t22.5 -123.5q0 -106 -41.5 -190.5t-114 -143t-171 -90t-212.5 -31.5q-42 0 -83 5t-78 14l14 102 q35 -11 77.5 -17.5t92.5 -6.5q89 0 162.5 23t126 66.5t81.5 106.5t29 142q0 90 -36 152t-102 97.5t-160.5 46.5t-211.5 1v88q105 -1 194.5 20t154 63t101 104.5t36.5 143.5q0 119 -71 184.5t-198 65.5q-45 0 -89 -10.5t-76 -24.5q-5 -48 -12.5 -97.5t-16.5 -98.5h-64v266 q63 26 130 40.5t143 14.5z" />
<glyph unicode="4" horiz-adv-x="1094" d="M801 0v-313q46 -3 92 -10.5t86 -18.5v-55h-465v55q40 11 86 18.5t92 10.5v313h-643l-18 92l622 973h148v-965h264v-100h-264zM692 954h-2l-551 -858q36 1 85.5 1.5t104.5 1t110.5 1t252.5 0.5v854z" />
<glyph unicode="5" horiz-adv-x="965" d="M846 68q0 -69 -19 -131t-54.5 -115t-86 -96t-113 -73t-136.5 -46.5t-156 -16.5q-34 0 -67 2t-69 7l13 106q29 -8 65 -12t70 -4q108 0 189.5 27t136 75t82.5 113.5t28 142.5q0 75 -29 140t-85 114t-138 77t-188 28h-25.5h-23.5h-24.5h-27.5v659h609v-107h-504v-452 q136 0 239.5 -34.5t173.5 -93.5t105 -139t35 -171z" />
<glyph unicode="6" horiz-adv-x="1194" d="M1071 467q0 -105 -33.5 -194t-95 -153t-148 -100t-192.5 -36q-110 0 -192 41t-137 116.5t-82 181t-27 234.5q0 234 54.5 402.5t149 277.5t223 161t275.5 52q7 0 16.5 -0.5t20 -1t20 -1t17.5 -1.5v-96q-22 3 -44.5 4.5t-47.5 1.5q-128 0 -224 -42t-164 -118.5t-110 -182.5 t-61 -233q-3 -18 -6.5 -38.5t-10.5 -55.5l2 -2q50 97 146.5 154t232.5 57q98 0 175.5 -31t131.5 -87t82.5 -135t28.5 -175zM958 442q0 81 -23 146.5t-65.5 112.5t-102.5 72.5t-134 25.5q-86 0 -150 -29.5t-106 -77.5t-63 -108.5t-21 -122.5q0 -74 19.5 -143.5t60 -123.5 t103.5 -87t149 -33q75 0 136.5 28t105 77.5t67.5 117t24 145.5z" />
<glyph unicode="7" horiz-adv-x="940" d="M872 971q-70 -152 -134.5 -313t-123.5 -332t-112 -352t-99 -371h-127q52 200 109.5 385t118 354.5t123.5 324.5t127 296q-13 -1 -56 -2t-101.5 -1.5t-126 -1t-130 -0.5h-112.5h-74q-5 -48 -12.5 -96t-18.5 -102h-66v305h815v-94v0z" />
<glyph unicode="8" horiz-adv-x="1116" d="M973 348q0 -87 -35 -155t-94.5 -114.5t-137.5 -70.5t-165 -24q-102 0 -177 26t-124.5 72t-74 107.5t-24.5 132.5q0 73 27.5 133t72 109.5t101 90.5t115.5 78h-2q-70 41 -124.5 82t-91.5 86.5t-56 96.5t-19 112q0 74 28.5 136.5t81.5 108.5t127.5 71.5t167.5 25.5 q88 0 158 -24t118 -66.5t73.5 -100.5t25.5 -126q0 -56 -17.5 -105t-53.5 -95.5t-92 -91.5t-134 -93q60 -35 118.5 -73.5t104.5 -85.5t74.5 -106.5t28.5 -136.5zM829 1122q0 50 -18 94t-52.5 77t-85 52t-116.5 19t-117.5 -19t-87.5 -52t-54.5 -77.5t-18.5 -95.5t18.5 -93.5 t54.5 -81t88 -74t119 -72.5h2q73 45 124 84.5t83 77t46.5 77t14.5 84.5zM856 322q0 61 -22 110.5t-63 92t-99 81t-129 78.5h-2q-63 -38 -115 -76.5t-89.5 -80.5t-58 -89.5t-20.5 -101.5q0 -59 20.5 -107t59.5 -82.5t94.5 -53.5t126.5 -19q61 0 115 16.5t94.5 48t64 78 t23.5 105.5z" />
<glyph unicode="9" horiz-adv-x="1194" d="M1030 489q0 -233 -55 -402.5t-151.5 -279.5t-227.5 -163.5t-283 -53.5q-20 0 -52 2t-60 7v106q29 -8 63.5 -12t59.5 -4q127 0 222 36.5t164 106t114 170.5t71 229q2 12 4.5 28t5 33.5t4.5 34.5t4 31h-2q-27 -44 -65.5 -79t-86 -59.5t-102.5 -38t-114 -13.5 q-99 0 -177.5 30t-132.5 86t-83 136t-29 180q0 102 33 190t93.5 152.5t146.5 101.5t192 37q97 0 178.5 -34.5t140.5 -106.5t92 -184t33 -267zM901 578q0 91 -21.5 167t-64 130.5t-105 85t-143.5 30.5q-74 0 -134 -28.5t-103 -78t-66.5 -116.5t-23.5 -143q0 -172 85 -264.5 t238 -92.5q76 0 138.5 26t106.5 69t68.5 99t24.5 116z" />
<glyph unicode=":" horiz-adv-x="563" d="M406 692q0 -18 -7 -34t-19 -28t-28 -19t-35 -7q-18 0 -34 7t-28 19t-19 28t-7 34t7 34t19 28t28 19t34 7q19 0 35 -7t28 -19t19 -28t7 -34zM406 74q0 -18 -7 -34t-19 -28t-28 -19t-35 -7q-18 0 -34 7t-28 19t-19 28t-7 34t7 34t19 28t28 19t34 7q19 0 35 -7t28 -19 t19 -28t7 -34z" />
<glyph unicode=";" horiz-adv-x="563" d="M406 692q0 -18 -7 -34t-19 -28t-28 -19t-35 -7q-18 0 -34 7t-28 19t-19 28t-7 34t7 34t19 28t28 19t34 7q19 0 35 -7t28 -19t19 -28t7 -34zM315 162q27 0 48 -15.5t31.5 -44t7.5 -68t-22.5 -88.5t-59.5 -106t-103 -119l-51 46q46 50 70.5 93t33 78t4.5 61t-16 42 q-10 14 -13.5 28t-2 27.5t8 25.5t16 21t22 14t26.5 5z" />
<glyph unicode="&#x3c;" d="M807 66l-643 557l643 559l67 -68l-571 -489l571 -484z" />
<glyph unicode="=" d="M119 717v94h889v-94h-889zM119 408v94h889v-94h-889z" />
<glyph unicode="&#x3e;" d="M319 66l-67 67l571 490l-571 483l67 76l644 -557z" />
<glyph unicode="?" horiz-adv-x="901" d="M752 1065q0 -60 -17 -108.5t-45 -87t-66.5 -77.5t-76.5 -77t-65.5 -76t-45 -86t-17 -109.5t22.5 -138.5h-106q-23 76 -24 139t15 113.5t43 91.5t47 63.5t73.5 78.5t80.5 91.5t43.5 78t16.5 92.5q0 55 -30.5 105t-87 89t-135.5 63.5t-173 28.5l14 101q115 -6 213.5 -37 t170 -82.5t110.5 -117.5t39 -138zM477 74q0 -18 -6.5 -34t-19 -28.5t-28.5 -19t-34 -6.5t-34 6.5t-28.5 19t-19 28.5t-6.5 34t6.5 34t19 28.5t28.5 19t34 6.5t34 -6.5t28.5 -19t19 -28.5t6.5 -34z" />
<glyph unicode="@" horiz-adv-x="2019" d="M1815 817q0 -129 -33.5 -232.5t-93 -175t-138 -108.5t-166.5 -37q-66 0 -113 20.5t-74 56t-36.5 79.5t-3.5 92h-4q-15 -46 -42 -90t-65.5 -79.5t-88.5 -57t-107 -21.5q-51 0 -91.5 18t-69 52t-43.5 83.5t-15 112.5q0 111 28.5 209.5t86 174t142.5 118.5t195 43 q46 0 91.5 -3t81 -6.5t55.5 -6.5t28 -4l-84 -441q-13 -67 -9 -116.5t23.5 -81.5t52.5 -47t79 -15q66 0 122.5 31t98.5 90.5t65 145t23 190.5q0 115 -36.5 220.5t-114.5 191t-201 135t-289 49.5q-107 0 -206.5 -28t-186.5 -80.5t-157.5 -126t-121 -165.5t-77.5 -198t-27 -221 q0 -154 45.5 -280.5t133.5 -216.5t215 -138.5t286 -48.5q84 0 168 11t166 34l14 -88q-42 -11 -87.5 -20t-92.5 -15t-92.5 -9t-87.5 -3q-177 0 -321 53.5t-245.5 153.5t-155 240t-53.5 310q0 133 32 254.5t92 225t142 185.5t182 140t212.5 88.5t230.5 30.5q122 0 226 -25.5 t186.5 -72t143.5 -110t101.5 -139.5t60.5 -159.5t20 -171.5zM1212 971q-15 4 -54 9t-93 5q-55 0 -101.5 -18.5t-82.5 -51.5t-62 -75.5t-43 -91t-25 -98.5t-8 -97q0 -96 31.5 -146.5t97.5 -50.5q46 0 92.5 32t88.5 95t77 156t58 211z" />
<glyph unicode="A" horiz-adv-x="1403" d="M948 0v55q40 11 86 18.5t92 10.5l-102 278h-653l-103 -278q47 -3 92.5 -10.5t85.5 -18.5v-55h-436v55q28 8 68.5 16t71.5 11l495 1300h117l491 -1300q31 -3 71.5 -11t68.5 -16v-55h-445zM762 1077q-19 51 -34.5 94.5t-29.5 90.5h-2q-14 -44 -29 -89.5t-32 -93.5 l-232 -626h588z" />
<glyph unicode="B" horiz-adv-x="1188" d="M1063 401q0 -33 -7 -76t-27 -88t-55.5 -88.5t-93 -78t-139 -55.5t-192.5 -21q-31 0 -69 1t-78 2t-80.5 2t-75.5 1h-178v55q40 11 85.5 18.5t92.5 10.5v1214q-47 4 -92.5 11t-85.5 18v55h178q31 0 65 0.5t74 1.5t88.5 1.5t110.5 0.5q111 0 190.5 -23t131 -65.5t76 -101.5 t24.5 -131q0 -59 -16 -111.5t-48 -96t-79.5 -76.5t-110.5 -52v-2q84 -11 143 -42t96.5 -75.5t54.5 -98.5t17 -110zM893 1047q0 54 -14.5 99.5t-51.5 79.5t-101 53t-163 19q-28 0 -54.5 -0.5t-52 -1t-50.5 -1t-50 -1.5v-532q35 -2 67.5 -2h76.5q101 0 175 19t122.5 56t72 90 t23.5 122zM948 395q0 83 -35 137t-96 85.5t-143 44t-176 12.5h-28.5h-39t-40.5 -0.5t-34 -1.5v-576q31 -5 81.5 -8.5t125.5 -3.5q103 0 176 24t119.5 65.5t68 98.5t21.5 123z" />
<glyph unicode="C" horiz-adv-x="1229" d="M1128 72q-41 -18 -87 -34t-97 -28t-105.5 -19t-111.5 -7q-151 0 -267.5 46.5t-195.5 134.5t-119.5 214.5t-40.5 286.5q0 153 39 286.5t120 232.5t205 156.5t294 57.5q91 0 175 -12.5t163 -32.5v-279h-66q-11 56 -17 105t-11 94q-70 18 -135 26.5t-130 8.5 q-138 0 -237 -50.5t-162 -136.5t-93 -199.5t-30 -238.5q0 -140 33.5 -252t100.5 -191t166 -121t231 -42q48 0 96.5 6t93.5 16.5t86 25t76 32.5l26 -86v0z" />
<glyph unicode="D" horiz-adv-x="1452" d="M1341 700q0 -178 -58 -310.5t-162 -220.5t-247.5 -131.5t-314.5 -43.5q-51 0 -94 1t-81 2t-72 2t-66 1h-178v55q40 11 85.5 18.5t92.5 10.5v1214q-47 4 -92.5 11t-85.5 18v55h178q40 0 85.5 1t94.5 2.5t99.5 2.5t99.5 1q172 0 305 -42.5t224.5 -128t139 -215t47.5 -303.5 zM1227 694q0 153 -40.5 267t-119 189t-194 112.5t-265.5 37.5q-32 0 -66.5 -0.5t-68 -1.5t-64 -2t-53.5 -2v-1196q25 -3 54 -5.5t58.5 -4.5t58 -3t51.5 -1q146 0 265.5 36t205 111t132 190t46.5 273z" />
<glyph unicode="E" horiz-adv-x="1075" d="M68 0v55q40 11 85.5 18.5t92.5 10.5v1214q-47 4 -92.5 11t-85.5 18v55h845v-288h-65q-11 55 -20.5 107.5t-12.5 92.5h-459v-536h363q6 45 15 86.5t20 79.5h59v-420h-59q-13 37 -21.5 80.5t-13.5 85.5h-363v-580h461q5 43 14.5 97t20.5 108h66v-295h-850z" />
<glyph unicode="F" horiz-adv-x="1008" d="M852 1094q-11 57 -19.5 106t-13.5 94h-463v-546h373q6 45 15 86.5t20 78.5h59v-419h-59q-11 37 -20 78.5t-15 86.5h-373v-575q47 -3 92.5 -10.5t86.5 -18.5v-55h-467v55q40 11 85.5 18.5t92.5 10.5v1214q-47 4 -92.5 11t-85.5 18v55h850v-288h-66z" />
<glyph unicode="G" horiz-adv-x="1440" d="M1372 629q-35 -10 -74 -17t-79 -12v-543q-53 -18 -109 -32t-112.5 -23t-112.5 -13.5t-107 -4.5q-150 0 -274 45.5t-213.5 133t-139 215t-49.5 290.5q0 155 46.5 288.5t136.5 232t222.5 154.5t305.5 56q99 0 190 -13t181 -36v-279h-66q-11 56 -17 105t-11 94 q-73 18 -147.5 28.5t-145.5 10.5q-117 0 -222.5 -37t-185 -113.5t-126 -193.5t-46.5 -277q0 -148 43 -262t120.5 -192t184 -118t234.5 -40q88 0 163 12t146 35v477q-46 3 -92 10.5t-86 18.5v55h442v-55v0z" />
<glyph unicode="H" horiz-adv-x="1534" d="M999 0v55q41 11 86.5 18.5t92.5 10.5v590h-822v-590q47 -3 92.5 -10.5t86.5 -18.5v-55h-467v55q40 11 85.5 18.5t92.5 10.5v1214q-47 4 -92.5 11t-85.5 18v55h467v-55q-41 -11 -86.5 -18t-92.5 -11v-534h822v534q-47 4 -92.5 11t-86.5 18v55h467v-55q-40 -11 -85.5 -18 t-92.5 -11v-1214q47 -3 92.5 -10.5t85.5 -18.5v-55h-467z" />
<glyph unicode="I" horiz-adv-x="602" d="M68 0v55q40 11 85.5 18.5t92.5 10.5v1214q-47 4 -92.5 11t-85.5 18v55h467v-55q-41 -11 -86.5 -18t-92.5 -11v-1214q47 -3 92.5 -10.5t86.5 -18.5v-55h-467z" />
<glyph unicode="J" horiz-adv-x="680" d="M612 1327q-71 -18 -153 -29v-962q0 -58 -8 -107t-24.5 -87.5t-42.5 -67.5t-61.5 -48t-81.5 -28.5t-102 -9.5q-17 0 -35 1.5t-36 3.5t-34.5 5t-31.5 6v105q32 -11 74.5 -19t81.5 -8q46 0 81.5 11t59.5 40.5t36.5 81.5t12.5 133v950q-46 4 -92 11t-86 18v55h442v-55v0z" />
<glyph unicode="K" horiz-adv-x="1305" d="M786 0v55q36 10 75 17t79 10l-584 625v-623q38 -3 84 -10.5t86 -18.5v-55h-458v55q40 11 85.5 18.5t92.5 10.5v1214q-47 4 -92.5 11t-85.5 18v55h458v-55q-40 -11 -86 -18t-84 -11v-591l574 591q-44 4 -90 11t-84 18v55h467v-55q-35 -9 -76.5 -16.5t-81.5 -12.5 l-580 -583l609 -631q42 -3 83 -11t76 -18v-55h-467z" />
<glyph unicode="L" horiz-adv-x="922" d="M68 0v55q41 11 86 18t92 11v1214q-47 5 -92 12t-86 17v55h467v-55q-41 -10 -86.5 -17t-92.5 -12v-1208h441q4 43 14 97.5t20 107.5h66v-295h-829z" />
<glyph unicode="M" horiz-adv-x="1884" d="M1427 0v55q41 11 86.5 18.5t92.5 10.5l-121 848q-19 128 -30.5 214.5t-16.5 137.5h-4q-10 -34 -24.5 -85.5t-39.5 -119.5l-389 -1079h-100l-369 1014q-28 78 -48.5 144.5t-37.5 125.5h-2q-2 -39 -6 -80t-9 -86t-10.5 -94t-11.5 -104l-98 -836q46 -3 92 -10.5t86 -18.5 v-55h-436v55q14 4 32 8t37 8t38 6.5t34 4.5l168 1216q-46 4 -92 11t-86 18v55h336l356 -985q10 -27 21 -61t22 -69t20.5 -68.5t16.5 -61.5h2q17 63 35 121t41 121l358 1003h350v-55q-40 -11 -85.5 -18t-92.5 -11l176 -1216q31 -3 71.5 -11t68.5 -16v-55h-431z" />
<glyph unicode="N" horiz-adv-x="1524" d="M1456 1327q-40 -10 -78 -18t-75 -13v-1296h-150l-510 797q-41 64 -81.5 128.5t-80.5 128.5t-76 123.5t-63 106.5q4 -95 7 -224.5t4.5 -282.5t2 -321t0.5 -370q45 -3 90.5 -11t88.5 -20v-55h-467v55q42 12 87.5 20t90.5 11v1212q-47 4 -93 11.5t-85 17.5v55h331l506 -790 q40 -63 81 -127.5t81 -129t76 -124t63 -107.5q-4 93 -7 221.5t-4.5 280.5t-2 320t-0.5 370q-43 3 -88.5 11t-89.5 20v55h442v-55z" />
<glyph unicode="O" horiz-adv-x="1446" d="M1343 705q0 -171 -49 -306t-136.5 -227.5t-203.5 -140t-247 -47.5q-146 0 -259.5 49.5t-190.5 141.5t-116 219.5t-39 283.5q0 171 49 306t137 227.5t203.5 140t247.5 47.5q146 0 259.5 -49.5t190 -141.5t115.5 -219.5t39 -283.5zM1229 680q0 139 -32 254t-96 198.5 t-159 129t-219 45.5q-105 0 -197 -39.5t-161.5 -116.5t-108.5 -190t-39 -256q0 -139 32 -254.5t96 -199.5t159 -129.5t219 -45.5q105 0 197 39.5t161.5 116.5t108.5 190.5t39 257.5z" />
<glyph unicode="P" horiz-adv-x="1139" d="M1077 971q0 -105 -40 -191t-111.5 -148t-170.5 -96t-216 -34q-57 0 -104.5 3.5t-78.5 6.5v-428q47 -3 92.5 -10.5t86.5 -18.5v-55h-467v55q40 11 85.5 18.5t92.5 10.5v1214q-47 4 -92.5 11t-85.5 18v55h178q23 0 61 1t83 2.5t91.5 2.5t87.5 1q141 0 238 -36t157 -95 t86.5 -134t26.5 -153zM963 950q0 64 -20 126.5t-68 112t-128 79.5t-200 30q-53 0 -103 -0.5t-88 -3.5v-688q32 -5 83.5 -9.5t113.5 -4.5q107 0 184.5 29t127.5 78.5t74 114.5t24 136z" />
<glyph unicode="Q" horiz-adv-x="1444" d="M1448 -137q-85 -9 -148 -4t-114 18.5t-96 32t-93.5 35t-106.5 28t-136 11.5h-47q-149 0 -262 50t-189 141.5t-115 219.5t-39 283q0 175 50.5 309.5t137.5 226t202.5 138.5t246.5 47q148 0 261 -50.5t189.5 -142t115 -219t38.5 -282.5q0 -115 -25 -219.5t-74 -191.5 t-123 -153.5t-171 -103.5q35 1 69 -6t69.5 -17.5t73 -22t81 -20t94 -12t111.5 3.5v-100zM1229 680q0 138 -32 253t-95 198t-158 129.5t-221 46.5q-105 0 -197 -39t-160.5 -115.5t-108.5 -188.5t-40 -259q0 -138 32 -254t95 -199t158 -129.5t221 -46.5q104 0 196 39 t161 115.5t109 189.5t40 260z" />
<glyph unicode="R" horiz-adv-x="1198" d="M895 0l-420 657h-119v-573q47 -3 92.5 -10.5t86.5 -18.5v-55h-467v55q40 11 85.5 18.5t92.5 10.5v1214q-47 4 -92.5 11t-85.5 18v55h157q14 0 34.5 0.5t45.5 1.5t54.5 1.5t62 1.5t66.5 1.5t69 0.5q100 0 184.5 -17t146.5 -57t97 -105.5t35 -162.5q0 -92 -33.5 -161.5 t-92 -117.5t-136.5 -75.5t-168 -33.5q28 -34 57 -75t53 -78l273 -418q40 -5 85.5 -12.5t96.5 -18.5v-57h-260zM905 1026q0 78 -24.5 131t-73 84.5t-121 45t-168.5 13.5q-18 0 -38.5 -0.5t-42.5 -1t-42.5 -2t-38.5 -2.5v-549h187q90 0 158 19.5t113.5 56.5t68 88.5 t22.5 116.5z" />
<glyph unicode="S" horiz-adv-x="1036" d="M907 360q0 -85 -31 -154.5t-89.5 -119t-142 -76t-187.5 -26.5q-111 0 -196 13t-120 21v291h66q5 -25 14.5 -81t16.5 -119q27 -8 90.5 -20.5t144.5 -12.5q75 0 134.5 17.5t101.5 52.5t64 87t22 119q0 65 -27 114t-72 84t-91.5 58t-132 62t-140 69.5t-100 73t-72.5 102 t-27 138.5q0 78 30 142t88 109.5t141 70t186 24.5q82 0 153.5 -10t102.5 -17v-280h-66q-5 25 -14 80.5t-15 117.5q-22 5 -72 12t-106 7q-74 0 -132.5 -15.5t-100 -47t-63 -78t-21.5 -107.5q0 -63 27 -111t72 -82t89 -56t132 -61.5t142.5 -70.5t100.5 -74.5t73 -104.5 t27 -141z" />
<glyph unicode="T" horiz-adv-x="1098" d="M991 1083q-5 33 -17.5 107t-15.5 104h-354v-1210q47 -3 93 -10.5t85 -18.5v-55h-467v55q40 11 86 18.5t93 10.5v1210h-355q-3 -36 -10 -80t-23 -131h-65v299h1016v-299h-66z" />
<glyph unicode="U" horiz-adv-x="1475" d="M1407 1327q-72 -18 -154 -29v-778q0 -130 -33 -230t-99.5 -168t-166.5 -103t-233 -35q-103 0 -182 18.5t-134.5 51.5t-91.5 77t-56 95.5t-28 107t-8 117.5v847q-82 11 -153 29v55h442v-55q-39 -10 -85 -17.5t-93 -11.5v-833q0 -85 17.5 -154t61.5 -122.5t123 -84 t197 -30.5q106 0 182.5 23.5t128 74.5t77.5 134t26 202v790q-47 4 -93 11.5t-85 17.5v55h440v-55z" />
<glyph unicode="V" horiz-adv-x="1384" d="M1374 1327q-28 -8 -68.5 -15.5t-70.5 -11.5l-494 -1300h-116l-475 1300q-31 4 -71.5 11.5t-68.5 15.5v55h447v-55q-40 -10 -86 -17.5t-92 -11.5l307 -882q27 -78 54 -158t46 -145h2q10 36 22.5 74.5t26 76.5t28.5 79.5t30 82.5l321 872q-47 4 -93 11.5t-85 17.5v55h436 v-55z" />
<glyph unicode="W" horiz-adv-x="2007" d="M1995 1327q-28 -8 -68.5 -15.5t-71.5 -11.5l-339 -1300h-142l-321 1051q-16 55 -29.5 104t-22.5 90h-2q-9 -48 -21.5 -97.5t-27.5 -100.5l-311 -1047h-143l-344 1300q-31 4 -71.5 11.5t-68.5 15.5v55h437v-55q-40 -10 -86 -17.5t-93 -11.5l244 -950q10 -36 18 -68t15 -63 t13.5 -61.5t12.5 -61.5h2q8 37 14 66t13 59.5t15 60t16 56.5l319 1046h105l336 -1065q16 -55 30.5 -113.5t24.5 -109.5h2q8 44 17 83t26 106l254 1015q-47 4 -93 11.5t-85 17.5v55h426v-55z" />
<glyph unicode="X" horiz-adv-x="1325" d="M838 0v55q40 11 84.5 18.5t91.5 10.5l-357 549l-348 -549q44 -3 92 -10.5t88 -18.5v-55h-466v55q37 10 77.5 17t83.5 10l418 627l-393 591q-42 4 -81.5 11t-74.5 16v55h467v-55q-40 -11 -87 -18t-95 -11l328 -499l321 499q-48 4 -94 11t-86 18v55h467v-55 q-37 -9 -79 -16.5t-85 -12.5l-387 -577l428 -639q40 -3 80 -10t74 -17v-55h-467z" />
<glyph unicode="Y" horiz-adv-x="1184" d="M1174 1327q-28 -8 -68.5 -15.5t-71.5 -11.5l-391 -794v-422q47 -3 93 -10.5t85 -18.5v-55h-467v55q40 11 86 18.5t92 10.5v422l-382 794q-31 4 -71.5 11.5t-68.5 15.5v55h443v-55q-40 -10 -86 -17.5t-93 -11.5l205 -448q20 -42 32.5 -70t26.5 -59l28 -62t26 -61h2 q12 31 27 64.5t30 65.5t39 82t29 60l199 428q-47 4 -93 11.5t-86 17.5v55h435v-55z" />
<glyph unicode="Z" horiz-adv-x="1108" d="M96 0v76l660 1011q42 64 72.5 109.5t64.5 91.5q-74 -2 -163 -3t-191 -1h-324q-3 -39 -10.5 -88t-18.5 -109h-65v295h889v-75l-695 -1065q-21 -35 -42 -66t-56 -82q18 2 54 3.5t85 2t103.5 0.5h146.5h314q4 42 11.5 91.5t18.5 109.5h66v-301h-920z" />
<glyph unicode="[" horiz-adv-x="647" d="M205 -395v1964h360v-80h-260v-1802h260v-82h-360z" />
<glyph unicode="\" horiz-adv-x="829" d="M750 -330l-717 1880h98l717 -1880h-98z" />
<glyph unicode="]" horiz-adv-x="647" d="M82 -395v82h260v1802h-260v80h360v-1964h-360z" />
<glyph unicode="^" d="M858 715l-321 577l-308 -577l-79 43l342 624h96l356 -622z" />
<glyph unicode="_" d="M0 -516v84h1126v-84h-1126z" />
<glyph unicode="`" horiz-adv-x="717" d="M461 1190l-246 244l80 69l227 -258z" />
<glyph unicode="a" horiz-adv-x="1077" d="M1032 14q-10 -1 -34.5 -4t-65.5 -6t-91 -4.5t-96 0.5q-1 92 4 151t9 80l-4 2q-19 -52 -53 -97t-81 -79.5t-105.5 -53.5t-123.5 -19q-62 0 -113.5 17.5t-88 51.5t-56.5 83.5t-20 111.5q0 80 44 142.5t126.5 104.5t199.5 63.5t262 21.5v92q0 68 -12.5 118t-41 85t-76.5 53 t-117 18q-78 0 -141 -13t-89 -22q-5 -55 -14 -111t-14 -83h-64v258q37 15 128 37t210 22q96 0 162 -24.5t105 -69t56 -105.5t17 -139v-606q22 -3 72 -9.5t106 -10.5v-56zM745 492q-129 0 -226.5 -14t-162.5 -42.5t-98 -72t-33 -101.5q0 -40 12.5 -74t36.5 -59t60 -39t82 -14 q71 0 132 33.5t105 91t68 129.5t24 145v17z" />
<glyph unicode="b" horiz-adv-x="1143" d="M1040 553q0 -137 -36.5 -243t-104.5 -177t-162.5 -107t-210.5 -36q-50 0 -92.5 2t-80.5 6t-74 10.5t-74 16.5v1380q-37 6 -85.5 11.5t-92.5 8.5v56q28 4 64.5 7t75.5 5t77 2.5t69 -0.5v-549q0 -21 -1 -45t-3.5 -48.5t-6 -47t-7.5 -41.5l4 -2q22 64 58 114.5t84 86 t104.5 53.5t118.5 18q89 0 159 -30t118.5 -90.5t73.5 -151t25 -209.5zM926 545q0 94 -16.5 168t-50.5 126t-86 79.5t-122 27.5q-56 0 -103.5 -20t-85.5 -55.5t-66 -81t-46.5 -96.5t-27.5 -102.5t-9 -98.5v-386q49 -16 104 -23t122 -7q90 0 161 27.5t121.5 84.5t77.5 146 t27 211z" />
<glyph unicode="c" horiz-adv-x="913" d="M852 49q-26 -11 -60.5 -22t-76 -20t-87 -14t-91.5 -5q-57 0 -109 8.5t-101 29t-90.5 56.5t-72.5 90.5t-48.5 131t-17.5 175.5q0 126 31 227.5t92 174t151 111t206 38.5q65 0 132 -10t121 -27v-266h-63q-6 25 -16 80.5t-15 114.5q-20 6 -69 14t-109 8q-84 0 -149 -32.5 t-109 -91.5t-66 -139t-22 -175t15.5 -171t53.5 -133.5t105 -89.5t166 -32q68 0 142 16t132 41z" />
<glyph unicode="d" horiz-adv-x="1161" d="M1112 14q-29 -4 -65 -7t-75.5 -5t-79 -3t-73.5 1q0 25 1 57.5t3.5 65.5t6.5 64.5t10 56.5l-4 2q-22 -60 -57.5 -108.5t-82.5 -82.5t-103 -52.5t-118 -18.5q-95 0 -166 33t-118 95.5t-70 151.5t-23 201q0 139 37 244.5t104.5 176t162.5 106.5t210 36q51 0 102 -3t111 -9 v389q-37 6 -85 11.5t-93 8.5v56q28 4 64.5 7t75 5t77 2.5t70.5 -0.5v-1405q37 -6 85 -11.5t93 -8.5v-56zM825 915q-58 14 -114.5 20.5t-110.5 6.5q-88 0 -159.5 -27t-122 -84t-78 -145.5t-27.5 -212.5q0 -93 16.5 -167.5t50 -126t85 -79.5t122.5 -28q58 0 105.5 21t85 56 t65.5 81t46 96.5t27 102t9 97.5v389z" />
<glyph unicode="e" horiz-adv-x="1026" d="M918 627q0 -17 -0.5 -33t-1 -28.5t-1 -19t-0.5 -9.5h-702q-2 -119 19.5 -206t66.5 -143t113 -83t159 -27q74 0 147 13.5t148 41.5l21 -88q-84 -29 -165.5 -45t-166.5 -16q-113 0 -198 31.5t-143 96t-87 163t-29 231.5q0 113 29.5 210t86 168.5t137.5 110.5t181 39 t174 -32t120.5 -88.5t69 -129.5t22.5 -157zM801 623q1 76 -17 136t-54.5 102t-88.5 63.5t-117 21.5q-59 0 -110 -21t-91.5 -62t-67 -101.5t-36.5 -138.5h582z" />
<glyph unicode="f" horiz-adv-x="707" d="M784 1391q-41 12 -84.5 18t-87.5 6q-130 0 -190 -79t-60 -246v-72h326v-86h-326v-848q47 -3 93 -10.5t86 -18.5v-55h-465v55q39 11 85 18.5t93 10.5v848h-242v86h242v67q0 106 26 185t74.5 131t118 77t156.5 25q44 0 84.5 -4.5t83.5 -13.5z" />
<glyph unicode="g" horiz-adv-x="1081" d="M1032 -164q0 -80 -38.5 -147.5t-107.5 -116.5t-164 -76.5t-208 -27.5q-95 0 -172 20.5t-132.5 59.5t-85.5 96t-30 129q0 50 14.5 93t40 79.5t59 66t71.5 51.5q-48 19 -75.5 58.5t-27.5 89.5q0 24 7 47.5t21 44t33.5 38.5t45.5 32q-72 43 -111 112.5t-39 171.5 q0 75 28 143.5t81.5 120.5t131 82.5t175.5 30.5q35 0 61.5 -4t61.5 -12h346v-86h-199q53 -40 83 -103.5t30 -142.5q0 -76 -26 -144t-78.5 -119t-131.5 -80.5t-186 -29.5q-40 0 -72.5 5t-64.5 16q-42 -19 -63 -47.5t-21 -59.5q0 -24 12 -41.5t36 -28.5t60 -17t84 -7l213 -8 q83 -3 146 -24.5t106 -59t64.5 -89.5t21.5 -116zM817 672q0 128 -71.5 201t-204.5 73q-70 0 -124.5 -21.5t-92 -58.5t-57 -87.5t-19.5 -108.5q0 -130 73 -199.5t209 -69.5q66 0 119.5 18t90.5 53t57 85t20 115zM918 -178q0 46 -15.5 82t-47 61.5t-79.5 40t-112 17.5l-220 8 h-36.5t-34.5 2q-76 -50 -121 -111t-45 -133q0 -55 25 -97.5t69.5 -72t104.5 -44.5t129 -15q92 0 163.5 19.5t120 54.5t74 83t25.5 105z" />
<glyph unicode="h" horiz-adv-x="1227" d="M895 0v662q0 70 -10.5 122t-35.5 88.5t-67.5 55t-105.5 18.5q-75 0 -138 -33.5t-109 -96t-70.5 -147t-24.5 -184.5v-401q60 -4 109 -13.5t69 -15.5v-55h-465v55q39 11 85 18.5t93 10.5v1321q-37 6 -85.5 11.5t-92.5 8.5v56q29 4 65.5 7t75.5 5t77 2.5t69 -0.5v-526 q0 -28 -1 -55.5t-3 -54t-5 -50t-8 -41.5l5 -2q22 62 57.5 111.5t83.5 84.5t107 53.5t126 18.5q86 0 146 -24.5t95.5 -69t51 -103t15.5 -130.5v-623q46 -3 91 -10.5t85 -18.5v-55h-285z" />
<glyph unicode="i" horiz-adv-x="580" d="M383 1352q0 -17 -6.5 -31.5t-18 -26t-26 -18t-31.5 -6.5t-32 6t-26 17.5t-17.5 26.5t-6.5 32t6.5 31.5t18 26t26 18t31.5 6.5t32 -6t26 -17.5t17.5 -26.5t6.5 -32zM68 0v55q21 6 69.5 15.5t108.5 13.5v844q-37 6 -85.5 11.5t-92.5 8.5v56q28 4 64.5 7t75.5 5t77 2.5 t69 -0.5v-934q47 -3 93 -10.5t85 -18.5v-55h-464z" />
<glyph unicode="j" horiz-adv-x="541" d="M365 1352q0 -17 -6.5 -31.5t-18 -26t-26 -18t-31.5 -6.5t-32 6t-26 17.5t-17.5 26.5t-6.5 32t6.5 31.5t18 26t26 18t31.5 6.5t32 -6t26 -17.5t17.5 -26.5t6.5 -32zM336 -150q0 -104 -15.5 -175.5t-50.5 -117t-94.5 -67.5t-148.5 -22q-32 0 -70 4t-66 10l15 100 q29 -9 66 -14.5t69 -5.5q58 0 93 13t55.5 44.5t29 85.5t8.5 141v1082q-38 6 -86 11.5t-92 8.5v56q29 4 65.5 7t75.5 5t77 2.5t69 -0.5v-1168z" />
<glyph unicode="k" horiz-adv-x="1044" d="M748 0l-414 547v-463q46 -3 92 -10.5t86 -18.5v-55h-465v55q40 11 86 18.5t92 10.5v1321q-37 6 -85 11.5t-93 8.5v56q28 4 64.5 7t75 5t77 2.5t70.5 -0.5v-946l356 385q-43 5 -81 11.5t-64 17.5v55h426v-55q-34 -10 -73.5 -17t-82.5 -12l-356 -379l366 -467q41 -5 88 -13 t95 -18v-57h-260z" />
<glyph unicode="l" horiz-adv-x="559" d="M47 0v55q40 11 86 18.5t92 10.5v1321q-37 6 -85 11.5t-93 8.5v56q28 4 64.5 7t75 5t77 2.5t70.5 -0.5v-1411q46 -3 92 -10.5t86 -18.5v-55h-465z" />
<glyph unicode="m" horiz-adv-x="1882" d="M1552 0v662q0 69 -9.5 120t-33 88t-64.5 56.5t-102 19.5q-66 0 -126.5 -31.5t-107.5 -92.5t-74 -147.5t-27 -193.5v-397q61 -4 109.5 -13.5t68.5 -15.5v-55h-287v664q0 64 -8.5 113t-30.5 87.5t-64 60t-106 21.5q-70 0 -131.5 -33.5t-107.5 -96t-71.5 -148.5t-25.5 -187 v-397q62 -4 110 -13.5t68 -15.5v-55h-464v55q20 6 68 15.5t110 13.5v844q-37 6 -85.5 11.5t-92.5 8.5v56q29 4 65 7t75.5 5t78 2.5t71.5 -0.5q0 -28 -1 -61t-3.5 -66t-6 -64t-7.5 -55l4 -2q21 60 57 108.5t84 83.5t106 53.5t122 18.5q60 0 106.5 -13.5t78.5 -37t52 -51.5 t30.5 -57t14 -55t2.5 -46q15 41 43.5 85t73 84t107.5 65.5t141 25.5q72 0 127 -19t93.5 -59t58.5 -102t20 -147v-623q61 -4 109 -13.5t67 -15.5v-55h-285z" />
<glyph unicode="n" horiz-adv-x="1245" d="M915 0v662q0 67 -10.5 120t-35.5 89.5t-67 55.5t-106 19q-76 0 -139 -34t-108 -95.5t-70 -146t-25 -185.5v-401q47 -3 92.5 -10.5t85.5 -18.5v-55h-464v55q40 11 85.5 18.5t92.5 10.5v844q-37 6 -85 11.5t-93 8.5v56q28 4 64 7t75 5t78 2.5t73 -0.5q0 -28 -1 -60 t-3.5 -65t-6 -64.5t-7.5 -56.5l4 -2q21 60 56.5 108.5t83 83t106.5 53.5t127 19q88 0 147 -25.5t94.5 -70t50.5 -104t15 -127.5v-623q46 -3 91 -10.5t85 -18.5v-55h-285z" />
<glyph unicode="o" horiz-adv-x="1106" d="M1008 516q0 -112 -30 -208.5t-90 -169.5t-148.5 -113.5t-202.5 -40.5q-100 0 -181 32t-138.5 96.5t-88.5 162.5t-31 227q0 112 30 208.5t90 169.5t148.5 113.5t202.5 40.5q100 0 181 -32t138.5 -96.5t88.5 -162.5t31 -227zM895 510q0 103 -23 184t-67.5 137.5 t-107.5 85.5t-142 29q-78 0 -141.5 -28t-109 -83.5t-69.5 -137.5t-24 -189q0 -103 23 -184t67.5 -136.5t107.5 -84.5t142 -29q74 0 136 26t109 79.5t73 136.5t26 194z" />
<glyph unicode="p" horiz-adv-x="1167" d="M1065 553q0 -137 -36.5 -243t-104.5 -177t-162.5 -107t-210.5 -36q-32 0 -57.5 0.5t-50 2t-50.5 4.5t-55 7v-436q47 -3 93 -10.5t85 -18.5v-55h-465v55q39 11 85 18.5t93 10.5v1360q-38 6 -86 11.5t-92 8.5v56q29 4 66 7t77.5 5t79.5 2.5t70 -0.5q0 -27 -1 -59t-3.5 -66 t-6.5 -65t-9 -54l4 -2q21 60 56.5 108.5t82.5 83t103 52.5t118 18q90 0 160 -30t118.5 -90.5t73.5 -151t25 -209.5zM950 545q0 94 -16.5 168t-50.5 126t-85.5 79.5t-121.5 27.5q-56 0 -104 -20t-85.5 -55.5t-65.5 -81t-46.5 -96.5t-27.5 -102.5t-9 -98.5v-386 q50 -16 104 -23t121 -7q90 0 161 27.5t121.5 84.5t77.5 146t27 211z" />
<glyph unicode="q" horiz-adv-x="1143" d="M651 -516v55q41 11 86.5 18.5t91.5 10.5v510q0 14 0.5 33.5t2 41.5t4.5 45.5t8 45.5l-4 2q-22 -60 -57.5 -108.5t-82.5 -82.5t-103 -52.5t-118 -18.5q-89 0 -159 30t-118.5 90t-74 150t-25.5 211q0 139 37 244.5t105 177t164 107.5t215 36q37 0 77 -2t80.5 -5t80 -8 t77.5 -11v-1436q46 -3 92 -10.5t86 -18.5v-55h-465zM829 918q-58 14 -114.5 20t-110.5 6q-88 0 -159.5 -27t-122 -84.5t-78 -146.5t-27.5 -213q0 -93 16.5 -167.5t50 -126t85.5 -79.5t123 -28q57 0 104.5 21t85 56t65 81t46 96.5t27.5 102t9 97.5v392z" />
<glyph unicode="r" horiz-adv-x="766" d="M727 926q-98 15 -168 -13.5t-114.5 -96t-67.5 -171.5t-23 -242v-319q47 -3 92.5 -10.5t85.5 -18.5v-55h-464v55q40 11 85.5 18.5t92.5 10.5v844q-37 6 -85 11.5t-93 8.5v56q28 4 64 7t75 5t78 2.5t73 -0.5q0 -56 -6 -130.5t-20 -146.5l4 -2q14 58 42 115.5t75.5 101 t115.5 66t162 10.5z" />
<glyph unicode="s" horiz-adv-x="891" d="M766 264q0 -63 -25.5 -115t-74 -89t-118 -56.5t-155.5 -19.5q-51 0 -98 3.5t-82.5 8.5t-55 8.5t-26.5 5.5v273h59q5 -21 15 -71t16 -112q21 -5 71.5 -12.5t113.5 -7.5q58 0 104.5 11t78.5 33.5t49 56t17 77.5q0 47 -21.5 81.5t-57.5 58.5t-67 37.5t-105.5 44t-118 53.5 t-80.5 56.5t-58.5 80.5t-21.5 110q0 57 25 104t73 80.5t117 51.5t154 18q70 0 131 -7.5t88 -12.5v-271h-60q-5 22 -14.5 73.5t-15.5 115.5q-17 4 -56.5 9t-87.5 5q-116 0 -179.5 -41t-63.5 -121q0 -46 21.5 -80.5t57.5 -58.5t66 -37t105 -43.5t119 -53.5t81 -56.5 t58.5 -80.5t21.5 -110z" />
<glyph unicode="t" horiz-adv-x="754" d="M680 6q-40 -9 -91 -14.5t-97 -5.5q-73 0 -121 17.5t-76.5 53t-40.5 90t-12 132.5v653h-242v86h242v348l108 31v-379h322v-86h-322v-592q0 -79 8 -128t26.5 -77t50 -39.5t83.5 -11.5q38 0 75.5 5t70.5 13z" />
<glyph unicode="u" horiz-adv-x="1229" d="M1182 14q-29 -4 -65.5 -7t-76 -5t-78 -2.5t-71.5 0.5q0 28 1 60.5t3.5 65.5t6 64t7.5 56l-4 2q-21 -60 -56.5 -109t-83 -83.5t-106.5 -53t-127 -18.5q-85 0 -145 24.5t-95.5 69t-51 103t-15.5 130.5v617q-37 6 -85.5 11.5t-92.5 8.5v56q29 4 65 7t75 5t77 2.5t70 -0.5 v-662q0 -70 10.5 -122t35.5 -88.5t67.5 -55t105.5 -18.5q75 0 138 33.5t109 95.5t70.5 147t24.5 184v396q-37 6 -85.5 11.5t-92.5 8.5v56q29 4 65 7t75 5t77 2.5t70 -0.5v-928q38 -6 86 -11.5t92 -8.5v-56z" />
<glyph unicode="v" horiz-adv-x="1135" d="M1124 963q-33 -10 -71.5 -17t-77.5 -12l-352 -934h-115l-348 934q-39 5 -78 12t-72 17v55h451v-55q-39 -11 -86 -18.5t-94 -10.5l196 -551q25 -68 49.5 -142t42.5 -135h2q34 103 52 157.5t41 119.5l192 551q-47 3 -94 10.5t-86 18.5v55h448v-55z" />
<glyph unicode="w" horiz-adv-x="1774" d="M1763 963q-33 -10 -71.5 -17t-77.5 -12l-301 -934h-133l-256 743q-14 41 -27.5 85t-28.5 96h-2q-14 -54 -36 -126.5t-39 -129.5l-211 -668h-140l-280 934q-39 5 -78 12t-72 17v55h451v-55q-39 -11 -85 -18.5t-93 -10.5l166 -612q12 -43 35 -121t30 -107h2 q15 54 32.5 113.5t35.5 116.5l223 694h141l228 -694q17 -54 28 -88t18.5 -59l13.5 -45t11 -40h2q6 23 13 45.5t18.5 59t20 63.5t18.5 62l176 612q-47 3 -93 10.5t-85 18.5v55h446v-55z" />
<glyph unicode="x" horiz-adv-x="1116" d="M823 0l-270 426l-270 -426h-265v57q50 11 97 20.5t94 12.5l289 418l-273 420q-46 3 -93.5 12.5t-96.5 20.5v57h272l254 -414l262 414h258v-57q-49 -11 -96.5 -20.5t-93.5 -12.5l-273 -410l289 -428q47 -3 94 -12.5t97 -20.5v-57h-275z" />
<glyph unicode="y" horiz-adv-x="1139" d="M1128 963q-34 -10 -72.5 -17t-76.5 -12l-395 -1047q-44 -117 -84.5 -197t-87.5 -129.5t-106.5 -71t-141.5 -21.5q-13 0 -28.5 0.5t-31.5 2t-32 3.5t-31 4l14 104q29 -9 60 -13.5t63 -4.5q51 0 90 14t72.5 48.5t64.5 93.5t66 149l51 131h-18l-344 934q-38 5 -77 12t-73 17 v55h443v-55q-34 -11 -76 -18.5t-88 -10.5l205 -588q24 -72 42 -127t35 -108h2q6 21 17 53t25 72.5t30 86t33 93.5l182 518q-46 3 -88 10.5t-76 18.5v55h432v-55v0z" />
<glyph unicode="z" horiz-adv-x="909" d="M100 0v76l570 850q-29 -1 -65 -1.5t-77.5 -1t-86.5 -1t-91 -0.5h-145q-5 -45 -11.5 -86.5t-17.5 -87.5h-59v270h671v-74l-565 -848q25 1 63.5 1.5t82.5 1t90 1t86 0.5h164q5 41 12 87.5t18 93.5h60v-281h-699z" />
<glyph unicode="{" horiz-adv-x="657" d="M559 -395q-74 0 -125.5 23t-83 67t-45.5 107t-14 147v438q0 59 -11 98.5t-36.5 65.5t-69 39.5t-111.5 17.5v94q71 4 114.5 17t68.5 38t35 64.5t10 102.5v301q0 70 12.5 130.5t43 109t83 76.5t129.5 28h31v-80q-57 0 -95 -14t-61 -44t-33 -78.5t-10 -119.5v-299 q0 -56 -11 -102.5t-34.5 -82t-60 -59t-86.5 -33.5v-2q49 -7 85.5 -30.5t60 -60t35 -84t11.5 -103.5v-436q0 -72 10 -120t33 -77.5t61 -43t95 -13.5v-82h-31z" />
<glyph unicode="|" horiz-adv-x="578" d="M246 -516v2048h86v-2048h-86z" />
<glyph unicode="}" horiz-adv-x="647" d="M610 608q-67 -4 -111 -17.5t-69 -39.5t-36 -65.5t-11 -98.5v-438q0 -84 -14 -147t-45.5 -107t-83 -67t-125.5 -23h-31v82q57 0 94.5 13.5t60.5 43t33.5 78t10.5 119.5v436q0 56 11.5 103.5t35 84t60 60t85.5 30.5v2q-50 7 -87 29.5t-60 58t-34 81t-11 98.5v309 q0 71 -10.5 119.5t-33.5 78.5t-61 44t-94 14v80h31q77 0 129.5 -28t83 -76.5t43 -109t12.5 -130.5v-291q0 -66 10 -108t34.5 -68t68 -39t114.5 -17v-94z" />
<glyph unicode="~" d="M995 1153q0 -60 -16.5 -110t-48 -87t-76 -57t-98.5 -20q-52 0 -90.5 16t-65.5 40.5t-60.5 66t-53.5 62t-49.5 36.5t-69.5 16q-38 0 -66 -15t-46.5 -42t-27.5 -63t-10 -78h-82v4q0 59 16.5 109.5t48 87.5t76 57t99.5 20q52 0 90.5 -16.5t65.5 -41t60.5 -65.5t53.5 -62 t49.5 -37t69.5 -16q37 0 65 15t46.5 42.5t27.5 63.5t10 78h82v-4z" />
<glyph unicode="&#xa1;" horiz-adv-x="651" d="M393 944q0 -18 -7 -34t-19 -28t-28 -19t-34 -7t-34 7t-28 19t-19 28t-7 34t7 34t19 28t28 19t34 7t34 -7t28 -19t19 -28t7 -34zM240 -412l22 1125h86l23 -1125h-131z" />
<glyph unicode="&#xa2;" horiz-adv-x="952" d="M602 1202q58 0 124.5 -10.5t117.5 -26.5v-268h-62q-4 14 -13 62t-17 135q-38 11 -82.5 16.5t-91.5 5.5q-85 0 -153.5 -27t-116.5 -79t-73.5 -127.5t-25.5 -171.5q0 -82 19 -152.5t60.5 -124.5t111 -84.5t167.5 -30.5q70 0 136.5 15.5t125.5 42.5l23 -84 q-53 -26 -118.5 -42.5t-131.5 -21.5v-282h-92v280q-107 6 -186 41t-130 97t-75.5 147.5t-24.5 194.5q0 102 29 188t83.5 150t131.5 103t172 50v236h92v-232z" />
<glyph unicode="&#xa3;" horiz-adv-x="1040" d="M100 0v78q68 55 113 103t71.5 94.5t38 96.5t11.5 111q0 46 -6 92t-17 105h-237v84h221q-17 75 -28 154.5t-11 134.5q0 88 25 153.5t72.5 108t114.5 63.5t153 21q22 0 49 -1.5t54.5 -4t52 -6.5t42.5 -9v-268h-61q-12 53 -20.5 99.5t-12.5 88.5q-15 3 -48.5 8t-72.5 5 q-70 0 -117 -18.5t-74.5 -52t-39 -77.5t-11.5 -98q0 -26 3 -58.5t8.5 -71t13 -81t16.5 -90.5h379v-84h-362q10 -61 15 -102t5 -84q0 -69 -10 -121t-33.5 -97.5t-63.5 -90t-102 -97.5q51 5 93.5 7.5t103.5 2.5h385q4 44 12.5 92t20.5 101h61v-291h-807z" />
<glyph unicode="&#xa4;" d="M928 147l-172 232q-45 -32 -97 -48t-110 -16q-48 0 -89.5 9t-76.5 26l-152 -203l-73 58l157 192q-44 48 -68 118t-24 163q0 80 26.5 147t76.5 115l-168 205l71 57l158 -215q38 24 86 35.5t100 11.5q53 0 103 -10.5t92 -36.5l164 215l67 -57l-172 -213q35 -40 55.5 -102.5 t20.5 -145.5q0 -75 -23 -140t-65 -112l184 -225zM799 684q0 57 -13.5 104.5t-42 83.5t-76 56t-112.5 20q-49 0 -90.5 -19t-72 -54.5t-47.5 -85t-17 -109.5t12.5 -110t41 -88t75 -59.5t112.5 -21.5q46 0 87.5 20t74 58t50.5 90.5t18 114.5z" />
<glyph unicode="&#xa5;" horiz-adv-x="1198" d="M1182 1327q-28 -8 -68.5 -15.5t-71.5 -11.5l-364 -741h330v-84h-357v-166h357v-84h-357v-141q47 -3 93 -10.5t85 -18.5v-55h-467v55q40 11 86 18.5t93 10.5v141h-357v84h357v166h-357v84h330l-356 741q-31 4 -71.5 11.5t-68.5 15.5v55h443v-55q-39 -10 -85 -17.5 t-93 -11.5l204 -448q39 -84 64.5 -140t48.5 -112h2q22 56 61.5 139t63.5 133l199 428q-47 4 -93 11.5t-85 17.5v55h434v-55z" />
<glyph unicode="&#xa6;" horiz-adv-x="578" d="M246 778v754h86v-754h-86zM246 -516v774h86v-774h-86z" />
<glyph unicode="&#xa7;" horiz-adv-x="1044" d="M840 457q0 -40 -10 -78t-30.5 -73t-51.5 -68t-72 -64q37 -51 59.5 -102.5t22.5 -110.5t-21 -112.5t-61.5 -93.5t-99.5 -63.5t-134 -23.5q-16 0 -34.5 1t-38 4t-39.5 7.5t-41 10.5l12 94q25 -8 44.5 -13t37.5 -8t34.5 -4.5t35.5 -1.5q45 0 81 14t61 39t38.5 59.5 t13.5 76.5q0 46 -20.5 90.5t-53.5 89t-75.5 89t-87 90.5t-87 94t-75.5 99.5t-53.5 106.5t-20.5 115q0 40 10 77.5t30.5 72.5t51 69t72.5 66q-37 51 -59.5 103.5t-22.5 109.5q0 59 19.5 110.5t58.5 90t96.5 61t132.5 22.5q32 0 71 -4.5t71 -13.5l-13 -94q-40 12 -71 17t-68 5 q-91 0 -138.5 -48.5t-47.5 -131.5q0 -46 20.5 -91t53.5 -89.5t75.5 -89t87 -91t87 -94.5t75.5 -99.5t53.5 -106.5t20.5 -115zM729 442q0 67 -32 129.5t-81.5 123t-108.5 119.5t-112 120q-60 -42 -85 -95t-25 -104q0 -67 32.5 -129t82 -122t109 -119t112.5 -119 q58 40 83 92.5t25 103.5z" />
<glyph unicode="&#xa8;" horiz-adv-x="942" d="M737 1352q0 -17 -6 -31.5t-17 -25.5t-25.5 -17t-31.5 -6t-31.5 6t-25 17t-16.5 25.5t-6 31.5t6 31.5t16.5 25.5t25 17t31.5 6t31.5 -6t25.5 -17t17 -25.5t6 -31.5zM365 1352q0 -17 -6 -31.5t-17 -25.5t-25.5 -17t-31.5 -6t-31.5 6t-25.5 17t-17 25.5t-6 31.5t6 31.5 t17 25.5t25.5 17t31.5 6t31.5 -6t25.5 -17t17 -25.5t6 -31.5z" />
<glyph unicode="&#xa9;" horiz-adv-x="1536" d="M1442 690q0 -93 -23.5 -179.5t-67 -162t-104.5 -137t-136.5 -105t-162.5 -67t-180 -23.5q-94 0 -181 23t-162.5 67t-136.5 104.5t-104.5 135.5t-66.5 161.5t-23 178.5q0 93 23.5 179.5t67 162t104.5 137t136.5 105t162.5 67t180 23.5q94 0 181 -23t162.5 -67 t136.5 -104.5t104.5 -135.5t66.5 -161.5t23 -178.5zM1348 686q0 80 -20 155t-57.5 141t-90 119.5t-117.5 92.5t-140 59.5t-155 20.5q-120 0 -226 -45.5t-186 -126.5t-124 -187.5t-44 -224.5q0 -119 44 -226.5t124 -189t186 -127t226 -45.5q80 0 155 21t140 59.5t117.5 92 t90 119t57.5 139.5t20 153zM967 356q-43 -14 -96 -22t-101 -8q-88 0 -150 26.5t-99 73.5t-53.5 110t-16.5 140q0 76 19 143t61 120t110.5 83.5t163.5 30.5q51 0 93 -5.5t60 -9.5v-235h-57q-4 18 -12.5 62t-14.5 102q-9 2 -32 4t-51 2q-65 0 -111 -22t-73.5 -61.5 t-39.5 -91.5t-12 -114q0 -65 13.5 -116t41 -86t70.5 -53.5t102 -18.5q47 0 92 7.5t87 22.5z" />
<glyph unicode="&#xaa;" horiz-adv-x="786" d="M737 752q-21 -4 -48.5 -7t-58.5 -4.5t-63 -2t-61 0.5q0 25 3 56.5t9 60.5l-6 2q-7 -23 -26.5 -46.5t-47.5 -42t-62 -30.5t-69 -12q-49 0 -85 11.5t-59 32t-34.5 49t-11.5 63.5q0 49 24.5 92t73.5 74.5t123 50t174 18.5v43q0 23 -4.5 49.5t-19.5 49t-44 37t-77 14.5 q-39 0 -72.5 -6.5t-61.5 -14.5q-3 -35 -7.5 -68t-10.5 -61h-59v191q10 5 32 12.5t51.5 14t66 11.5t75.5 5q67 0 111.5 -18.5t71 -49t37.5 -69.5t11 -80v-359q15 -2 31 -3.5t32.5 -3.5t32 -4t29.5 -3v-53zM131 504v88h545v-88h-545zM512 1042q-80 0 -135.5 -10.5t-90 -29.5 t-50 -44.5t-15.5 -56.5q0 -40 26.5 -64t74.5 -24q52 0 88.5 24.5t59 59t32.5 70.5t10 59v16z" />
<glyph unicode="&#xab;" horiz-adv-x="993" d="M739 264l-260 338l262 344l76 -51l-221 -291l221 -287zM379 264l-244 338l246 344l76 -51l-205 -291l205 -287z" />
<glyph unicode="&#xac;" d="M881 227v336h-789v92h881v-428h-92z" />
<glyph unicode="&#xae;" horiz-adv-x="1149" d="M997 1079q0 -86 -30.5 -165t-92 -139.5t-138.5 -90t-163 -29.5q-90 0 -167.5 33t-134.5 90t-89 134.5t-32 166.5q0 88 32 166t90 135.5t136 90t165 32.5q90 0 171 -30.5t134.5 -84t86 -129t32.5 -180.5zM909 1075q0 70 -24.5 134.5t-69.5 111.5t-108.5 73.5t-133.5 26.5 t-132.5 -25t-108.5 -72.5t-70 -109t-24 -131.5t26 -132.5t71.5 -110t106.5 -75.5t131 -28t132.5 24.5t108.5 69t70.5 109.5t24.5 135zM655 844l-98 207h-31v-146q13 -3 29 -8.5t27 -13.5v-39h-193v39q13 8 29 13.5t33 8.5v355q-17 3 -33 8.5t-29 11.5v41h51q25 0 46.5 0.5 t39 0.5t32.5 0.5t28 0.5q43 0 72.5 -9t48.5 -24.5t27.5 -38t8.5 -49.5q0 -57 -30 -91.5t-84 -45.5q12 -19 23.5 -37.5t17.5 -32.5l43 -90q20 -3 35.5 -9.5t27.5 -12.5v-39h-121zM666 1192q0 35 -19 51.5t-65 16.5h-28h-28v-152h18h17q30 0 50 7.5t32.5 19.5t17.5 27t5 30z " />
<glyph unicode="&#xaf;" horiz-adv-x="891" d="M205 1296v86h481v-86h-481z" />
<glyph unicode="&#xb0;" horiz-adv-x="745" d="M612 1266q0 -53 -21 -96.5t-56 -74.5t-79.5 -48t-90.5 -17q-54 0 -97.5 16.5t-73.5 47t-46.5 73t-16.5 95.5q0 56 20.5 100.5t54.5 75t78 47t91 16.5q59 0 103.5 -19t74 -51t44.5 -74.5t15 -90.5zM516 1264q0 26 -6.5 54t-23.5 51.5t-45.5 38.5t-71.5 15q-29 0 -55 -11.5 t-45.5 -32t-30.5 -49.5t-11 -64q0 -75 39.5 -116.5t102.5 -41.5q31 0 58 11.5t47 32t31 49t11 63.5z" />
<glyph unicode="&#xb1;" d="M614 666v-428h-102v428h-420v92h420v426h102v-426h420v-92h-420zM92 0v92h942v-92h-942z" />
<glyph unicode="&#xb2;" horiz-adv-x="684" d="M74 758v78l245 231q43 40 72 77t46 70.5t24.5 65t7.5 63.5q0 80 -43 126.5t-127 46.5q-59 0 -111 -19q-5 -43 -11 -83.5t-15 -80.5h-66v232q45 16 104 26.5t117 10.5q62 0 110.5 -18t82.5 -51t51 -77t17 -96q0 -85 -43 -166t-136 -168l-188 -174q69 3 158 3.5t247 0.5 v-98h-542z" />
<glyph unicode="&#xb3;" horiz-adv-x="670" d="M100 858q47 -12 93 -19.5t90 -7.5q42 0 79.5 9.5t66 28.5t44.5 48t16 68t-20 70.5t-61 52t-104.5 27.5t-147.5 -2v86q72 0 127 8.5t93.5 27.5t58.5 50.5t20 76.5q0 61 -42 97.5t-122 36.5q-23 0 -49 -3t-45 -8q-9 -59 -13 -83.5t-12 -51.5h-66v211q21 5 46.5 9t52 6.5 t51.5 4t45 1.5q124 0 192 -55t68 -152q0 -78 -39.5 -130t-115.5 -75q44 -7 80 -25t61.5 -44t39 -59t13.5 -69q0 -59 -26.5 -106t-73 -79t-106 -48.5t-124.5 -16.5q-41 0 -91.5 6t-94.5 15z" />
<glyph unicode="&#xb4;" horiz-adv-x="717" d="M268 1186l-63 53l225 277l82 -68z" />
<glyph unicode="&#xb6;" horiz-adv-x="1143" d="M844 1303v-1500h-266v80h155v1499h266v-79h-155zM584 541q-108 -1 -188 32.5t-133 92t-79 136t-26 165.5q0 86 30.5 161.5t86 132t134 89t175.5 32.5v-841z" />
<glyph unicode="&#xb7;" horiz-adv-x="410" d="M299 608q0 -20 -7 -37t-20 -30t-30 -20t-37 -7t-37 7t-30 20t-20 30t-7 37t7 37.5t20 30t30 19.5t37 7t37 -7t30 -19.5t20 -30t7 -37.5z" />
<glyph unicode="&#xb8;" horiz-adv-x="621" d="M354 -84q38 -48 52.5 -95.5t7 -96t-34.5 -99.5t-72 -108h-102q45 59 70 103t32 83t-6 78t-49 82z" />
<glyph unicode="&#xb9;" horiz-adv-x="584" d="M80 758v55q35 11 83 18.5t105 10.5v649l-194 -76l-21 86l238 86h86v-745q38 -3 83.5 -10.5t86.5 -18.5v-55h-467z" />
<glyph unicode="&#xba;" horiz-adv-x="846" d="M723 1081q0 -79 -22.5 -144t-64.5 -111.5t-100 -71.5t-128 -25q-68 0 -120.5 18.5t-89 58t-56 101.5t-19.5 148q0 74 22 136.5t63 109t97.5 71.5t124.5 25q53 0 103 -13.5t93 -48t70 -97.5t27 -157zM150 504v88h546v-88h-546zM614 1067q0 47 -10 90t-31.5 78t-58.5 55.5 t-88 20.5q-37 0 -71.5 -14.5t-62.5 -44t-44.5 -75.5t-16.5 -106q0 -47 9 -91.5t30 -81t57.5 -59t90.5 -22.5q43 0 79 16t62 48t40.5 79t14.5 107z" />
<glyph unicode="&#xbb;" horiz-adv-x="993" d="M612 264l-75 51l204 291l-202 287l77 53l242 -338zM252 264l-76 51l221 291l-219 287l78 53l258 -338z" />
<glyph unicode="&#xbc;" horiz-adv-x="1667" d="M1470 -9v-120q40 -4 76 -11t71 -16v-49h-409v49q35 9 76.5 16t83.5 11v120h-396l-8 70l363 563h143v-543h145v-90h-145zM1368 536l-293 -459q30 1 71 2t82.5 1.5t79 0.5h60.5v455zM80 758v55q35 11 83 18.5t105 10.5v649l-194 -76l-21 86l238 86h86v-745 q38 -3 83.5 -10.5t86.5 -18.5v-55h-467zM262 -270l-80 55l1284 1851l80 -55z" />
<glyph unicode="&#xbd;" horiz-adv-x="1731" d="M80 758v55q35 11 83 18.5t105 10.5v649l-194 -76l-21 86l238 86h86v-745q38 -3 83.5 -10.5t86.5 -18.5v-55h-467zM262 -270l-80 55l1284 1851l80 -55zM1121 -204v78l245 231q43 40 72 77t46 70.5t24.5 65t7.5 63.5q0 80 -43 126.5t-127 46.5q-59 0 -111 -19 q-5 -43 -11 -83.5t-15 -80.5h-66v232q45 16 104 26.5t117 10.5q62 0 110.5 -18t82.5 -51t51 -77t17 -96q0 -85 -43 -166t-136 -168l-188 -174q69 3 158 3.5t247 0.5v-98h-542z" />
<glyph unicode="&#xbe;" horiz-adv-x="1659" d="M1462 -9v-120q40 -4 76 -11t71 -16v-49h-409v49q35 9 76.5 16t83.5 11v120h-396l-8 70l363 563h143v-543h145v-90h-145zM1360 536l-293 -459q30 1 71 2t82.5 1.5t79 0.5h60.5v455zM100 858q47 -12 93 -19.5t90 -7.5q42 0 79.5 9.5t66 28.5t44.5 48t16 68t-20 70.5t-61 52 t-104.5 27.5t-147.5 -2v86q72 0 127 8.5t93.5 27.5t58.5 50.5t20 76.5q0 61 -42 97.5t-122 36.5q-23 0 -49 -3t-45 -8q-9 -59 -13 -83.5t-12 -51.5h-66v211q21 5 46.5 9t52 6.5t51.5 4t45 1.5q124 0 192 -55t68 -152q0 -78 -39.5 -130t-115.5 -75q44 -7 80 -25t61.5 -44 t39 -59t13.5 -69q0 -59 -26.5 -106t-73 -79t-106 -48.5t-124.5 -16.5q-41 0 -91.5 6t-94.5 15zM254 -270l-80 55l1284 1851l80 -55z" />
<glyph unicode="&#xbf;" horiz-adv-x="901" d="M600 944q0 -18 -7 -34t-19 -28t-28 -19t-34 -7t-34 7t-28 19t-19 28t-7 34t7 34t19 28t28 19t34 7t34 -7t28 -19t19 -28t7 -34zM682 -422q-117 5 -215 37t-168.5 82.5t-109.5 116.5t-39 139q0 63 18.5 111.5t47.5 89t65 75.5t70.5 70.5t64.5 74.5t47.5 88t18 110 t-22.5 141h106q24 -80 24.5 -142.5t-16 -113.5t-45 -93t-62.5 -79t-68.5 -72t-63 -72.5t-46.5 -80t-18 -95.5q0 -55 30.5 -105t86.5 -89t134.5 -63.5t174.5 -29.5z" />
<glyph unicode="&#xc0;" horiz-adv-x="1403" d="M948 0v55q40 11 86 18.5t92 10.5l-102 278h-653l-103 -278q47 -3 92.5 -10.5t85.5 -18.5v-55h-436v55q28 8 68.5 16t71.5 11l495 1300h117l491 -1300q31 -3 71.5 -11t68.5 -16v-55h-445zM762 1077q-19 51 -34.5 94.5t-29.5 90.5h-2q-14 -44 -29 -89.5t-32 -93.5 l-232 -626h588zM768 1503l-338 121l45 98l321 -149z" />
<glyph unicode="&#xc1;" horiz-adv-x="1403" d="M948 0v55q40 11 86 18.5t92 10.5l-102 278h-653l-103 -278q47 -3 92.5 -10.5t85.5 -18.5v-55h-436v55q28 8 68.5 16t71.5 11l495 1300h117l491 -1300q31 -3 71.5 -11t68.5 -16v-55h-445zM762 1077q-19 51 -34.5 94.5t-29.5 90.5h-2q-14 -44 -29 -89.5t-32 -93.5 l-232 -626h588zM610 1503l-28 70l321 149l45 -98z" />
<glyph unicode="&#xc2;" horiz-adv-x="1403" d="M948 0v55q40 11 86 18.5t92 10.5l-102 278h-653l-103 -278q47 -3 92.5 -10.5t85.5 -18.5v-55h-436v55q28 8 68.5 16t71.5 11l495 1300h117l491 -1300q31 -3 71.5 -11t68.5 -16v-55h-445zM762 1077q-19 51 -34.5 94.5t-29.5 90.5h-2q-14 -44 -29 -89.5t-32 -93.5 l-232 -626h588zM979 1499l-270 133l-272 -133l-39 74l313 168l309 -166z" />
<glyph unicode="&#xc3;" horiz-adv-x="1403" d="M948 0v55q40 11 86 18.5t92 10.5l-102 278h-653l-103 -278q47 -3 92.5 -10.5t85.5 -18.5v-55h-436v55q28 8 68.5 16t71.5 11l495 1300h117l491 -1300q31 -3 71.5 -11t68.5 -16v-55h-445zM762 1077q-19 51 -34.5 94.5t-29.5 90.5h-2q-14 -44 -29 -89.5t-32 -93.5 l-232 -626h588zM1047 1653q-37 -64 -89 -98.5t-114 -34.5q-46 0 -81 15t-77 45t-66.5 43t-56.5 13q-36 0 -72 -24.5t-65 -71.5l-61 47q36 64 88.5 98.5t114.5 34.5q46 0 81 -15t77 -45t66 -43t56 -13q36 0 71.5 24.5t65.5 71.5z" />
<glyph unicode="&#xc4;" horiz-adv-x="1403" d="M948 0v55q40 11 86 18.5t92 10.5l-102 278h-653l-103 -278q47 -3 92.5 -10.5t85.5 -18.5v-55h-436v55q28 8 68.5 16t71.5 11l495 1300h117l491 -1300q31 -3 71.5 -11t68.5 -16v-55h-445zM762 1077q-19 51 -34.5 94.5t-29.5 90.5h-2q-14 -44 -29 -89.5t-32 -93.5 l-232 -626h588zM994 1589q0 -17 -6 -31.5t-17 -25.5t-25.5 -17t-31.5 -6t-31.5 6t-25.5 17t-17 25.5t-6 31.5t6 31.5t17 25.5t25.5 17t31.5 6t31.5 -6t25.5 -17t17 -25.5t6 -31.5zM560 1589q0 -17 -6 -31.5t-17 -25.5t-25.5 -17t-31.5 -6t-31.5 6t-25.5 17t-17 25.5t-6 31.5 t6 31.5t17 25.5t25.5 17t31.5 6t31.5 -6t25.5 -17t17 -25.5t6 -31.5z" />
<glyph unicode="&#xc5;" horiz-adv-x="1403" d="M948 0v55q40 11 86 18.5t92 10.5l-102 278h-653l-103 -278q47 -3 92.5 -10.5t85.5 -18.5v-55h-436v55q28 8 68.5 16t71.5 11l495 1300h117l491 -1300q31 -3 71.5 -11t68.5 -16v-55h-445zM762 1077q-19 51 -34.5 94.5t-29.5 90.5h-2q-14 -44 -29 -89.5t-32 -93.5 l-232 -626h588zM909 1667q0 -42 -14.5 -79t-42 -65.5t-68 -44.5t-90.5 -16q-45 0 -81.5 12.5t-62.5 37t-40 62t-14 85.5q0 41 14.5 78.5t42.5 66t68 44.5t90 16q46 0 82.5 -12.5t62.5 -37t39.5 -62t13.5 -85.5zM813 1663q0 29 -7.5 52t-21.5 39t-34.5 24t-46.5 8 q-22 0 -41.5 -7.5t-35.5 -22.5t-25 -38.5t-9 -54.5q0 -29 7.5 -52t22 -39t35 -24t46.5 -8q21 0 41 7.5t35.5 22.5t24.5 38.5t9 54.5z" />
<glyph unicode="&#xc6;" horiz-adv-x="1702" d="M684 0v55q40 11 86 18.5t92 10.5v278h-514l-153 -278q23 -2 46 -4.5t45.5 -6t44.5 -8t42 -10.5v-55h-439v55q28 8 68.5 16t71.5 11l688 1216q-47 4 -92.5 11t-85.5 18v55h938v-288h-66q-11 55 -20.5 107.5t-12.5 92.5h-450v-536h362q6 45 15 86.5t20 79.5h60v-420h-60 q-12 37 -21 80.5t-14 85.5h-362v-580h471q5 43 14.5 97t20.5 108h65v-295h-860zM862 1288h-6q-12 -23 -24.5 -48.5t-29 -57.5t-38.5 -72t-51 -92l-316 -565h465v835z" />
<glyph unicode="&#xc7;" horiz-adv-x="1229" d="M1128 72q-41 -18 -87 -34t-97 -28t-105.5 -19t-111.5 -7q-151 0 -267.5 46.5t-195.5 134.5t-119.5 214.5t-40.5 286.5q0 153 39 286.5t120 232.5t205 156.5t294 57.5q91 0 175 -12.5t163 -32.5v-279h-66q-11 56 -17 105t-11 94q-70 18 -135 26.5t-130 8.5 q-138 0 -237 -50.5t-162 -136.5t-93 -199.5t-30 -238.5q0 -140 33.5 -252t100.5 -191t166 -121t231 -42q48 0 96.5 6t93.5 16.5t86 25t76 32.5l26 -86v0zM700 -84q38 -48 52.5 -95.5t7 -96t-34.5 -99.5t-72 -108h-102q45 59 70 103t32 83t-6 78t-49 82z" />
<glyph unicode="&#xc8;" horiz-adv-x="1075" d="M68 0v55q40 11 85.5 18.5t92.5 10.5v1214q-47 4 -92.5 11t-85.5 18v55h845v-288h-65q-11 55 -20.5 107.5t-12.5 92.5h-459v-536h363q6 45 15 86.5t20 79.5h59v-420h-59q-13 37 -21.5 80.5t-13.5 85.5h-363v-580h461q5 43 14.5 97t20.5 108h66v-295h-850zM588 1503 l-338 121l45 98l321 -149z" />
<glyph unicode="&#xc9;" horiz-adv-x="1075" d="M68 0v55q40 11 85.5 18.5t92.5 10.5v1214q-47 4 -92.5 11t-85.5 18v55h845v-288h-65q-11 55 -20.5 107.5t-12.5 92.5h-459v-536h363q6 45 15 86.5t20 79.5h59v-420h-59q-13 37 -21.5 80.5t-13.5 85.5h-363v-580h461q5 43 14.5 97t20.5 108h66v-295h-850zM454 1503l-28 70 l321 149l45 -98z" />
<glyph unicode="&#xca;" horiz-adv-x="1075" d="M68 0v55q40 11 85.5 18.5t92.5 10.5v1214q-47 4 -92.5 11t-85.5 18v55h845v-288h-65q-11 55 -20.5 107.5t-12.5 92.5h-459v-536h363q6 45 15 86.5t20 79.5h59v-420h-59q-13 37 -21.5 80.5t-13.5 85.5h-363v-580h461q5 43 14.5 97t20.5 108h66v-295h-850zM815 1499 l-270 133l-272 -133l-39 74l313 168l309 -166z" />
<glyph unicode="&#xcb;" horiz-adv-x="1075" d="M68 0v55q40 11 85.5 18.5t92.5 10.5v1214q-47 4 -92.5 11t-85.5 18v55h845v-288h-65q-11 55 -20.5 107.5t-12.5 92.5h-459v-536h363q6 45 15 86.5t20 79.5h59v-420h-59q-13 37 -21.5 80.5t-13.5 85.5h-363v-580h461q5 43 14.5 97t20.5 108h66v-295h-850zM817 1589 q0 -17 -6 -31.5t-17 -25.5t-25.5 -17t-31.5 -6t-31.5 6t-25.5 17t-17 25.5t-6 31.5t6 31.5t17 25.5t25.5 17t31.5 6t31.5 -6t25.5 -17t17 -25.5t6 -31.5zM383 1589q0 -17 -6 -31.5t-17 -25.5t-25.5 -17t-31.5 -6t-31.5 6t-25.5 17t-17 25.5t-6 31.5t6 31.5t17 25.5t25.5 17 t31.5 6t31.5 -6t25.5 -17t17 -25.5t6 -31.5z" />
<glyph unicode="&#xcc;" horiz-adv-x="602" d="M68 0v55q40 11 85.5 18.5t92.5 10.5v1214q-47 4 -92.5 11t-85.5 18v55h467v-55q-41 -11 -86.5 -18t-92.5 -11v-1214q47 -3 92.5 -10.5t86.5 -18.5v-55h-467zM378 1503l-338 121l45 98l321 -149z" />
<glyph unicode="&#xcd;" horiz-adv-x="602" d="M68 0v55q40 11 85.5 18.5t92.5 10.5v1214q-47 4 -92.5 11t-85.5 18v55h467v-55q-41 -11 -86.5 -18t-92.5 -11v-1214q47 -3 92.5 -10.5t86.5 -18.5v-55h-467zM220 1503l-28 70l321 149l45 -98z" />
<glyph unicode="&#xce;" horiz-adv-x="602" d="M68 0v55q40 11 85.5 18.5t92.5 10.5v1214q-47 4 -92.5 11t-85.5 18v55h467v-55q-41 -11 -86.5 -18t-92.5 -11v-1214q47 -3 92.5 -10.5t86.5 -18.5v-55h-467zM576 1499l-270 133l-272 -133l-39 74l313 168l309 -166z" />
<glyph unicode="&#xcf;" horiz-adv-x="602" d="M68 0v55q40 11 85.5 18.5t92.5 10.5v1214q-47 4 -92.5 11t-85.5 18v55h467v-55q-41 -11 -86.5 -18t-92.5 -11v-1214q47 -3 92.5 -10.5t86.5 -18.5v-55h-467zM599 1589q0 -17 -6 -31.5t-17 -25.5t-25.5 -17t-31.5 -6t-31.5 6t-25.5 17t-17 25.5t-6 31.5t6 31.5t17 25.5 t25.5 17t31.5 6t31.5 -6t25.5 -17t17 -25.5t6 -31.5zM165 1589q0 -17 -6 -31.5t-17 -25.5t-25.5 -17t-31.5 -6t-31.5 6t-25.5 17t-17 25.5t-6 31.5t6 31.5t17 25.5t25.5 17t31.5 6t31.5 -6t25.5 -17t17 -25.5t6 -31.5z" />
<glyph unicode="&#xd0;" horiz-adv-x="1475" d="M1364 700q0 -178 -58.5 -310.5t-162.5 -220.5t-247.5 -131.5t-313.5 -43.5q-102 0 -176 3t-138 3h-178v55q40 11 86 18.5t92 10.5v590h-217v86h217v538q-46 4 -92 11t-86 18v55h178q40 0 86 1t94.5 2.5t99 2.5t99.5 1q115 0 212.5 -18.5t177.5 -56.5t141 -95 t102.5 -133.5t62.5 -173t21 -212.5zM1249 694q0 153 -40.5 267t-119 189t-193.5 112.5t-265 37.5q-32 0 -66.5 -0.5t-68 -1.5t-64 -2t-53.5 -2v-534h338v-86h-338v-576q24 -3 53 -5.5t59 -4.5t58 -3t51 -1q146 0 265.5 36t205 111t132 190t46.5 273z" />
<glyph unicode="&#xd1;" horiz-adv-x="1524" d="M1456 1327q-40 -10 -78 -18t-75 -13v-1296h-150l-510 797q-41 64 -81.5 128.5t-80.5 128.5t-76 123.5t-63 106.5q4 -95 7 -224.5t4.5 -282.5t2 -321t0.5 -370q45 -3 90.5 -11t88.5 -20v-55h-467v55q42 12 87.5 20t90.5 11v1212q-47 4 -93 11.5t-85 17.5v55h331l506 -790 q40 -63 81 -127.5t81 -129t76 -124t63 -107.5q-4 93 -7 221.5t-4.5 280.5t-2 320t-0.5 370q-43 3 -88.5 11t-89.5 20v55h442v-55zM1102 1653q-37 -64 -89 -98.5t-114 -34.5q-46 0 -81 15t-77 45t-66.5 43t-56.5 13q-36 0 -72 -24.5t-65 -71.5l-61 47q36 64 88.5 98.5 t114.5 34.5q46 0 81 -15t77 -45t66 -43t56 -13q36 0 71.5 24.5t65.5 71.5z" />
<glyph unicode="&#xd2;" horiz-adv-x="1446" d="M1343 705q0 -171 -49 -306t-136.5 -227.5t-203.5 -140t-247 -47.5q-146 0 -259.5 49.5t-190.5 141.5t-116 219.5t-39 283.5q0 171 49 306t137 227.5t203.5 140t247.5 47.5q146 0 259.5 -49.5t190 -141.5t115.5 -219.5t39 -283.5zM1229 680q0 139 -32 254t-96 198.5 t-159 129t-219 45.5q-105 0 -197 -39.5t-161.5 -116.5t-108.5 -190t-39 -256q0 -139 32 -254.5t96 -199.5t159 -129.5t219 -45.5q105 0 197 39.5t161.5 116.5t108.5 190.5t39 257.5zM795 1503l-338 121l45 98l321 -149z" />
<glyph unicode="&#xd3;" horiz-adv-x="1446" d="M1343 705q0 -171 -49 -306t-136.5 -227.5t-203.5 -140t-247 -47.5q-146 0 -259.5 49.5t-190.5 141.5t-116 219.5t-39 283.5q0 171 49 306t137 227.5t203.5 140t247.5 47.5q146 0 259.5 -49.5t190 -141.5t115.5 -219.5t39 -283.5zM1229 680q0 139 -32 254t-96 198.5 t-159 129t-219 45.5q-105 0 -197 -39.5t-161.5 -116.5t-108.5 -190t-39 -256q0 -139 32 -254.5t96 -199.5t159 -129.5t219 -45.5q105 0 197 39.5t161.5 116.5t108.5 190.5t39 257.5zM679 1503l-28 70l321 149l45 -98z" />
<glyph unicode="&#xd4;" horiz-adv-x="1446" d="M1343 705q0 -171 -49 -306t-136.5 -227.5t-203.5 -140t-247 -47.5q-146 0 -259.5 49.5t-190.5 141.5t-116 219.5t-39 283.5q0 171 49 306t137 227.5t203.5 140t247.5 47.5q146 0 259.5 -49.5t190 -141.5t115.5 -219.5t39 -283.5zM1229 680q0 139 -32 254t-96 198.5 t-159 129t-219 45.5q-105 0 -197 -39.5t-161.5 -116.5t-108.5 -190t-39 -256q0 -139 32 -254.5t96 -199.5t159 -129.5t219 -45.5q105 0 197 39.5t161.5 116.5t108.5 190.5t39 257.5zM1009 1499l-270 133l-272 -133l-39 74l313 168l309 -166z" />
<glyph unicode="&#xd5;" horiz-adv-x="1446" d="M1343 705q0 -171 -49 -306t-136.5 -227.5t-203.5 -140t-247 -47.5q-146 0 -259.5 49.5t-190.5 141.5t-116 219.5t-39 283.5q0 171 49 306t137 227.5t203.5 140t247.5 47.5q146 0 259.5 -49.5t190 -141.5t115.5 -219.5t39 -283.5zM1229 680q0 139 -32 254t-96 198.5 t-159 129t-219 45.5q-105 0 -197 -39.5t-161.5 -116.5t-108.5 -190t-39 -256q0 -139 32 -254.5t96 -199.5t159 -129.5t219 -45.5q105 0 197 39.5t161.5 116.5t108.5 190.5t39 257.5zM1082 1653q-37 -64 -89 -98.5t-114 -34.5q-46 0 -81 15t-77 45t-66.5 43t-56.5 13 q-36 0 -72 -24.5t-65 -71.5l-61 47q36 64 88.5 98.5t114.5 34.5q46 0 81 -15t77 -45t66 -43t56 -13q36 0 71.5 24.5t65.5 71.5z" />
<glyph unicode="&#xd6;" horiz-adv-x="1446" d="M1343 705q0 -171 -49 -306t-136.5 -227.5t-203.5 -140t-247 -47.5q-146 0 -259.5 49.5t-190.5 141.5t-116 219.5t-39 283.5q0 171 49 306t137 227.5t203.5 140t247.5 47.5q146 0 259.5 -49.5t190 -141.5t115.5 -219.5t39 -283.5zM1229 680q0 139 -32 254t-96 198.5 t-159 129t-219 45.5q-105 0 -197 -39.5t-161.5 -116.5t-108.5 -190t-39 -256q0 -139 32 -254.5t96 -199.5t159 -129.5t219 -45.5q105 0 197 39.5t161.5 116.5t108.5 190.5t39 257.5zM1020 1589q0 -17 -6 -31.5t-17 -25.5t-25.5 -17t-31.5 -6t-31.5 6t-25.5 17t-17 25.5 t-6 31.5t6 31.5t17 25.5t25.5 17t31.5 6t31.5 -6t25.5 -17t17 -25.5t6 -31.5zM586 1589q0 -17 -6 -31.5t-17 -25.5t-25.5 -17t-31.5 -6t-31.5 6t-25.5 17t-17 25.5t-6 31.5t6 31.5t17 25.5t25.5 17t31.5 6t31.5 -6t25.5 -17t17 -25.5t6 -31.5z" />
<glyph unicode="&#xd7;" d="M932 174l-371 371l-371 -371l-61 62l371 370l-371 371l66 65l370 -370l371 370l61 -61l-370 -371l370 -370z" />
<glyph unicode="&#xd8;" horiz-adv-x="1446" d="M1343 705q0 -175 -50.5 -309.5t-137 -226t-202.5 -138.5t-246 -47q-60 0 -109 6t-92 18l-82 -217l-88 33l82 217q-83 42 -142.5 106t-98 146t-57 179.5t-18.5 205.5q0 117 23 215.5t65 179t100 141.5t129 102t152 62t168 21q47 0 96 -5t91 -16l75 203l89 -33l-76 -200 q81 -37 142.5 -97t103 -141t62.5 -183t21 -222zM1229 680q0 96 -14 182.5t-44.5 159.5t-78.5 131t-115 98l-436 -1149q42 -14 86.5 -20t95.5 -6q104 0 196 39t161 115.5t109 189.5t40 260zM893 1286q-29 9 -76 15t-94 6q-105 0 -197 -39t-160.5 -115.5t-108.5 -188.5 t-40 -259q0 -102 14.5 -188.5t44.5 -158t74.5 -126t104.5 -91.5l438 1145v0z" />
<glyph unicode="&#xd9;" horiz-adv-x="1475" d="M1407 1327q-72 -18 -154 -29v-778q0 -130 -33 -230t-99.5 -168t-166.5 -103t-233 -35q-103 0 -182 18.5t-134.5 51.5t-91.5 77t-56 95.5t-28 107t-8 117.5v847q-82 11 -153 29v55h442v-55q-39 -10 -85 -17.5t-93 -11.5v-833q0 -85 17.5 -154t61.5 -122.5t123 -84 t197 -30.5q106 0 182.5 23.5t128 74.5t77.5 134t26 202v790q-47 4 -93 11.5t-85 17.5v55h440v-55zM762 1503l-338 121l45 98l321 -149z" />
<glyph unicode="&#xda;" horiz-adv-x="1475" d="M1407 1327q-72 -18 -154 -29v-778q0 -130 -33 -230t-99.5 -168t-166.5 -103t-233 -35q-103 0 -182 18.5t-134.5 51.5t-91.5 77t-56 95.5t-28 107t-8 117.5v847q-82 11 -153 29v55h442v-55q-39 -10 -85 -17.5t-93 -11.5v-833q0 -85 17.5 -154t61.5 -122.5t123 -84 t197 -30.5q106 0 182.5 23.5t128 74.5t77.5 134t26 202v790q-47 4 -93 11.5t-85 17.5v55h440v-55zM677 1503l-28 70l321 149l45 -98z" />
<glyph unicode="&#xdb;" horiz-adv-x="1475" d="M1407 1327q-72 -18 -154 -29v-778q0 -130 -33 -230t-99.5 -168t-166.5 -103t-233 -35q-103 0 -182 18.5t-134.5 51.5t-91.5 77t-56 95.5t-28 107t-8 117.5v847q-82 11 -153 29v55h442v-55q-39 -10 -85 -17.5t-93 -11.5v-833q0 -85 17.5 -154t61.5 -122.5t123 -84 t197 -30.5q106 0 182.5 23.5t128 74.5t77.5 134t26 202v790q-47 4 -93 11.5t-85 17.5v55h440v-55zM1007 1499l-270 133l-272 -133l-39 74l313 168l309 -166z" />
<glyph unicode="&#xdc;" horiz-adv-x="1475" d="M1407 1327q-72 -18 -154 -29v-778q0 -130 -33 -230t-99.5 -168t-166.5 -103t-233 -35q-103 0 -182 18.5t-134.5 51.5t-91.5 77t-56 95.5t-28 107t-8 117.5v847q-82 11 -153 29v55h442v-55q-39 -10 -85 -17.5t-93 -11.5v-833q0 -85 17.5 -154t61.5 -122.5t123 -84 t197 -30.5q106 0 182.5 23.5t128 74.5t77.5 134t26 202v790q-47 4 -93 11.5t-85 17.5v55h440v-55zM1041 1589q0 -17 -6 -31.5t-17 -25.5t-25.5 -17t-31.5 -6t-31.5 6t-25.5 17t-17 25.5t-6 31.5t6 31.5t17 25.5t25.5 17t31.5 6t31.5 -6t25.5 -17t17 -25.5t6 -31.5zM607 1589 q0 -17 -6 -31.5t-17 -25.5t-25.5 -17t-31.5 -6t-31.5 6t-25.5 17t-17 25.5t-6 31.5t6 31.5t17 25.5t25.5 17t31.5 6t31.5 -6t25.5 -17t17 -25.5t6 -31.5z" />
<glyph unicode="&#xdd;" horiz-adv-x="1184" d="M1174 1327q-28 -8 -68.5 -15.5t-71.5 -11.5l-391 -794v-422q47 -3 93 -10.5t85 -18.5v-55h-467v55q40 11 86 18.5t92 10.5v422l-382 794q-31 4 -71.5 11.5t-68.5 15.5v55h443v-55q-40 -10 -86 -17.5t-93 -11.5l205 -448q20 -42 32.5 -70t26.5 -59l28 -62t26 -61h2 q12 31 27 64.5t30 65.5t39 82t29 60l199 428q-47 4 -93 11.5t-86 17.5v55h435v-55zM559 1503l-28 70l321 149l45 -98z" />
<glyph unicode="&#xde;" horiz-adv-x="1139" d="M1077 739q0 -104 -40 -190.5t-111.5 -148.5t-170.5 -96t-216 -34q-57 0 -104.5 3.5t-78.5 7.5v-197q47 -3 92.5 -10.5t86.5 -18.5v-55h-467v55q40 11 85.5 18.5t92.5 10.5v1214q-47 4 -92.5 11t-85.5 18v55h467v-55q-41 -11 -86.5 -18t-92.5 -11v-145q14 1 37 1.5t51.5 1 t60.5 1t64 0.5q141 0 238 -36t157 -95t86.5 -134t26.5 -153zM963 719q0 64 -20 126.5t-68 112t-128 79.5t-200 30h-103t-88 -2v-690q32 -5 83.5 -10t113.5 -5q107 0 184.5 29t127.5 78.5t74 114.5t24 137z" />
<glyph unicode="&#xdf;" horiz-adv-x="1257" d="M1176 301q0 -65 -23 -122.5t-69.5 -100.5t-116.5 -68.5t-164 -25.5q-44 0 -91 5t-87 13v268h63q9 -46 16.5 -93t12.5 -89q18 -5 44 -7.5t54 -2.5q71 0 119 17.5t77 46.5t41.5 65.5t12.5 75.5q0 48 -19.5 82.5t-51.5 60.5t-73 47t-83.5 42t-83.5 45t-73 56.5t-51.5 76.5 t-19.5 106t23.5 104.5t58 74t75.5 56.5t75.5 53t58 63t23.5 87q0 45 -19.5 78.5t-53 55.5t-78 33t-95.5 11q-78 0 -138 -22t-101.5 -70t-63 -124.5t-21.5 -186.5v-928q41 -3 83.5 -10.5t70.5 -18.5v-55h-440v55q40 11 85.5 18.5t92.5 10.5v844q-37 6 -88.5 11.5t-96.5 8.5 v56q38 5 86.5 8.5t98.5 5.5q0 109 25.5 198.5t79.5 153t138 98.5t201 35q83 0 146.5 -20t107 -54.5t66 -80t22.5 -97.5q0 -71 -23 -117.5t-57.5 -78.5t-75 -55.5t-75 -48.5t-57.5 -58t-23 -84q0 -61 33.5 -101t84.5 -70t109.5 -56.5t109.5 -62.5t84.5 -87.5t33.5 -130.5z " />
<glyph unicode="&#xe0;" horiz-adv-x="1077" d="M1032 14q-10 -1 -34.5 -4t-65.5 -6t-91 -4.5t-96 0.5q-1 92 4 151t9 80l-4 2q-19 -52 -53 -97t-81 -79.5t-105.5 -53.5t-123.5 -19q-62 0 -113.5 17.5t-88 51.5t-56.5 83.5t-20 111.5q0 80 44 142.5t126.5 104.5t199.5 63.5t262 21.5v92q0 68 -12.5 118t-41 85t-76.5 53 t-117 18q-78 0 -141 -13t-89 -22q-5 -55 -14 -111t-14 -83h-64v258q37 15 128 37t210 22q96 0 162 -24.5t105 -69t56 -105.5t17 -139v-606q22 -3 72 -9.5t106 -10.5v-56zM745 492q-129 0 -226.5 -14t-162.5 -42.5t-98 -72t-33 -101.5q0 -40 12.5 -74t36.5 -59t60 -39t82 -14 q71 0 132 33.5t105 91t68 129.5t24 145v17zM537 1190l-246 244l80 69l227 -258z" />
<glyph unicode="&#xe1;" horiz-adv-x="1077" d="M1032 14q-10 -1 -34.5 -4t-65.5 -6t-91 -4.5t-96 0.5q-1 92 4 151t9 80l-4 2q-19 -52 -53 -97t-81 -79.5t-105.5 -53.5t-123.5 -19q-62 0 -113.5 17.5t-88 51.5t-56.5 83.5t-20 111.5q0 80 44 142.5t126.5 104.5t199.5 63.5t262 21.5v92q0 68 -12.5 118t-41 85t-76.5 53 t-117 18q-78 0 -141 -13t-89 -22q-5 -55 -14 -111t-14 -83h-64v258q37 15 128 37t210 22q96 0 162 -24.5t105 -69t56 -105.5t17 -139v-606q22 -3 72 -9.5t106 -10.5v-56zM745 492q-129 0 -226.5 -14t-162.5 -42.5t-98 -72t-33 -101.5q0 -40 12.5 -74t36.5 -59t60 -39t82 -14 q71 0 132 33.5t105 91t68 129.5t24 145v17zM512 1186l-63 53l225 277l82 -68z" />
<glyph unicode="&#xe2;" horiz-adv-x="1077" d="M1032 14q-10 -1 -34.5 -4t-65.5 -6t-91 -4.5t-96 0.5q-1 92 4 151t9 80l-4 2q-19 -52 -53 -97t-81 -79.5t-105.5 -53.5t-123.5 -19q-62 0 -113.5 17.5t-88 51.5t-56.5 83.5t-20 111.5q0 80 44 142.5t126.5 104.5t199.5 63.5t262 21.5v92q0 68 -12.5 118t-41 85t-76.5 53 t-117 18q-78 0 -141 -13t-89 -22q-5 -55 -14 -111t-14 -83h-64v258q37 15 128 37t210 22q96 0 162 -24.5t105 -69t56 -105.5t17 -139v-606q22 -3 72 -9.5t106 -10.5v-56zM745 492q-129 0 -226.5 -14t-162.5 -42.5t-98 -72t-33 -101.5q0 -40 12.5 -74t36.5 -59t60 -39t82 -14 q71 0 132 33.5t105 91t68 129.5t24 145v17zM712 1190l-198 180l-201 -180l-55 55l258 258l254 -256z" />
<glyph unicode="&#xe3;" horiz-adv-x="1077" d="M1032 14q-10 -1 -34.5 -4t-65.5 -6t-91 -4.5t-96 0.5q-1 92 4 151t9 80l-4 2q-19 -52 -53 -97t-81 -79.5t-105.5 -53.5t-123.5 -19q-62 0 -113.5 17.5t-88 51.5t-56.5 83.5t-20 111.5q0 80 44 142.5t126.5 104.5t199.5 63.5t262 21.5v92q0 68 -12.5 118t-41 85t-76.5 53 t-117 18q-78 0 -141 -13t-89 -22q-5 -55 -14 -111t-14 -83h-64v258q37 15 128 37t210 22q96 0 162 -24.5t105 -69t56 -105.5t17 -139v-606q22 -3 72 -9.5t106 -10.5v-56zM745 492q-129 0 -226.5 -14t-162.5 -42.5t-98 -72t-33 -101.5q0 -40 12.5 -74t36.5 -59t60 -39t82 -14 q71 0 132 33.5t105 91t68 129.5t24 145v17zM836 1382q-36 -65 -86.5 -100t-111.5 -35q-44 0 -78 15.5t-75 46t-64.5 44t-53.5 13.5q-34 0 -68 -25t-63 -73l-59 49q35 65 86.5 100t111.5 35q44 0 78.5 -15.5t75 -46t64 -44t53.5 -13.5q34 0 68 25t63 74z" />
<glyph unicode="&#xe4;" horiz-adv-x="1077" d="M1032 14q-10 -1 -34.5 -4t-65.5 -6t-91 -4.5t-96 0.5q-1 92 4 151t9 80l-4 2q-19 -52 -53 -97t-81 -79.5t-105.5 -53.5t-123.5 -19q-62 0 -113.5 17.5t-88 51.5t-56.5 83.5t-20 111.5q0 80 44 142.5t126.5 104.5t199.5 63.5t262 21.5v92q0 68 -12.5 118t-41 85t-76.5 53 t-117 18q-78 0 -141 -13t-89 -22q-5 -55 -14 -111t-14 -83h-64v258q37 15 128 37t210 22q96 0 162 -24.5t105 -69t56 -105.5t17 -139v-606q22 -3 72 -9.5t106 -10.5v-56zM745 492q-129 0 -226.5 -14t-162.5 -42.5t-98 -72t-33 -101.5q0 -40 12.5 -74t36.5 -59t60 -39t82 -14 q71 0 132 33.5t105 91t68 129.5t24 145v17zM776 1352q0 -17 -6 -31.5t-17 -25.5t-25.5 -17t-31.5 -6t-31.5 6t-25 17t-16.5 25.5t-6 31.5t6 31.5t16.5 25.5t25 17t31.5 6t31.5 -6t25.5 -17t17 -25.5t6 -31.5zM404 1352q0 -17 -6 -31.5t-17 -25.5t-25.5 -17t-31.5 -6t-31.5 6 t-25.5 17t-17 25.5t-6 31.5t6 31.5t17 25.5t25.5 17t31.5 6t31.5 -6t25.5 -17t17 -25.5t6 -31.5z" />
<glyph unicode="&#xe5;" horiz-adv-x="1077" d="M1032 14q-10 -1 -34.5 -4t-65.5 -6t-91 -4.5t-96 0.5q-1 92 4 151t9 80l-4 2q-19 -52 -53 -97t-81 -79.5t-105.5 -53.5t-123.5 -19q-62 0 -113.5 17.5t-88 51.5t-56.5 83.5t-20 111.5q0 80 44 142.5t126.5 104.5t199.5 63.5t262 21.5v92q0 68 -12.5 118t-41 85t-76.5 53 t-117 18q-78 0 -141 -13t-89 -22q-5 -55 -14 -111t-14 -83h-64v258q37 15 128 37t210 22q96 0 162 -24.5t105 -69t56 -105.5t17 -139v-606q22 -3 72 -9.5t106 -10.5v-56zM745 492q-129 0 -226.5 -14t-162.5 -42.5t-98 -72t-33 -101.5q0 -40 12.5 -74t36.5 -59t60 -39t82 -14 q71 0 132 33.5t105 91t68 129.5t24 145v17zM729 1359q0 -42 -14.5 -78.5t-42 -65t-68 -44.5t-90.5 -16q-45 0 -81.5 12.5t-62.5 37t-40 61.5t-14 85q0 42 14.5 79t42 65.5t68 44.5t90.5 16q46 0 82.5 -12.5t62.5 -37t39.5 -61.5t13.5 -86zM633 1355q0 29 -7.5 52t-21.5 39 t-34.5 24t-46.5 8q-22 0 -41.5 -7.5t-35.5 -22.5t-25 -38.5t-9 -54.5q0 -29 7.5 -51.5t22 -38.5t35 -24t46.5 -8q21 0 41 7t35.5 22t24.5 38.5t9 54.5z" />
<glyph unicode="&#xe6;" horiz-adv-x="1665" d="M1556 631q0 -19 -1 -40.5t-2.5 -39t-2.5 -28.5t-2 -15h-694q-1 -108 20.5 -188.5t65.5 -134t111.5 -80.5t158.5 -27q74 0 147 13.5t148 41.5l21 -88q-84 -29 -165.5 -45t-166.5 -16q-88 0 -157 18.5t-119 52.5t-82.5 81t-49.5 106h-2q-21 -49 -58 -95t-88 -83t-114 -58.5 t-133 -21.5q-62 0 -113.5 17.5t-88 51.5t-56.5 83.5t-20 111.5q0 73 40.5 136t120.5 111t199 74.5t272 26.5v76q0 68 -12.5 118t-41 85t-76.5 53t-117 18q-78 0 -141 -13t-89 -22q-5 -55 -14 -111t-14 -83h-64v258q37 15 128 37t210 22q62 0 112 -10.5t90 -32.5t69 -56.5 t46 -82.5h3q22 38 55 71t76 58t95 39t111 14q100 0 173.5 -32t120.5 -88t69 -128t22 -155zM1438 594q5 76 -9 140.5t-48.5 112t-89 73.5t-128.5 26q-70 0 -126.5 -28t-95 -77.5t-60 -113t-25.5 -133.5h582zM745 508q-145 0 -246.5 -20.5t-161.5 -55.5t-86 -78t-26 -92 q0 -40 12.5 -74t36.5 -59t60 -39t82 -14q71 0 132 33.5t105 91t68 129.5t24 145v33z" />
<glyph unicode="&#xe7;" horiz-adv-x="913" d="M852 49q-26 -11 -60.5 -22t-76 -20t-87 -14t-91.5 -5q-57 0 -109 8.5t-101 29t-90.5 56.5t-72.5 90.5t-48.5 131t-17.5 175.5q0 126 31 227.5t92 174t151 111t206 38.5q65 0 132 -10t121 -27v-266h-63q-6 25 -16 80.5t-15 114.5q-20 6 -69 14t-109 8q-84 0 -149 -32.5 t-109 -91.5t-66 -139t-22 -175t15.5 -171t53.5 -133.5t105 -89.5t166 -32q68 0 142 16t132 41zM555 -84q38 -48 52.5 -95.5t7 -96t-34.5 -99.5t-72 -108h-102q45 59 70 103t32 83t-6 78t-49 82z" />
<glyph unicode="&#xe8;" horiz-adv-x="1026" d="M918 627q0 -17 -0.5 -33t-1 -28.5t-1 -19t-0.5 -9.5h-702q-2 -119 19.5 -206t66.5 -143t113 -83t159 -27q74 0 147 13.5t148 41.5l21 -88q-84 -29 -165.5 -45t-166.5 -16q-113 0 -198 31.5t-143 96t-87 163t-29 231.5q0 113 29.5 210t86 168.5t137.5 110.5t181 39 t174 -32t120.5 -88.5t69 -129.5t22.5 -157zM801 623q1 76 -17 136t-54.5 102t-88.5 63.5t-117 21.5q-59 0 -110 -21t-91.5 -62t-67 -101.5t-36.5 -138.5h582zM541 1190l-246 244l80 69l227 -258z" />
<glyph unicode="&#xe9;" horiz-adv-x="1026" d="M918 627q0 -17 -0.5 -33t-1 -28.5t-1 -19t-0.5 -9.5h-702q-2 -119 19.5 -206t66.5 -143t113 -83t159 -27q74 0 147 13.5t148 41.5l21 -88q-84 -29 -165.5 -45t-166.5 -16q-113 0 -198 31.5t-143 96t-87 163t-29 231.5q0 113 29.5 210t86 168.5t137.5 110.5t181 39 t174 -32t120.5 -88.5t69 -129.5t22.5 -157zM801 623q1 76 -17 136t-54.5 102t-88.5 63.5t-117 21.5q-59 0 -110 -21t-91.5 -62t-67 -101.5t-36.5 -138.5h582zM522 1186l-63 53l225 277l82 -68z" />
<glyph unicode="&#xea;" horiz-adv-x="1026" d="M918 627q0 -17 -0.5 -33t-1 -28.5t-1 -19t-0.5 -9.5h-702q-2 -119 19.5 -206t66.5 -143t113 -83t159 -27q74 0 147 13.5t148 41.5l21 -88q-84 -29 -165.5 -45t-166.5 -16q-113 0 -198 31.5t-143 96t-87 163t-29 231.5q0 113 29.5 210t86 168.5t137.5 110.5t181 39 t174 -32t120.5 -88.5t69 -129.5t22.5 -157zM801 623q1 76 -17 136t-54.5 102t-88.5 63.5t-117 21.5q-59 0 -110 -21t-91.5 -62t-67 -101.5t-36.5 -138.5h582zM727 1190l-198 180l-201 -180l-55 55l258 258l254 -256z" />
<glyph unicode="&#xeb;" horiz-adv-x="1026" d="M918 627q0 -17 -0.5 -33t-1 -28.5t-1 -19t-0.5 -9.5h-702q-2 -119 19.5 -206t66.5 -143t113 -83t159 -27q74 0 147 13.5t148 41.5l21 -88q-84 -29 -165.5 -45t-166.5 -16q-113 0 -198 31.5t-143 96t-87 163t-29 231.5q0 113 29.5 210t86 168.5t137.5 110.5t181 39 t174 -32t120.5 -88.5t69 -129.5t22.5 -157zM801 623q1 76 -17 136t-54.5 102t-88.5 63.5t-117 21.5q-59 0 -110 -21t-91.5 -62t-67 -101.5t-36.5 -138.5h582zM794 1352q0 -17 -6 -31.5t-17 -25.5t-25.5 -17t-31.5 -6t-31.5 6t-25 17t-16.5 25.5t-6 31.5t6 31.5t16.5 25.5 t25 17t31.5 6t31.5 -6t25.5 -17t17 -25.5t6 -31.5zM422 1352q0 -17 -6 -31.5t-17 -25.5t-25.5 -17t-31.5 -6t-31.5 6t-25.5 17t-17 25.5t-6 31.5t6 31.5t17 25.5t25.5 17t31.5 6t31.5 -6t25.5 -17t17 -25.5t6 -31.5z" />
<glyph unicode="&#xec;" horiz-adv-x="580" d="M68 0v55q40 11 85.5 18.5t92.5 10.5v844q-37 6 -85 11.5t-93 8.5v56q28 4 64 7t74.5 5t77 2.5t70.5 -0.5v-934q47 -3 92.5 -10.5t85.5 -18.5v-55h-464zM317 1190l-246 244l80 69l227 -258z" />
<glyph unicode="&#xed;" horiz-adv-x="580" d="M68 0v55q40 11 85.5 18.5t92.5 10.5v844q-37 6 -85 11.5t-93 8.5v56q28 4 64 7t74.5 5t77 2.5t70.5 -0.5v-934q47 -3 92.5 -10.5t85.5 -18.5v-55h-464zM274 1186l-63 53l225 277l82 -68z" />
<glyph unicode="&#xee;" horiz-adv-x="580" d="M68 0v55q40 11 85.5 18.5t92.5 10.5v844q-37 6 -85 11.5t-93 8.5v56q28 4 64 7t74.5 5t77 2.5t70.5 -0.5v-934q47 -3 92.5 -10.5t85.5 -18.5v-55h-464zM494 1190l-198 180l-201 -180l-55 55l258 258l254 -256z" />
<glyph unicode="&#xef;" horiz-adv-x="580" d="M68 0v55q40 11 85.5 18.5t92.5 10.5v844q-37 6 -85 11.5t-93 8.5v56q28 4 64 7t74.5 5t77 2.5t70.5 -0.5v-934q47 -3 92.5 -10.5t85.5 -18.5v-55h-464zM531 1352q0 -17 -6 -31.5t-17 -25.5t-25.5 -17t-31.5 -6t-31.5 6t-25.5 17t-17 25.5t-6 31.5t6 31.5t17 25.5t25.5 17 t31.5 6t31.5 -6t25.5 -17t17 -25.5t6 -31.5zM193 1352q0 -17 -6 -31.5t-17 -25.5t-25.5 -17t-31.5 -6t-31.5 6t-25.5 17t-17 25.5t-6 31.5t6 31.5t17 25.5t25.5 17t31.5 6t31.5 -6t25.5 -17t17 -25.5t6 -31.5z" />
<glyph unicode="&#xf0;" horiz-adv-x="1102" d="M1001 549q0 -144 -35.5 -250.5t-97.5 -176.5t-147 -104t-184 -34q-100 0 -182 32t-140 97t-89.5 163.5t-31.5 231.5q0 105 30.5 200.5t90.5 167.5t148 115t202 43q40 0 79.5 -7t75 -21.5t64.5 -38t47 -56.5q-20 42 -41 76t-30 51q-29 53 -66 103.5t-88 105.5l-227 -102 l-51 69l215 97q-37 35 -81.5 72t-96.5 79l114 49q45 -35 86.5 -73t81.5 -80l227 100l52 -69l-219 -97q68 -81 122.5 -169t92.5 -182t58.5 -192.5t20.5 -199.5zM889 535q0 93 -21.5 169t-64 130t-105.5 83t-147 29q-66 0 -128 -25.5t-110 -78t-77 -134t-29 -192.5 q0 -105 24 -187t69.5 -139t111 -86.5t147.5 -29.5q66 0 126 25t105 80t72 143t27 213z" />
<glyph unicode="&#xf1;" horiz-adv-x="1245" d="M915 0v662q0 67 -10.5 120t-35.5 89.5t-67 55.5t-106 19q-76 0 -139 -34t-108 -95.5t-70 -146t-25 -185.5v-401q47 -3 92.5 -10.5t85.5 -18.5v-55h-464v55q40 11 85.5 18.5t92.5 10.5v844q-37 6 -85 11.5t-93 8.5v56q28 4 64 7t75 5t78 2.5t73 -0.5q0 -28 -1 -60 t-3.5 -65t-6 -64.5t-7.5 -56.5l4 -2q21 60 56.5 108.5t83 83t106.5 53.5t127 19q88 0 147 -25.5t94.5 -70t50.5 -104t15 -127.5v-623q46 -3 91 -10.5t85 -18.5v-55h-285zM954 1382q-36 -65 -86.5 -100t-111.5 -35q-44 0 -78 15.5t-75 46t-64.5 44t-53.5 13.5q-34 0 -68 -25 t-63 -73l-59 49q35 65 86.5 100t111.5 35q44 0 78.5 -15.5t75 -46t64 -44t53.5 -13.5q34 0 68 25t63 74z" />
<glyph unicode="&#xf2;" horiz-adv-x="1106" d="M1008 516q0 -112 -30 -208.5t-90 -169.5t-148.5 -113.5t-202.5 -40.5q-100 0 -181 32t-138.5 96.5t-88.5 162.5t-31 227q0 112 30 208.5t90 169.5t148.5 113.5t202.5 40.5q100 0 181 -32t138.5 -96.5t88.5 -162.5t31 -227zM895 510q0 103 -23 184t-67.5 137.5 t-107.5 85.5t-142 29q-78 0 -141.5 -28t-109 -83.5t-69.5 -137.5t-24 -189q0 -103 23 -184t67.5 -136.5t107.5 -84.5t142 -29q74 0 136 26t109 79.5t73 136.5t26 194zM582 1190l-246 244l80 69l227 -258z" />
<glyph unicode="&#xf3;" horiz-adv-x="1106" d="M1008 516q0 -112 -30 -208.5t-90 -169.5t-148.5 -113.5t-202.5 -40.5q-100 0 -181 32t-138.5 96.5t-88.5 162.5t-31 227q0 112 30 208.5t90 169.5t148.5 113.5t202.5 40.5q100 0 181 -32t138.5 -96.5t88.5 -162.5t31 -227zM895 510q0 103 -23 184t-67.5 137.5 t-107.5 85.5t-142 29q-78 0 -141.5 -28t-109 -83.5t-69.5 -137.5t-24 -189q0 -103 23 -184t67.5 -136.5t107.5 -84.5t142 -29q74 0 136 26t109 79.5t73 136.5t26 194zM555 1186l-63 53l225 277l82 -68z" />
<glyph unicode="&#xf4;" horiz-adv-x="1106" d="M1008 516q0 -112 -30 -208.5t-90 -169.5t-148.5 -113.5t-202.5 -40.5q-100 0 -181 32t-138.5 96.5t-88.5 162.5t-31 227q0 112 30 208.5t90 169.5t148.5 113.5t202.5 40.5q100 0 181 -32t138.5 -96.5t88.5 -162.5t31 -227zM895 510q0 103 -23 184t-67.5 137.5 t-107.5 85.5t-142 29q-78 0 -141.5 -28t-109 -83.5t-69.5 -137.5t-24 -189q0 -103 23 -184t67.5 -136.5t107.5 -84.5t142 -29q74 0 136 26t109 79.5t73 136.5t26 194zM747 1190l-198 180l-201 -180l-55 55l258 258l254 -256z" />
<glyph unicode="&#xf5;" horiz-adv-x="1106" d="M1008 516q0 -112 -30 -208.5t-90 -169.5t-148.5 -113.5t-202.5 -40.5q-100 0 -181 32t-138.5 96.5t-88.5 162.5t-31 227q0 112 30 208.5t90 169.5t148.5 113.5t202.5 40.5q100 0 181 -32t138.5 -96.5t88.5 -162.5t31 -227zM895 510q0 103 -23 184t-67.5 137.5 t-107.5 85.5t-142 29q-78 0 -141.5 -28t-109 -83.5t-69.5 -137.5t-24 -189q0 -103 23 -184t67.5 -136.5t107.5 -84.5t142 -29q74 0 136 26t109 79.5t73 136.5t26 194zM887 1382q-36 -65 -86.5 -100t-111.5 -35q-44 0 -78 15.5t-75 46t-64.5 44t-53.5 13.5q-34 0 -68 -25 t-63 -73l-59 49q35 65 86.5 100t111.5 35q44 0 78.5 -15.5t75 -46t64 -44t53.5 -13.5q34 0 68 25t63 74z" />
<glyph unicode="&#xf6;" horiz-adv-x="1106" d="M1008 516q0 -112 -30 -208.5t-90 -169.5t-148.5 -113.5t-202.5 -40.5q-100 0 -181 32t-138.5 96.5t-88.5 162.5t-31 227q0 112 30 208.5t90 169.5t148.5 113.5t202.5 40.5q100 0 181 -32t138.5 -96.5t88.5 -162.5t31 -227zM895 510q0 103 -23 184t-67.5 137.5 t-107.5 85.5t-142 29q-78 0 -141.5 -28t-109 -83.5t-69.5 -137.5t-24 -189q0 -103 23 -184t67.5 -136.5t107.5 -84.5t142 -29q74 0 136 26t109 79.5t73 136.5t26 194zM819 1352q0 -17 -6 -31.5t-17 -25.5t-25.5 -17t-31.5 -6t-31.5 6t-25 17t-16.5 25.5t-6 31.5t6 31.5 t16.5 25.5t25 17t31.5 6t31.5 -6t25.5 -17t17 -25.5t6 -31.5zM447 1352q0 -17 -6 -31.5t-17 -25.5t-25.5 -17t-31.5 -6t-31.5 6t-25.5 17t-17 25.5t-6 31.5t6 31.5t17 25.5t25.5 17t31.5 6t31.5 -6t25.5 -17t17 -25.5t6 -31.5z" />
<glyph unicode="&#xf7;" d="M647 1020q0 -18 -7 -34t-19 -28t-28 -19t-34 -7t-34 7t-28 19t-19 28t-7 34t7 34t19 28t28 19t34 7t34 -7t28 -19t19 -28t7 -34zM92 563v92h942v-92h-942zM647 195q0 -19 -7 -35t-19 -28t-28 -19t-34 -7t-34 7t-28 19t-19 28t-7 35q0 18 7 34t19 28t28 19t34 7t34 -7 t28 -19t19 -28t7 -34z" />
<glyph unicode="&#xf8;" horiz-adv-x="1106" d="M1008 518q0 -108 -30.5 -205t-90 -170t-147 -116t-201.5 -43q-42 0 -80 5.5t-72 16.5l-82 -215l-88 31l86 221q-55 34 -94 83t-63.5 109t-36 127.5t-11.5 137.5q0 108 30.5 205t90.5 170t148 116t202 43q26 0 53.5 -2.5t53.5 -7.5l74 193l88 -31l-74 -191 q51 -24 95.5 -63t77.5 -97t52 -136.5t19 -180.5zM897 512q0 149 -41.5 247t-126.5 146l-307 -809q29 -12 64 -18t73 -6q64 0 125 25.5t108.5 79.5t76 137t28.5 198zM643 938q-22 5 -44 7.5t-44 2.5q-68 0 -130.5 -26t-110.5 -80t-76.5 -137.5t-28.5 -198.5q0 -58 8.5 -111.5 t25 -100t41.5 -84.5t58 -65z" />
<glyph unicode="&#xf9;" horiz-adv-x="1229" d="M1182 14q-29 -4 -65.5 -7t-76 -5t-78 -2.5t-71.5 0.5q0 28 1 60.5t3.5 65.5t6 64t7.5 56l-4 2q-21 -60 -56.5 -109t-83 -83.5t-106.5 -53t-127 -18.5q-85 0 -145 24.5t-95.5 69t-51 103t-15.5 130.5v617q-37 6 -85.5 11.5t-92.5 8.5v56q29 4 65 7t75 5t77 2.5t70 -0.5 v-662q0 -70 10.5 -122t35.5 -88.5t67.5 -55t105.5 -18.5q75 0 138 33.5t109 95.5t70.5 147t24.5 184v396q-37 6 -85.5 11.5t-92.5 8.5v56q29 4 65 7t75 5t77 2.5t70 -0.5v-928q38 -6 86 -11.5t92 -8.5v-56zM623 1190l-246 244l80 69l227 -258z" />
<glyph unicode="&#xfa;" horiz-adv-x="1229" d="M1182 14q-29 -4 -65.5 -7t-76 -5t-78 -2.5t-71.5 0.5q0 28 1 60.5t3.5 65.5t6 64t7.5 56l-4 2q-21 -60 -56.5 -109t-83 -83.5t-106.5 -53t-127 -18.5q-85 0 -145 24.5t-95.5 69t-51 103t-15.5 130.5v617q-37 6 -85.5 11.5t-92.5 8.5v56q29 4 65 7t75 5t77 2.5t70 -0.5 v-662q0 -70 10.5 -122t35.5 -88.5t67.5 -55t105.5 -18.5q75 0 138 33.5t109 95.5t70.5 147t24.5 184v396q-37 6 -85.5 11.5t-92.5 8.5v56q29 4 65 7t75 5t77 2.5t70 -0.5v-928q38 -6 86 -11.5t92 -8.5v-56zM612 1186l-63 53l225 277l82 -68z" />
<glyph unicode="&#xfb;" horiz-adv-x="1229" d="M1182 14q-29 -4 -65.5 -7t-76 -5t-78 -2.5t-71.5 0.5q0 28 1 60.5t3.5 65.5t6 64t7.5 56l-4 2q-21 -60 -56.5 -109t-83 -83.5t-106.5 -53t-127 -18.5q-85 0 -145 24.5t-95.5 69t-51 103t-15.5 130.5v617q-37 6 -85.5 11.5t-92.5 8.5v56q29 4 65 7t75 5t77 2.5t70 -0.5 v-662q0 -70 10.5 -122t35.5 -88.5t67.5 -55t105.5 -18.5q75 0 138 33.5t109 95.5t70.5 147t24.5 184v396q-37 6 -85.5 11.5t-92.5 8.5v56q29 4 65 7t75 5t77 2.5t70 -0.5v-928q38 -6 86 -11.5t92 -8.5v-56zM806 1190l-198 180l-201 -180l-55 55l258 258l254 -256z" />
<glyph unicode="&#xfc;" horiz-adv-x="1229" d="M1182 14q-29 -4 -65.5 -7t-76 -5t-78 -2.5t-71.5 0.5q0 28 1 60.5t3.5 65.5t6 64t7.5 56l-4 2q-21 -60 -56.5 -109t-83 -83.5t-106.5 -53t-127 -18.5q-85 0 -145 24.5t-95.5 69t-51 103t-15.5 130.5v617q-37 6 -85.5 11.5t-92.5 8.5v56q29 4 65 7t75 5t77 2.5t70 -0.5 v-662q0 -70 10.5 -122t35.5 -88.5t67.5 -55t105.5 -18.5q75 0 138 33.5t109 95.5t70.5 147t24.5 184v396q-37 6 -85.5 11.5t-92.5 8.5v56q29 4 65 7t75 5t77 2.5t70 -0.5v-928q38 -6 86 -11.5t92 -8.5v-56zM874 1352q0 -17 -6 -31.5t-17 -25.5t-25.5 -17t-31.5 -6t-31.5 6 t-25 17t-16.5 25.5t-6 31.5t6 31.5t16.5 25.5t25 17t31.5 6t31.5 -6t25.5 -17t17 -25.5t6 -31.5zM502 1352q0 -17 -6 -31.5t-17 -25.5t-25.5 -17t-31.5 -6t-31.5 6t-25.5 17t-17 25.5t-6 31.5t6 31.5t17 25.5t25.5 17t31.5 6t31.5 -6t25.5 -17t17 -25.5t6 -31.5z" />
<glyph unicode="&#xfd;" horiz-adv-x="1139" d="M1128 963q-34 -10 -72.5 -17t-76.5 -12l-395 -1047q-44 -117 -84.5 -197t-87.5 -129.5t-106.5 -71t-141.5 -21.5q-13 0 -28.5 0.5t-31.5 2t-32 3.5t-31 4l14 104q29 -9 60 -13.5t63 -4.5q51 0 90 14t72.5 48.5t64.5 93.5t66 149l51 131h-18l-344 934q-38 5 -77 12t-73 17 v55h443v-55q-34 -11 -76 -18.5t-88 -10.5l205 -588q24 -72 42 -127t35 -108h2q6 21 17 53t25 72.5t30 86t33 93.5l182 518q-46 3 -88 10.5t-76 18.5v55h432v-55v0zM557 1186l-63 53l225 277l82 -68z" />
<glyph unicode="&#xfe;" horiz-adv-x="1143" d="M1040 553q0 -139 -37 -244.5t-104.5 -176t-162.5 -106.5t-210 -36q-29 0 -55 0.5t-51.5 2t-51.5 4t-55 7.5v-436q47 -3 92.5 -10.5t86.5 -18.5v-55h-465v55q40 11 85.5 18.5t92.5 10.5v1837q-37 6 -85 11.5t-93 8.5v56q28 4 64 7t74.5 5t77 2.5t70.5 -0.5v-477 q0 -31 -0.5 -64t-2.5 -66t-5.5 -64.5t-9.5 -59.5l4 -2q22 64 58.5 115t84 85.5t104 53t118.5 18.5q89 0 159 -30t118 -90t73.5 -150.5t25.5 -210.5zM926 545q0 93 -16.5 167.5t-50 126t-85.5 79.5t-123 28q-58 0 -105.5 -21t-85 -56t-65 -81t-46 -96.5t-27.5 -102t-9 -97.5 v-386q51 -17 106 -23.5t120 -6.5q88 0 159.5 27t122 84t78 145.5t27.5 212.5z" />
<glyph unicode="&#xff;" horiz-adv-x="1139" d="M1128 963q-34 -10 -72.5 -17t-76.5 -12l-395 -1047q-44 -117 -84.5 -197t-87.5 -129.5t-106.5 -71t-141.5 -21.5q-13 0 -28.5 0.5t-31.5 2t-32 3.5t-31 4l14 104q29 -9 60 -13.5t63 -4.5q51 0 90 14t72.5 48.5t64.5 93.5t66 149l51 131h-18l-344 934q-38 5 -77 12t-73 17 v55h443v-55q-34 -11 -76 -18.5t-88 -10.5l205 -588q24 -72 42 -127t35 -108h2q6 21 17 53t25 72.5t30 86t33 93.5l182 518q-46 3 -88 10.5t-76 18.5v55h432v-55v0zM829 1352q0 -17 -6 -31.5t-17 -25.5t-25.5 -17t-31.5 -6t-31.5 6t-25 17t-16.5 25.5t-6 31.5t6 31.5 t16.5 25.5t25 17t31.5 6t31.5 -6t25.5 -17t17 -25.5t6 -31.5zM457 1352q0 -17 -6 -31.5t-17 -25.5t-25.5 -17t-31.5 -6t-31.5 6t-25.5 17t-17 25.5t-6 31.5t6 31.5t17 25.5t25.5 17t31.5 6t31.5 -6t25.5 -17t17 -25.5t6 -31.5z" />
<glyph unicode="&#x100;" horiz-adv-x="1403" d="M948 0v55q40 11 86 18.5t92 10.5l-102 278h-653l-103 -278q47 -3 92.5 -10.5t85.5 -18.5v-55h-436v55q28 8 68.5 16t71.5 11l495 1300h117l491 -1300q31 -3 71.5 -11t68.5 -16v-55h-445zM762 1077q-19 51 -34.5 94.5t-29.5 90.5h-2q-14 -44 -29 -89.5t-32 -93.5 l-232 -626h588zM436 1546v88h530v-88h-530z" />
<glyph unicode="&#x101;" horiz-adv-x="1077" d="M1032 14q-10 -1 -34.5 -4t-65.5 -6t-91 -4.5t-96 0.5q-1 92 4 151t9 80l-4 2q-19 -52 -53 -97t-81 -79.5t-105.5 -53.5t-123.5 -19q-62 0 -113.5 17.5t-88 51.5t-56.5 83.5t-20 111.5q0 80 44 142.5t126.5 104.5t199.5 63.5t262 21.5v92q0 68 -12.5 118t-41 85t-76.5 53 t-117 18q-78 0 -141 -13t-89 -22q-5 -55 -14 -111t-14 -83h-64v258q37 15 128 37t210 22q96 0 162 -24.5t105 -69t56 -105.5t17 -139v-606q22 -3 72 -9.5t106 -10.5v-56zM745 492q-129 0 -226.5 -14t-162.5 -42.5t-98 -72t-33 -101.5q0 -40 12.5 -74t36.5 -59t60 -39t82 -14 q71 0 132 33.5t105 91t68 129.5t24 145v17zM275 1296v86h481v-86h-481z" />
<glyph unicode="&#x102;" horiz-adv-x="1403" d="M948 0v55q40 11 86 18.5t92 10.5l-102 278h-653l-103 -278q47 -3 92.5 -10.5t85.5 -18.5v-55h-436v55q28 8 68.5 16t71.5 11l495 1300h117l491 -1300q31 -3 71.5 -11t68.5 -16v-55h-445zM762 1077q-19 51 -34.5 94.5t-29.5 90.5h-2q-14 -44 -29 -89.5t-32 -93.5 l-232 -626h588zM942 1731q0 -48 -17 -89t-49.5 -70.5t-77.5 -46t-100 -16.5q-57 0 -102 17t-75 47.5t-45 70.5t-15 87h82q0 -27 11.5 -51.5t32.5 -43t50 -29t63 -10.5q36 0 65 10.5t50 28.5t32 42.5t11 52.5h84z" />
<glyph unicode="&#x103;" horiz-adv-x="1077" d="M1032 14q-10 -1 -34.5 -4t-65.5 -6t-91 -4.5t-96 0.5q-1 92 4 151t9 80l-4 2q-19 -52 -53 -97t-81 -79.5t-105.5 -53.5t-123.5 -19q-62 0 -113.5 17.5t-88 51.5t-56.5 83.5t-20 111.5q0 80 44 142.5t126.5 104.5t199.5 63.5t262 21.5v92q0 68 -12.5 118t-41 85t-76.5 53 t-117 18q-78 0 -141 -13t-89 -22q-5 -55 -14 -111t-14 -83h-64v258q37 15 128 37t210 22q96 0 162 -24.5t105 -69t56 -105.5t17 -139v-606q22 -3 72 -9.5t106 -10.5v-56zM745 492q-129 0 -226.5 -14t-162.5 -42.5t-98 -72t-33 -101.5q0 -40 12.5 -74t36.5 -59t60 -39t82 -14 q71 0 132 33.5t105 91t68 129.5t24 145v17zM754 1464q0 -48 -14.5 -90.5t-43.5 -75.5t-74 -52t-104 -19t-102.5 19t-71.5 52t-41.5 75.5t-13.5 90.5h82q0 -30 9.5 -56.5t28.5 -47.5t47 -33t64 -12q69 0 109.5 40t40.5 109h84z" />
<glyph unicode="&#x104;" horiz-adv-x="1403" d="M1241 0q-48 -31 -83.5 -62t-59 -61.5t-34.5 -60t-11 -56.5q0 -37 18.5 -54t52.5 -17q48 0 90 67l62 -43q-32 -60 -82 -92.5t-109 -32.5q-35 0 -63 9t-47.5 26.5t-30 43.5t-10.5 61q0 31 10.5 65.5t32.5 70.5t55.5 70.5t79.5 65.5h-164v55q40 11 86 18.5t92 10.5l-102 278 h-653l-103 -278q47 -3 92.5 -10.5t85.5 -18.5v-55h-436v55q28 8 68.5 16t71.5 11l495 1300h117l491 -1300q31 -3 71.5 -11t68.5 -16v-55h-152zM762 1077q-19 51 -34.5 94.5t-29.5 90.5h-2q-14 -44 -29 -89.5t-32 -93.5l-232 -626h588z" />
<glyph unicode="&#x105;" horiz-adv-x="1077" d="M1032 14q-23 -2 -42 -3.5t-48 -6.5q-45 -7 -88 -32t-77.5 -59.5t-55.5 -75t-21 -77.5t19 -54t53 -17q12 0 23.5 4t22.5 12.5t22 21t22 29.5l62 -43q-16 -30 -37 -53.5t-45.5 -39t-52 -24t-56.5 -8.5q-35 0 -63 9t-47.5 26.5t-30 43.5t-10.5 61q0 46 17 87t44.5 77 t62.5 65.5t70 52.5q-8 53 -12.5 111t-1.5 106l-4 2q-21 -50 -56 -94.5t-82.5 -78t-106 -53t-126.5 -19.5q-58 0 -108 17.5t-87 51t-58 81.5t-21 110q0 73 40 135t119 106.5t197.5 69.5t275.5 25v92q0 65 -12 116t-41 86t-76.5 53.5t-117.5 18.5q-54 0 -115 -9t-115 -26 q-5 -46 -12 -94.5t-16 -99.5h-64v258q71 26 159 42.5t179 16.5q100 0 165.5 -25t104.5 -68.5t54.5 -102.5t15.5 -127v-326q0 -36 1.5 -75t4 -78t6 -76.5t8.5 -69.5q22 -3 41.5 -5.5t38.5 -4t38 -3.5t40 -3v-56zM745 492q-151 0 -251 -19t-160 -50.5t-84.5 -72.5t-24.5 -86 q0 -41 13.5 -75t38 -59.5t59 -39.5t76.5 -14q75 0 136.5 35t105 91t67.5 127.5t24 145.5v17z" />
<glyph unicode="&#x106;" horiz-adv-x="1229" d="M1128 72q-41 -18 -87 -34t-97 -28t-105.5 -19t-111.5 -7q-151 0 -267.5 46.5t-195.5 134.5t-119.5 214.5t-40.5 286.5q0 153 39 286.5t120 232.5t205 156.5t294 57.5q91 0 175 -12.5t163 -32.5v-279h-66q-11 56 -17 105t-11 94q-70 18 -135 26.5t-130 8.5 q-138 0 -237 -50.5t-162 -136.5t-93 -199.5t-30 -238.5q0 -140 33.5 -252t100.5 -191t166 -121t231 -42q48 0 96.5 6t93.5 16.5t86 25t76 32.5l26 -86v0zM684 1503l-28 70l321 149l45 -98z" />
<glyph unicode="&#x107;" horiz-adv-x="913" d="M852 49q-26 -11 -60.5 -22t-76 -20t-87 -14t-91.5 -5q-57 0 -109 8.5t-101 29t-90.5 56.5t-72.5 90.5t-48.5 131t-17.5 175.5q0 126 31 227.5t92 174t151 111t206 38.5q65 0 132 -10t121 -27v-266h-63q-6 25 -16 80.5t-15 114.5q-20 6 -69 14t-109 8q-84 0 -149 -32.5 t-109 -91.5t-66 -139t-22 -175t15.5 -171t53.5 -133.5t105 -89.5t166 -32q68 0 142 16t132 41zM528 1186l-63 53l225 277l82 -68z" />
<glyph unicode="&#x10c;" horiz-adv-x="1229" d="M1128 72q-41 -18 -87 -34t-97 -28t-105.5 -19t-111.5 -7q-151 0 -267.5 46.5t-195.5 134.5t-119.5 214.5t-40.5 286.5q0 153 39 286.5t120 232.5t205 156.5t294 57.5q91 0 175 -12.5t163 -32.5v-279h-66q-11 56 -17 105t-11 94q-70 18 -135 26.5t-130 8.5 q-138 0 -237 -50.5t-162 -136.5t-93 -199.5t-30 -238.5q0 -140 33.5 -252t100.5 -191t166 -121t231 -42q48 0 96.5 6t93.5 16.5t86 25t76 32.5l26 -86v0zM719 1499l-309 166l41 76l270 -133l272 133l39 -74z" />
<glyph unicode="&#x10d;" horiz-adv-x="913" d="M852 49q-26 -11 -60.5 -22t-76 -20t-87 -14t-91.5 -5q-57 0 -109 8.5t-101 29t-90.5 56.5t-72.5 90.5t-48.5 131t-17.5 175.5q0 126 31 227.5t92 174t151 111t206 38.5q65 0 132 -10t121 -27v-266h-63q-6 25 -16 80.5t-15 114.5q-20 6 -69 14t-109 8q-84 0 -149 -32.5 t-109 -91.5t-66 -139t-22 -175t15.5 -171t53.5 -133.5t105 -89.5t166 -32q68 0 142 16t132 41zM543 1190l-254 256l57 57l199 -180l201 180l55 -55z" />
<glyph unicode="&#x10e;" horiz-adv-x="1452" d="M1341 700q0 -178 -58 -310.5t-162 -220.5t-247.5 -131.5t-314.5 -43.5q-51 0 -94 1t-81 2t-72 2t-66 1h-178v55q40 11 85.5 18.5t92.5 10.5v1214q-47 4 -92.5 11t-85.5 18v55h178q40 0 85.5 1t94.5 2.5t99.5 2.5t99.5 1q172 0 305 -42.5t224.5 -128t139 -215t47.5 -303.5 zM1227 694q0 153 -40.5 267t-119 189t-194 112.5t-265.5 37.5q-32 0 -66.5 -0.5t-68 -1.5t-64 -2t-53.5 -2v-1196q25 -3 54 -5.5t58.5 -4.5t58 -3t51.5 -1q146 0 265.5 36t205 111t132 190t46.5 273zM643 1499l-309 166l41 76l270 -133l272 133l39 -74z" />
<glyph unicode="&#x10f;" horiz-adv-x="1305" d="M1112 14q-29 -4 -65 -7t-75.5 -5t-79 -3t-73.5 1q0 25 1 57.5t3.5 65.5t6.5 64.5t10 56.5l-4 2q-22 -60 -57.5 -108.5t-82.5 -82.5t-103 -52.5t-118 -18.5q-95 0 -166 33t-118 95.5t-70 151.5t-23 201q0 139 37 244.5t104.5 176t162.5 106.5t210 36q51 0 102 -3t111 -9 v389q-37 6 -85 11.5t-93 8.5v56q28 4 64.5 7t75 5t77 2.5t70.5 -0.5v-1405q37 -6 85 -11.5t93 -8.5v-56zM825 915q-58 14 -114.5 20.5t-110.5 6.5q-88 0 -159.5 -27t-122 -84t-78 -145.5t-27.5 -212.5q0 -93 16.5 -167.5t50 -126t85 -79.5t122.5 -28q58 0 105.5 21t85 56 t65.5 81t46 96.5t27 102t9 97.5v389zM1138 1180l-77 30l123 322l100 -37z" />
<glyph unicode="&#x110;" horiz-adv-x="1475" d="M1364 700q0 -178 -58.5 -310.5t-162.5 -220.5t-247.5 -131.5t-313.5 -43.5q-102 0 -176 3t-138 3h-178v55q40 11 86 18.5t92 10.5v590h-217v86h217v538q-46 4 -92 11t-86 18v55h178q40 0 86 1t94.5 2.5t99 2.5t99.5 1q115 0 212.5 -18.5t177.5 -56.5t141 -95 t102.5 -133.5t62.5 -173t21 -212.5zM1249 694q0 153 -40.5 267t-119 189t-193.5 112.5t-265 37.5q-32 0 -66.5 -0.5t-68 -1.5t-64 -2t-53.5 -2v-534h338v-86h-338v-576q24 -3 53 -5.5t59 -4.5t58 -3t51 -1q146 0 265.5 36t205 111t132 190t46.5 273z" />
<glyph unicode="&#x111;" horiz-adv-x="1161" d="M934 1202v-1112q37 -6 85.5 -11.5t92.5 -8.5v-56q-29 -4 -65.5 -7t-76 -5t-79 -2.5t-72.5 0.5q0 27 1 59t4 65.5t7 64.5t9 55l-4 2q-22 -60 -57.5 -108.5t-82.5 -83t-103 -52.5t-118 -18q-94 0 -165 32.5t-118 95t-70.5 151.5t-23.5 202q0 137 36.5 243t104.5 177 t162.5 107t210.5 36q50 0 100.5 -3t112.5 -9v186h-290v86h290v117q-38 6 -86 11.5t-92 8.5v56q29 4 65.5 7t75.5 5t77 2.5t69 -0.5v-207h180v-86h-180zM825 915q-56 14 -112.5 20.5t-112.5 6.5q-90 0 -161 -27.5t-121.5 -84.5t-77.5 -146t-27 -211q0 -94 16.5 -168 t50.5 -126t85.5 -79.5t121.5 -27.5q56 0 104 20t85.5 55.5t65.5 81t46.5 96.5t27.5 102.5t9 98.5v389z" />
<glyph unicode="&#x112;" horiz-adv-x="1075" d="M68 0v55q40 11 85.5 18.5t92.5 10.5v1214q-47 4 -92.5 11t-85.5 18v55h845v-288h-65q-11 55 -20.5 107.5t-12.5 92.5h-459v-536h363q6 45 15 86.5t20 79.5h59v-420h-59q-13 37 -21.5 80.5t-13.5 85.5h-363v-580h461q5 43 14.5 97t20.5 108h66v-295h-850zM252 1546v88h530 v-88h-530z" />
<glyph unicode="&#x113;" horiz-adv-x="1026" d="M918 627q0 -17 -0.5 -33t-1 -28.5t-1 -19t-0.5 -9.5h-702q-2 -119 19.5 -206t66.5 -143t113 -83t159 -27q74 0 147 13.5t148 41.5l21 -88q-84 -29 -165.5 -45t-166.5 -16q-113 0 -198 31.5t-143 96t-87 163t-29 231.5q0 113 29.5 210t86 168.5t137.5 110.5t181 39 t174 -32t120.5 -88.5t69 -129.5t22.5 -157zM801 623q1 76 -17 136t-54.5 102t-88.5 63.5t-117 21.5q-59 0 -110 -21t-91.5 -62t-67 -101.5t-36.5 -138.5h582zM277 1296v86h481v-86h-481z" />
<glyph unicode="&#x116;" horiz-adv-x="1075" d="M68 0v55q40 11 85.5 18.5t92.5 10.5v1214q-47 4 -92.5 11t-85.5 18v55h845v-288h-65q-11 55 -20.5 107.5t-12.5 92.5h-459v-536h363q6 45 15 86.5t20 79.5h59v-420h-59q-13 37 -21.5 80.5t-13.5 85.5h-363v-580h461q5 43 14.5 97t20.5 108h66v-295h-850zM619 1591 q0 -17 -6.5 -31.5t-18 -26t-26 -18t-31.5 -6.5t-32 6t-26 17.5t-17.5 26.5t-6.5 32t6.5 31.5t18 26t26 18t31.5 6.5t32 -6t26 -17.5t17.5 -26.5t6.5 -32z" />
<glyph unicode="&#x117;" horiz-adv-x="1026" d="M918 627q0 -17 -0.5 -33t-1 -28.5t-1 -19t-0.5 -9.5h-702q-2 -119 19.5 -206t66.5 -143t113 -83t159 -27q74 0 147 13.5t148 41.5l21 -88q-84 -29 -165.5 -45t-166.5 -16q-113 0 -198 31.5t-143 96t-87 163t-29 231.5q0 113 29.5 210t86 168.5t137.5 110.5t181 39 t174 -32t120.5 -88.5t69 -129.5t22.5 -157zM801 623q1 76 -17 136t-54.5 102t-88.5 63.5t-117 21.5q-59 0 -110 -21t-91.5 -62t-67 -101.5t-36.5 -138.5h582zM609 1352q0 -17 -6.5 -31.5t-18 -26t-26 -18t-31.5 -6.5t-32 6t-26 17.5t-17.5 26.5t-6.5 32t6.5 31.5t18 26 t26 18t31.5 6.5t32 -6t26 -17.5t17.5 -26.5t6.5 -32z" />
<glyph unicode="&#x118;" horiz-adv-x="1075" d="M918 8q-39 -13 -73 -41t-60 -62.5t-41 -72.5t-15 -72q0 -37 19 -54t53 -17q47 0 90 67l61 -43q-32 -60 -81.5 -92.5t-108.5 -32.5q-35 0 -64.5 9t-50.5 26.5t-33 43.5t-12 61q0 36 12.5 74t35 74t52 68t64.5 56h-698v55q40 11 85.5 18.5t92.5 10.5v1214q-47 4 -92.5 11 t-85.5 18v55h845v-288h-65q-11 55 -20.5 107.5t-12.5 92.5h-459v-536h363q6 45 15 86.5t20 79.5h59v-420h-59q-13 37 -21.5 80.5t-13.5 85.5h-363v-580h461q5 43 14.5 97t20.5 108h66v-287v0z" />
<glyph unicode="&#x119;" horiz-adv-x="1026" d="M887 45q-79 -24 -136.5 -60.5t-94.5 -76.5t-54.5 -79t-17.5 -69q0 -37 18.5 -54t52.5 -17q26 0 58 16t55 47l57 -47q-37 -60 -92 -88.5t-117 -28.5q-35 0 -63 9t-47.5 26.5t-30 43.5t-10.5 61q0 28 9.5 60.5t29 66.5t49 67.5t70.5 63.5q-17 -2 -35.5 -2h-36.5 q-74 0 -136 14t-112.5 42.5t-88.5 71t-64 100.5t-39 131.5t-13 162.5q0 114 29.5 210.5t85.5 167t136.5 110.5t182.5 40q103 0 176.5 -33t120 -88.5t68 -128.5t21.5 -178v-11.5t-0.5 -15t-1 -19.5t-1.5 -24h-702q-3 -104 18.5 -195.5t67.5 -149t114 -85.5t159 -28 q76 0 151.5 15t142.5 40zM801 622q-1 92 -20.5 147t-55 94.5t-86 61t-115.5 21.5q-59 0 -109.5 -21t-89.5 -59.5t-65 -94t-41 -149.5h582z" />
<glyph unicode="&#x11a;" horiz-adv-x="1075" d="M68 0v55q40 11 85.5 18.5t92.5 10.5v1214q-47 4 -92.5 11t-85.5 18v55h845v-288h-65q-11 55 -20.5 107.5t-12.5 92.5h-459v-536h363q6 45 15 86.5t20 79.5h59v-420h-59q-13 37 -21.5 80.5t-13.5 85.5h-363v-580h461q5 43 14.5 97t20.5 108h66v-295h-850zM516 1499 l-309 166l41 76l270 -133l272 133l39 -74z" />
<glyph unicode="&#x11b;" horiz-adv-x="1026" d="M918 627q0 -17 -0.5 -33t-1 -28.5t-1 -19t-0.5 -9.5h-702q-2 -119 19.5 -206t66.5 -143t113 -83t159 -27q74 0 147 13.5t148 41.5l21 -88q-84 -29 -165.5 -45t-166.5 -16q-113 0 -198 31.5t-143 96t-87 163t-29 231.5q0 113 29.5 210t86 168.5t137.5 110.5t181 39 t174 -32t120.5 -88.5t69 -129.5t22.5 -157zM801 623q1 76 -17 136t-54.5 102t-88.5 63.5t-117 21.5q-59 0 -110 -21t-91.5 -62t-67 -101.5t-36.5 -138.5h582zM522 1190l-254 256l57 57l199 -180l201 180l55 -55z" />
<glyph unicode="&#x11e;" horiz-adv-x="1440" d="M1372 629q-35 -10 -74 -17t-79 -12v-543q-53 -18 -109 -32t-112.5 -23t-112.5 -13.5t-107 -4.5q-150 0 -274 45.5t-213.5 133t-139 215t-49.5 290.5q0 155 46.5 288.5t136.5 232t222.5 154.5t305.5 56q99 0 190 -13t181 -36v-279h-66q-11 56 -17 105t-11 94 q-73 18 -147.5 28.5t-145.5 10.5q-117 0 -222.5 -37t-185 -113.5t-126 -193.5t-46.5 -277q0 -148 43 -262t120.5 -192t184 -118t234.5 -40q88 0 163 12t146 35v477q-46 3 -92 10.5t-86 18.5v55h442v-55v0zM1022 1731q0 -48 -17 -89t-49.5 -70.5t-77.5 -46t-100 -16.5 q-57 0 -102 17t-75 47.5t-45 70.5t-15 87h82q0 -27 11.5 -51.5t32.5 -43t50 -29t63 -10.5q36 0 65 10.5t50 28.5t32 42.5t11 52.5h84z" />
<glyph unicode="&#x11f;" horiz-adv-x="1081" d="M1032 -164q0 -80 -38.5 -147.5t-107.5 -116.5t-164 -76.5t-208 -27.5q-95 0 -172 20.5t-132.5 59.5t-85.5 96t-30 129q0 50 14.5 93t40 79.5t59 66t71.5 51.5q-48 19 -75.5 58.5t-27.5 89.5q0 24 7 47.5t21 44t33.5 38.5t45.5 32q-72 43 -111 112.5t-39 171.5 q0 75 28 143.5t81.5 120.5t131 82.5t175.5 30.5q35 0 61.5 -4t61.5 -12h346v-86h-199q53 -40 83 -103.5t30 -142.5q0 -76 -26 -144t-78.5 -119t-131.5 -80.5t-186 -29.5q-40 0 -72.5 5t-64.5 16q-42 -19 -63 -47.5t-21 -59.5q0 -24 12 -41.5t36 -28.5t60 -17t84 -7l213 -8 q83 -3 146 -24.5t106 -59t64.5 -89.5t21.5 -116zM817 672q0 128 -71.5 201t-204.5 73q-70 0 -124.5 -21.5t-92 -58.5t-57 -87.5t-19.5 -108.5q0 -130 73 -199.5t209 -69.5q66 0 119.5 18t90.5 53t57 85t20 115zM918 -178q0 46 -15.5 82t-47 61.5t-79.5 40t-112 17.5l-220 8 h-36.5t-34.5 2q-76 -50 -121 -111t-45 -133q0 -55 25 -97.5t69.5 -72t104.5 -44.5t129 -15q92 0 163.5 19.5t120 54.5t74 83t25.5 105zM770 1464q0 -48 -14.5 -90.5t-43.5 -75.5t-74 -52t-104 -19t-102.5 19t-71.5 52t-41.5 75.5t-13.5 90.5h82q0 -30 9.5 -56.5t28.5 -47.5 t47 -33t64 -12q69 0 109.5 40t40.5 109h84z" />
<glyph unicode="&#x122;" horiz-adv-x="1440" d="M1372 629q-35 -10 -74 -17t-79 -12v-543q-53 -18 -109 -32t-112.5 -23t-112.5 -13.5t-107 -4.5q-150 0 -274 45.5t-213.5 133t-139 215t-49.5 290.5q0 155 46.5 288.5t136.5 232t222.5 154.5t305.5 56q99 0 190 -13t181 -36v-279h-66q-11 56 -17 105t-11 94 q-73 18 -147.5 28.5t-145.5 10.5q-117 0 -222.5 -37t-185 -113.5t-126 -193.5t-46.5 -277q0 -148 43 -262t120.5 -192t184 -118t234.5 -40q88 0 163 12t146 35v477q-46 3 -92 10.5t-86 18.5v55h442v-55v0zM610 -444q47 46 67.5 88.5t20.5 74.5q0 18 -4 29.5t-12.5 24.5 t-12.5 22.5t-4 24.5q0 31 20.5 53.5t53.5 22.5q19 0 34.5 -8t27.5 -22t18 -32.5t6 -38.5q0 -26 -8 -55.5t-26.5 -64t-50.5 -75.5t-79 -87z" />
<glyph unicode="&#x123;" horiz-adv-x="1081" d="M1032 -164q0 -80 -38.5 -147.5t-107.5 -116.5t-164 -76.5t-208 -27.5q-95 0 -172 20.5t-132.5 59.5t-85.5 96t-30 129q0 50 14.5 93t40 79.5t59 66t71.5 51.5q-48 19 -75.5 58.5t-27.5 89.5q0 24 7 47.5t21 44t33.5 38.5t45.5 32q-72 43 -111 112.5t-39 171.5 q0 75 28 143.5t81.5 120.5t131 82.5t175.5 30.5q35 0 61.5 -4t61.5 -12h346v-86h-199q53 -40 83 -103.5t30 -142.5q0 -76 -26 -144t-78.5 -119t-131.5 -80.5t-186 -29.5q-40 0 -72.5 5t-64.5 16q-42 -19 -63 -47.5t-21 -59.5q0 -24 12 -41.5t36 -28.5t60 -17t84 -7l213 -8 q83 -3 146 -24.5t106 -59t64.5 -89.5t21.5 -116zM817 672q0 128 -71.5 201t-204.5 73q-70 0 -124.5 -21.5t-92 -58.5t-57 -87.5t-19.5 -108.5q0 -130 73 -199.5t209 -69.5q66 0 119.5 18t90.5 53t57 85t20 115zM918 -178q0 46 -15.5 82t-47 61.5t-79.5 40t-112 17.5l-220 8 h-36.5t-34.5 2q-76 -50 -121 -111t-45 -133q0 -55 25 -97.5t69.5 -72t104.5 -44.5t129 -15q92 0 163.5 19.5t120 54.5t74 83t25.5 105zM661 1507q-49 -49 -68.5 -91t-19.5 -73q0 -19 5 -31t11.5 -21.5t11.5 -20.5t5 -29q0 -31 -21.5 -52.5t-52.5 -21.5q-16 0 -31.5 6.5 t-27.5 19.5t-19.5 32t-7.5 45q0 49 36 119.5t128 160.5z" />
<glyph unicode="&#x12a;" horiz-adv-x="602" d="M68 0v55q40 11 85.5 18.5t92.5 10.5v1214q-47 4 -92.5 11t-85.5 18v55h467v-55q-41 -11 -86.5 -18t-92.5 -11v-1214q47 -3 92.5 -10.5t86.5 -18.5v-55h-467zM38 1546v88h530v-88h-530z" />
<glyph unicode="&#x12b;" horiz-adv-x="580" d="M68 0v55q40 11 85.5 18.5t92.5 10.5v844q-37 6 -85 11.5t-93 8.5v56q28 4 64 7t74.5 5t77 2.5t70.5 -0.5v-934q47 -3 92.5 -10.5t85.5 -18.5v-55h-464zM34 1296v86h481v-86h-481z" />
<glyph unicode="&#x12e;" horiz-adv-x="602" d="M348 0q-48 -31 -83.5 -62t-59 -61.5t-34.5 -60t-11 -56.5q0 -37 18.5 -54t52.5 -17q12 0 23.5 4t23 12.5t22.5 21t22 29.5l61 -43q-16 -30 -37 -53.5t-45.5 -39t-51.5 -24t-56 -8.5q-36 0 -64 9t-47.5 26.5t-30 43.5t-10.5 61q0 43 17.5 85t44 78t57.5 64t59 45h-151v55 q40 11 85.5 18.5t92.5 10.5v1214q-47 4 -92.5 11t-85.5 18v55h467v-55q-41 -11 -86.5 -18t-92.5 -11v-1214q47 -3 92.5 -10.5t86.5 -18.5v-55h-187z" />
<glyph unicode="&#x12f;" horiz-adv-x="580" d="M383 1352q0 -17 -6.5 -32t-17.5 -26t-26 -17.5t-32 -6.5t-32 6t-26 17t-17.5 26t-6.5 33q0 17 6.5 32t17.5 26t26 17.5t32 6.5t32 -6t26 -17t17.5 -26t6.5 -33zM354 0q-97 -62 -142.5 -124t-45.5 -116q0 -37 19 -54t53 -17q23 0 45.5 16.5t44.5 50.5l61 -43 q-16 -30 -37 -53.5t-45.5 -39t-51.5 -24t-56 -8.5q-36 0 -64 9t-47.5 26.5t-30 43.5t-10.5 61q0 31 10.5 65.5t32.5 70.5t56 70.5t81 65.5h-159v55q40 11 85.5 18.5t92.5 10.5v844q-37 6 -85 11.5t-93 8.5v56q28 4 64 7t74.5 5t77 2.5t70.5 -0.5v-934q47 -3 92.5 -10.5 t85.5 -18.5v-55h-178z" />
<glyph unicode="&#x130;" horiz-adv-x="602" d="M68 0v55q40 11 85.5 18.5t92.5 10.5v1214q-47 4 -92.5 11t-85.5 18v55h467v-55q-41 -11 -86.5 -18t-92.5 -11v-1214q47 -3 92.5 -10.5t86.5 -18.5v-55h-467zM383 1591q0 -17 -6.5 -31.5t-18 -26t-26 -18t-31.5 -6.5t-32 6t-26 17.5t-17.5 26.5t-6.5 32t6.5 31.5t18 26 t26 18t31.5 6.5t32 -6t26 -17.5t17.5 -26.5t6.5 -32z" />
<glyph unicode="&#x131;" horiz-adv-x="580" d="M68 0v55q40 11 85.5 18.5t92.5 10.5v844q-37 6 -85 11.5t-93 8.5v56q28 4 64 7t74.5 5t77 2.5t70.5 -0.5v-934q47 -3 92.5 -10.5t85.5 -18.5v-55h-464z" />
<glyph unicode="&#x136;" horiz-adv-x="1305" d="M786 0v55q36 10 75 17t79 10l-584 625v-623q38 -3 84 -10.5t86 -18.5v-55h-458v55q40 11 85.5 18.5t92.5 10.5v1214q-47 4 -92.5 11t-85.5 18v55h458v-55q-40 -11 -86 -18t-84 -11v-591l574 591q-44 4 -90 11t-84 18v55h467v-55q-35 -9 -76.5 -16.5t-81.5 -12.5 l-580 -583l609 -631q42 -3 83 -11t76 -18v-55h-467zM502 -444q47 46 67.5 88.5t20.5 74.5q0 18 -4 29.5t-12.5 24.5t-12.5 22.5t-4 24.5q0 31 20.5 53.5t53.5 22.5q19 0 34.5 -8t27.5 -22t18 -32.5t6 -38.5q0 -26 -8 -55.5t-26.5 -64t-50.5 -75.5t-79 -87z" />
<glyph unicode="&#x137;" horiz-adv-x="1044" d="M748 0l-414 547v-463q46 -3 92 -10.5t86 -18.5v-55h-465v55q40 11 86 18.5t92 10.5v1321q-37 6 -85 11.5t-93 8.5v56q28 4 64.5 7t75 5t77 2.5t70.5 -0.5v-946l356 385q-43 5 -81 11.5t-64 17.5v55h426v-55q-34 -10 -73.5 -17t-82.5 -12l-356 -379l366 -467q41 -5 88 -13 t95 -18v-57h-260zM393 -444q47 46 67.5 88.5t20.5 74.5q0 18 -4 29.5t-12.5 24.5t-12.5 22.5t-4 24.5q0 31 20.5 53.5t53.5 22.5q19 0 34.5 -8t27.5 -22t18 -32.5t6 -38.5q0 -26 -8 -55.5t-26.5 -64t-50.5 -75.5t-79 -87z" />
<glyph unicode="&#x139;" horiz-adv-x="922" d="M68 0v55q41 11 86 18t92 11v1214q-47 5 -92 12t-86 17v55h467v-55q-41 -10 -86.5 -17t-92.5 -12v-1208h441q4 43 14 97.5t20 107.5h66v-295h-829zM362 1503l-28 70l321 149l45 -98z" />
<glyph unicode="&#x13a;" horiz-adv-x="559" d="M47 0v55q40 11 86 18.5t92 10.5v1321q-37 6 -85 11.5t-93 8.5v56q28 4 64.5 7t75 5t77 2.5t70.5 -0.5v-1411q46 -3 92 -10.5t86 -18.5v-55h-465zM218 1626l-28 70l321 149l45 -98z" />
<glyph unicode="&#x13b;" horiz-adv-x="922" d="M68 0v55q41 11 86 18t92 11v1214q-47 5 -92 12t-86 17v55h467v-55q-41 -10 -86.5 -17t-92.5 -12v-1208h441q4 43 14 97.5t20 107.5h66v-295h-829zM387 -444q47 46 67.5 88.5t20.5 74.5q0 18 -4 29.5t-12.5 24.5t-12.5 22.5t-4 24.5q0 31 20.5 53.5t53.5 22.5 q19 0 34.5 -8t27.5 -22t18 -32.5t6 -38.5q0 -26 -8 -55.5t-26.5 -64t-50.5 -75.5t-79 -87z" />
<glyph unicode="&#x13c;" horiz-adv-x="559" d="M47 0v55q40 11 86 18.5t92 10.5v1321q-37 6 -85 11.5t-93 8.5v56q28 4 64.5 7t75 5t77 2.5t70.5 -0.5v-1411q46 -3 92 -10.5t86 -18.5v-55h-465zM151 -444q47 46 67.5 88.5t20.5 74.5q0 18 -4 29.5t-12.5 24.5t-12.5 22.5t-4 24.5q0 31 20.5 53.5t53.5 22.5q19 0 34.5 -8 t27.5 -22t18 -32.5t6 -38.5q0 -26 -8 -55.5t-26.5 -64t-50.5 -75.5t-79 -87z" />
<glyph unicode="&#x13d;" horiz-adv-x="942" d="M68 0v55q41 11 86 18t92 11v1214q-47 5 -92 12t-86 17v55h467v-55q-41 -10 -86.5 -17t-92.5 -12v-1208h441q4 43 14 97.5t20 107.5h66v-295h-829zM739 1180l-77 30l123 322l100 -37z" />
<glyph unicode="&#x13e;" horiz-adv-x="705" d="M47 0v55q40 11 86 18.5t92 10.5v1321q-37 6 -85 11.5t-93 8.5v56q28 4 64.5 7t75 5t77 2.5t70.5 -0.5v-1411q46 -3 92 -10.5t86 -18.5v-55h-465zM538 1180l-77 30l123 322l100 -37z" />
<glyph unicode="&#x141;" horiz-adv-x="942" d="M88 0v55q39 11 85 18.5t93 10.5v612l-225 -82l-29 80l254 92v512q-47 4 -93 11.5t-85 17.5v55h467v-55q-39 -10 -85 -17.5t-93 -11.5v-471l270 99l29 -82l-299 -109v-645h440q4 38 12 83.5t23 121.5h66v-295h-830z" />
<glyph unicode="&#x142;" horiz-adv-x="600" d="M68 0v55q39 11 85 18.5t93 10.5v696l-172 -88l-31 78l203 104v531q-37 6 -85.5 11.5t-92.5 8.5v56q28 4 64.5 7t75.5 5t77 2.5t69 -0.5v-563l172 88l31 -78l-203 -104v-754q47 -3 93 -10.5t85 -18.5v-55h-464z" />
<glyph unicode="&#x143;" horiz-adv-x="1524" d="M1456 1327q-40 -10 -78 -18t-75 -13v-1296h-150l-510 797q-41 64 -81.5 128.5t-80.5 128.5t-76 123.5t-63 106.5q4 -95 7 -224.5t4.5 -282.5t2 -321t0.5 -370q45 -3 90.5 -11t88.5 -20v-55h-467v55q42 12 87.5 20t90.5 11v1212q-47 4 -93 11.5t-85 17.5v55h331l506 -790 q40 -63 81 -127.5t81 -129t76 -124t63 -107.5q-4 93 -7 221.5t-4.5 280.5t-2 320t-0.5 370q-43 3 -88.5 11t-89.5 20v55h442v-55zM690 1503l-28 70l321 149l45 -98z" />
<glyph unicode="&#x144;" horiz-adv-x="1245" d="M915 0v662q0 67 -10.5 120t-35.5 89.5t-67 55.5t-106 19q-76 0 -139 -34t-108 -95.5t-70 -146t-25 -185.5v-401q47 -3 92.5 -10.5t85.5 -18.5v-55h-464v55q40 11 85.5 18.5t92.5 10.5v844q-37 6 -85 11.5t-93 8.5v56q28 4 64 7t75 5t78 2.5t73 -0.5q0 -28 -1 -60 t-3.5 -65t-6 -64.5t-7.5 -56.5l4 -2q21 60 56.5 108.5t83 83t106.5 53.5t127 19q88 0 147 -25.5t94.5 -70t50.5 -104t15 -127.5v-623q46 -3 91 -10.5t85 -18.5v-55h-285zM653 1186l-63 53l225 277l82 -68z" />
<glyph unicode="&#x145;" horiz-adv-x="1524" d="M1456 1327q-40 -10 -78 -18t-75 -13v-1296h-150l-510 797q-41 64 -81.5 128.5t-80.5 128.5t-76 123.5t-63 106.5q4 -95 7 -224.5t4.5 -282.5t2 -321t0.5 -370q45 -3 90.5 -11t88.5 -20v-55h-467v55q42 12 87.5 20t90.5 11v1212q-47 4 -93 11.5t-85 17.5v55h331l506 -790 q40 -63 81 -127.5t81 -129t76 -124t63 -107.5q-4 93 -7 221.5t-4.5 280.5t-2 320t-0.5 370q-43 3 -88.5 11t-89.5 20v55h442v-55zM633 -444q47 46 67.5 88.5t20.5 74.5q0 18 -4 29.5t-12.5 24.5t-12.5 22.5t-4 24.5q0 31 20.5 53.5t53.5 22.5q19 0 34.5 -8t27.5 -22 t18 -32.5t6 -38.5q0 -26 -8 -55.5t-26.5 -64t-50.5 -75.5t-79 -87z" />
<glyph unicode="&#x146;" horiz-adv-x="1245" d="M915 0v662q0 67 -10.5 120t-35.5 89.5t-67 55.5t-106 19q-76 0 -139 -34t-108 -95.5t-70 -146t-25 -185.5v-401q47 -3 92.5 -10.5t85.5 -18.5v-55h-464v55q40 11 85.5 18.5t92.5 10.5v844q-37 6 -85 11.5t-93 8.5v56q28 4 64 7t75 5t78 2.5t73 -0.5q0 -28 -1 -60 t-3.5 -65t-6 -64.5t-7.5 -56.5l4 -2q21 60 56.5 108.5t83 83t106.5 53.5t127 19q88 0 147 -25.5t94.5 -70t50.5 -104t15 -127.5v-623q46 -3 91 -10.5t85 -18.5v-55h-285zM534 -444q47 46 67.5 88.5t20.5 74.5q0 18 -4 29.5t-12.5 24.5t-12.5 22.5t-4 24.5q0 31 20.5 53.5 t53.5 22.5q19 0 34.5 -8t27.5 -22t18 -32.5t6 -38.5q0 -26 -8 -55.5t-26.5 -64t-50.5 -75.5t-79 -87z" />
<glyph unicode="&#x147;" horiz-adv-x="1524" d="M1456 1327q-40 -10 -78 -18t-75 -13v-1296h-150l-510 797q-41 64 -81.5 128.5t-80.5 128.5t-76 123.5t-63 106.5q4 -95 7 -224.5t4.5 -282.5t2 -321t0.5 -370q45 -3 90.5 -11t88.5 -20v-55h-467v55q42 12 87.5 20t90.5 11v1212q-47 4 -93 11.5t-85 17.5v55h331l506 -790 q40 -63 81 -127.5t81 -129t76 -124t63 -107.5q-4 93 -7 221.5t-4.5 280.5t-2 320t-0.5 370q-43 3 -88.5 11t-89.5 20v55h442v-55zM760 1499l-309 166l41 76l270 -133l272 133l39 -74z" />
<glyph unicode="&#x148;" horiz-adv-x="1245" d="M915 0v662q0 67 -10.5 120t-35.5 89.5t-67 55.5t-106 19q-76 0 -139 -34t-108 -95.5t-70 -146t-25 -185.5v-401q47 -3 92.5 -10.5t85.5 -18.5v-55h-464v55q40 11 85.5 18.5t92.5 10.5v844q-37 6 -85 11.5t-93 8.5v56q28 4 64 7t75 5t78 2.5t73 -0.5q0 -28 -1 -60 t-3.5 -65t-6 -64.5t-7.5 -56.5l4 -2q21 60 56.5 108.5t83 83t106.5 53.5t127 19q88 0 147 -25.5t94.5 -70t50.5 -104t15 -127.5v-623q46 -3 91 -10.5t85 -18.5v-55h-285zM635 1190l-254 256l57 57l199 -180l201 180l55 -55z" />
<glyph unicode="&#x14c;" horiz-adv-x="1446" d="M1343 705q0 -171 -49 -306t-136.5 -227.5t-203.5 -140t-247 -47.5q-146 0 -259.5 49.5t-190.5 141.5t-116 219.5t-39 283.5q0 171 49 306t137 227.5t203.5 140t247.5 47.5q146 0 259.5 -49.5t190 -141.5t115.5 -219.5t39 -283.5zM1229 680q0 139 -32 254t-96 198.5 t-159 129t-219 45.5q-105 0 -197 -39.5t-161.5 -116.5t-108.5 -190t-39 -256q0 -139 32 -254.5t96 -199.5t159 -129.5t219 -45.5q105 0 197 39.5t161.5 116.5t108.5 190.5t39 257.5zM457 1546v88h530v-88h-530z" />
<glyph unicode="&#x14d;" horiz-adv-x="1106" d="M1008 516q0 -112 -30 -208.5t-90 -169.5t-148.5 -113.5t-202.5 -40.5q-100 0 -181 32t-138.5 96.5t-88.5 162.5t-31 227q0 112 30 208.5t90 169.5t148.5 113.5t202.5 40.5q100 0 181 -32t138.5 -96.5t88.5 -162.5t31 -227zM895 510q0 103 -23 184t-67.5 137.5 t-107.5 85.5t-142 29q-78 0 -141.5 -28t-109 -83.5t-69.5 -137.5t-24 -189q0 -103 23 -184t67.5 -136.5t107.5 -84.5t142 -29q74 0 136 26t109 79.5t73 136.5t26 194zM314 1296v86h481v-86h-481z" />
<glyph unicode="&#x150;" horiz-adv-x="1446" d="M1343 705q0 -171 -49 -306t-136.5 -227.5t-203.5 -140t-247 -47.5q-146 0 -259.5 49.5t-190.5 141.5t-116 219.5t-39 283.5q0 171 49 306t137 227.5t203.5 140t247.5 47.5q146 0 259.5 -49.5t190 -141.5t115.5 -219.5t39 -283.5zM1229 680q0 139 -32 254t-96 198.5 t-159 129t-219 45.5q-105 0 -197 -39.5t-161.5 -116.5t-108.5 -190t-39 -256q0 -139 32 -254.5t96 -199.5t159 -129.5t219 -45.5q105 0 197 39.5t161.5 116.5t108.5 190.5t39 257.5zM899 1503l-60 60l242 227l76 -76zM571 1503l-59 60l207 227l75 -76z" />
<glyph unicode="&#x151;" horiz-adv-x="1106" d="M1008 516q0 -112 -30 -208.5t-90 -169.5t-148.5 -113.5t-202.5 -40.5q-100 0 -181 32t-138.5 96.5t-88.5 162.5t-31 227q0 112 30 208.5t90 169.5t148.5 113.5t202.5 40.5q100 0 181 -32t138.5 -96.5t88.5 -162.5t31 -227zM895 510q0 103 -23 184t-67.5 137.5 t-107.5 85.5t-142 29q-78 0 -141.5 -28t-109 -83.5t-69.5 -137.5t-24 -189q0 -103 23 -184t67.5 -136.5t107.5 -84.5t142 -29q74 0 136 26t109 79.5t73 136.5t26 194zM738 1190l-62 55l234 250l80 -70zM416 1190l-61 55l219 258l80 -69z" />
<glyph unicode="&#x152;" horiz-adv-x="1769" d="M934 0q-59 -8 -114 -12t-113 -4q-149 0 -262 50t-189 141.5t-115 219.5t-39 283q0 175 50.5 309.5t137.5 226t202.5 138.5t246.5 47q105 0 199 -17h661v-288h-65q-11 55 -20.5 107.5t-12.5 92.5h-457v-536h365q6 45 15 86.5t20 79.5h59v-420h-59q-13 37 -21.5 80.5 t-13.5 85.5h-365v-580h467q5 43 14.5 97t20.5 108h66v-295h-678zM934 1278q-51 14 -100 21.5t-111 7.5q-105 0 -197 -39t-160.5 -115.5t-108.5 -188.5t-40 -259q0 -138 32 -254t95 -199t158 -129.5t221 -46.5q49 0 105 6t106 18v1178z" />
<glyph unicode="&#x153;" horiz-adv-x="1817" d="M1708 619v-11.5v-15t-0.5 -19.5t-1.5 -24h-700q-6 -117 15.5 -208.5t67.5 -149t115.5 -84.5t161.5 -27q75 0 149.5 15t137.5 44l24 -94q-71 -29 -155.5 -45t-180.5 -16q-82 0 -147.5 17.5t-115 50t-84.5 78t-56 101.5q-27 -53 -65 -98t-88.5 -78t-112.5 -52t-137 -19 q-100 0 -181 32t-138 96.5t-87.5 161t-30.5 226.5q0 108 30.5 205t90.5 170t148 116t202 43q60 0 117.5 -14t108 -43t91.5 -73t68 -105q25 51 61.5 94.5t82.5 74.5t102.5 48.5t122.5 17.5q103 0 176 -33t119.5 -88.5t68 -128.5t21.5 -165zM1589 635q0 79 -17.5 134t-53 94.5 t-87 61t-116.5 21.5q-59 0 -109.5 -21t-89.5 -59.5t-65.5 -94t-38.5 -136.5h577zM895 518q0 100 -22.5 179t-65.5 134.5t-106.5 85t-145.5 29.5q-68 0 -130 -25.5t-109.5 -79.5t-76 -137t-28.5 -198q0 -101 22.5 -181.5t66.5 -136t108.5 -85t148.5 -29.5q64 0 124.5 25.5 t108 79.5t76.5 138t29 201z" />
<glyph unicode="&#x154;" horiz-adv-x="1198" d="M895 0l-420 657h-119v-573q47 -3 92.5 -10.5t86.5 -18.5v-55h-467v55q40 11 85.5 18.5t92.5 10.5v1214q-47 4 -92.5 11t-85.5 18v55h157q14 0 34.5 0.5t45.5 1.5t54.5 1.5t62 1.5t66.5 1.5t69 0.5q100 0 184.5 -17t146.5 -57t97 -105.5t35 -162.5q0 -92 -33.5 -161.5 t-92 -117.5t-136.5 -75.5t-168 -33.5q28 -34 57 -75t53 -78l273 -418q40 -5 85.5 -12.5t96.5 -18.5v-57h-260zM905 1026q0 78 -24.5 131t-73 84.5t-121 45t-168.5 13.5q-18 0 -38.5 -0.5t-42.5 -1t-42.5 -2t-38.5 -2.5v-549h187q90 0 158 19.5t113.5 56.5t68 88.5 t22.5 116.5zM462 1503l-28 70l321 149l45 -98z" />
<glyph unicode="&#x155;" horiz-adv-x="766" d="M727 926q-98 15 -168 -13.5t-114.5 -96t-67.5 -171.5t-23 -242v-319q47 -3 92.5 -10.5t85.5 -18.5v-55h-464v55q40 11 85.5 18.5t92.5 10.5v844q-37 6 -85 11.5t-93 8.5v56q28 4 64 7t75 5t78 2.5t73 -0.5q0 -56 -6 -130.5t-20 -146.5l4 -2q14 58 42 115.5t75.5 101 t115.5 66t162 10.5zM467 1186l-63 53l225 277l82 -68z" />
<glyph unicode="&#x156;" horiz-adv-x="1198" d="M895 0l-420 657h-119v-573q47 -3 92.5 -10.5t86.5 -18.5v-55h-467v55q40 11 85.5 18.5t92.5 10.5v1214q-47 4 -92.5 11t-85.5 18v55h157q14 0 34.5 0.5t45.5 1.5t54.5 1.5t62 1.5t66.5 1.5t69 0.5q100 0 184.5 -17t146.5 -57t97 -105.5t35 -162.5q0 -92 -33.5 -161.5 t-92 -117.5t-136.5 -75.5t-168 -33.5q28 -34 57 -75t53 -78l273 -418q40 -5 85.5 -12.5t96.5 -18.5v-57h-260zM905 1026q0 78 -24.5 131t-73 84.5t-121 45t-168.5 13.5q-18 0 -38.5 -0.5t-42.5 -1t-42.5 -2t-38.5 -2.5v-549h187q90 0 158 19.5t113.5 56.5t68 88.5 t22.5 116.5zM448 -444q47 46 67.5 88.5t20.5 74.5q0 18 -4 29.5t-12.5 24.5t-12.5 22.5t-4 24.5q0 31 20.5 53.5t53.5 22.5q19 0 34.5 -8t27.5 -22t18 -32.5t6 -38.5q0 -26 -8 -55.5t-26.5 -64t-50.5 -75.5t-79 -87z" />
<glyph unicode="&#x157;" horiz-adv-x="766" d="M727 926q-98 15 -168 -13.5t-114.5 -96t-67.5 -171.5t-23 -242v-319q47 -3 92.5 -10.5t85.5 -18.5v-55h-464v55q40 11 85.5 18.5t92.5 10.5v844q-37 6 -85 11.5t-93 8.5v56q28 4 64 7t75 5t78 2.5t73 -0.5q0 -56 -6 -130.5t-20 -146.5l4 -2q14 58 42 115.5t75.5 101 t115.5 66t162 10.5zM180 -444q47 46 67.5 88.5t20.5 74.5q0 18 -4 29.5t-12.5 24.5t-12.5 22.5t-4 24.5q0 31 20.5 53.5t53.5 22.5q19 0 34.5 -8t27.5 -22t18 -32.5t6 -38.5q0 -26 -8 -55.5t-26.5 -64t-50.5 -75.5t-79 -87z" />
<glyph unicode="&#x158;" horiz-adv-x="1198" d="M895 0l-420 657h-119v-573q47 -3 92.5 -10.5t86.5 -18.5v-55h-467v55q40 11 85.5 18.5t92.5 10.5v1214q-47 4 -92.5 11t-85.5 18v55h157q14 0 34.5 0.5t45.5 1.5t54.5 1.5t62 1.5t66.5 1.5t69 0.5q100 0 184.5 -17t146.5 -57t97 -105.5t35 -162.5q0 -92 -33.5 -161.5 t-92 -117.5t-136.5 -75.5t-168 -33.5q28 -34 57 -75t53 -78l273 -418q40 -5 85.5 -12.5t96.5 -18.5v-57h-260zM905 1026q0 78 -24.5 131t-73 84.5t-121 45t-168.5 13.5q-18 0 -38.5 -0.5t-42.5 -1t-42.5 -2t-38.5 -2.5v-549h187q90 0 158 19.5t113.5 56.5t68 88.5 t22.5 116.5zM539 1499l-309 166l41 76l270 -133l272 133l39 -74z" />
<glyph unicode="&#x159;" horiz-adv-x="766" d="M727 926q-98 15 -168 -13.5t-114.5 -96t-67.5 -171.5t-23 -242v-319q47 -3 92.5 -10.5t85.5 -18.5v-55h-464v55q40 11 85.5 18.5t92.5 10.5v844q-37 6 -85 11.5t-93 8.5v56q28 4 64 7t75 5t78 2.5t73 -0.5q0 -56 -6 -130.5t-20 -146.5l4 -2q14 58 42 115.5t75.5 101 t115.5 66t162 10.5zM473 1190l-254 256l57 57l199 -180l201 180l55 -55z" />
<glyph unicode="&#x15a;" horiz-adv-x="1036" d="M907 360q0 -85 -31 -154.5t-89.5 -119t-142 -76t-187.5 -26.5q-111 0 -196 13t-120 21v291h66q5 -25 14.5 -81t16.5 -119q27 -8 90.5 -20.5t144.5 -12.5q75 0 134.5 17.5t101.5 52.5t64 87t22 119q0 65 -27 114t-72 84t-91.5 58t-132 62t-140 69.5t-100 73t-72.5 102 t-27 138.5q0 78 30 142t88 109.5t141 70t186 24.5q82 0 153.5 -10t102.5 -17v-280h-66q-5 25 -14 80.5t-15 117.5q-22 5 -72 12t-106 7q-74 0 -132.5 -15.5t-100 -47t-63 -78t-21.5 -107.5q0 -63 27 -111t72 -82t89 -56t132 -61.5t142.5 -70.5t100.5 -74.5t73 -104.5 t27 -141zM481 1503l-28 70l321 149l45 -98z" />
<glyph unicode="&#x15b;" horiz-adv-x="891" d="M766 264q0 -63 -25.5 -115t-74 -89t-118 -56.5t-155.5 -19.5q-51 0 -98 3.5t-82.5 8.5t-55 8.5t-26.5 5.5v273h59q5 -21 15 -71t16 -112q21 -5 71.5 -12.5t113.5 -7.5q58 0 104.5 11t78.5 33.5t49 56t17 77.5q0 47 -21.5 81.5t-57.5 58.5t-67 37.5t-105.5 44t-118 53.5 t-80.5 56.5t-58.5 80.5t-21.5 110q0 57 25 104t73 80.5t117 51.5t154 18q70 0 131 -7.5t88 -12.5v-271h-60q-5 22 -14.5 73.5t-15.5 115.5q-17 4 -56.5 9t-87.5 5q-116 0 -179.5 -41t-63.5 -121q0 -46 21.5 -80.5t57.5 -58.5t66 -37t105 -43.5t119 -53.5t81 -56.5 t58.5 -80.5t21.5 -110zM430 1186l-63 53l225 277l82 -68z" />
<glyph unicode="&#x15e;" horiz-adv-x="1036" d="M907 360q0 -85 -31 -154.5t-89.5 -119t-142 -76t-187.5 -26.5q-111 0 -196 13t-120 21v291h66q5 -25 14.5 -81t16.5 -119q27 -8 90.5 -20.5t144.5 -12.5q75 0 134.5 17.5t101.5 52.5t64 87t22 119q0 65 -27 114t-72 84t-91.5 58t-132 62t-140 69.5t-100 73t-72.5 102 t-27 138.5q0 78 30 142t88 109.5t141 70t186 24.5q82 0 153.5 -10t102.5 -17v-280h-66q-5 25 -14 80.5t-15 117.5q-22 5 -72 12t-106 7q-74 0 -132.5 -15.5t-100 -47t-63 -78t-21.5 -107.5q0 -63 27 -111t72 -82t89 -56t132 -61.5t142.5 -70.5t100.5 -74.5t73 -104.5 t27 -141zM528 -84q38 -48 52.5 -95.5t7 -96t-34.5 -99.5t-72 -108h-102q45 59 70 103t32 83t-6 78t-49 82z" />
<glyph unicode="&#x15f;" horiz-adv-x="891" d="M766 264q0 -63 -25.5 -115t-74 -89t-118 -56.5t-155.5 -19.5q-51 0 -98 3.5t-82.5 8.5t-55 8.5t-26.5 5.5v273h59q5 -21 15 -71t16 -112q21 -5 71.5 -12.5t113.5 -7.5q58 0 104.5 11t78.5 33.5t49 56t17 77.5q0 47 -21.5 81.5t-57.5 58.5t-67 37.5t-105.5 44t-118 53.5 t-80.5 56.5t-58.5 80.5t-21.5 110q0 57 25 104t73 80.5t117 51.5t154 18q70 0 131 -7.5t88 -12.5v-271h-60q-5 22 -14.5 73.5t-15.5 115.5q-17 4 -56.5 9t-87.5 5q-116 0 -179.5 -41t-63.5 -121q0 -46 21.5 -80.5t57.5 -58.5t66 -37t105 -43.5t119 -53.5t81 -56.5 t58.5 -80.5t21.5 -110zM456 -84q38 -48 52.5 -95.5t7 -96t-34.5 -99.5t-72 -108h-102q45 59 70 103t32 83t-6 78t-49 82z" />
<glyph unicode="&#x160;" horiz-adv-x="1036" d="M907 360q0 -85 -31 -154.5t-89.5 -119t-142 -76t-187.5 -26.5q-111 0 -196 13t-120 21v291h66q5 -25 14.5 -81t16.5 -119q27 -8 90.5 -20.5t144.5 -12.5q75 0 134.5 17.5t101.5 52.5t64 87t22 119q0 65 -27 114t-72 84t-91.5 58t-132 62t-140 69.5t-100 73t-72.5 102 t-27 138.5q0 78 30 142t88 109.5t141 70t186 24.5q82 0 153.5 -10t102.5 -17v-280h-66q-5 25 -14 80.5t-15 117.5q-22 5 -72 12t-106 7q-74 0 -132.5 -15.5t-100 -47t-63 -78t-21.5 -107.5q0 -63 27 -111t72 -82t89 -56t132 -61.5t142.5 -70.5t100.5 -74.5t73 -104.5 t27 -141zM524 1499l-309 166l41 76l270 -133l272 133l39 -74z" />
<glyph unicode="&#x161;" horiz-adv-x="891" d="M766 264q0 -63 -25.5 -115t-74 -89t-118 -56.5t-155.5 -19.5q-51 0 -98 3.5t-82.5 8.5t-55 8.5t-26.5 5.5v273h59q5 -21 15 -71t16 -112q21 -5 71.5 -12.5t113.5 -7.5q58 0 104.5 11t78.5 33.5t49 56t17 77.5q0 47 -21.5 81.5t-57.5 58.5t-67 37.5t-105.5 44t-118 53.5 t-80.5 56.5t-58.5 80.5t-21.5 110q0 57 25 104t73 80.5t117 51.5t154 18q70 0 131 -7.5t88 -12.5v-271h-60q-5 22 -14.5 73.5t-15.5 115.5q-17 4 -56.5 9t-87.5 5q-116 0 -179.5 -41t-63.5 -121q0 -46 21.5 -80.5t57.5 -58.5t66 -37t105 -43.5t119 -53.5t81 -56.5 t58.5 -80.5t21.5 -110zM444 1190l-254 256l57 57l199 -180l201 180l55 -55z" />
<glyph unicode="&#x162;" horiz-adv-x="1098" d="M991 1083q-5 33 -17.5 107t-15.5 104h-354v-1210q47 -3 93 -10.5t85 -18.5v-55h-467v55q40 11 86 18.5t93 10.5v1210h-355q-3 -36 -10 -80t-23 -131h-65v299h1016v-299h-66zM577 -84q38 -48 52.5 -95.5t7 -96t-34.5 -99.5t-72 -108h-102q45 59 70 103t32 83t-6 78t-49 82 z" />
<glyph unicode="&#x163;" horiz-adv-x="754" d="M680 6q-40 -9 -91 -14.5t-97 -5.5q-73 0 -121 17.5t-76.5 53t-40.5 90t-12 132.5v653h-242v86h242v348l108 31v-379h322v-86h-322v-592q0 -79 8 -128t26.5 -77t50 -39.5t83.5 -11.5q38 0 75.5 5t70.5 13zM481 -84q38 -48 52.5 -95.5t7 -96t-34.5 -99.5t-72 -108h-102 q45 59 70 103t32 83t-6 78t-49 82z" />
<glyph unicode="&#x164;" horiz-adv-x="1098" d="M991 1083q-5 33 -17.5 107t-15.5 104h-354v-1210q47 -3 93 -10.5t85 -18.5v-55h-467v55q40 11 86 18.5t93 10.5v1210h-355q-3 -36 -10 -80t-23 -131h-65v299h1016v-299h-66zM547 1499l-309 166l41 76l270 -133l272 133l39 -74z" />
<glyph unicode="&#x165;" horiz-adv-x="758" d="M680 6q-40 -9 -91 -14.5t-97 -5.5q-73 0 -121 17.5t-76.5 53t-40.5 90t-12 132.5v653h-242v86h242v348l108 31v-379h322v-86h-322v-592q0 -79 8 -128t26.5 -77t50 -39.5t83.5 -11.5q38 0 75.5 5t70.5 13zM585 1180l-77 30l123 322l100 -37z" />
<glyph unicode="&#x16a;" horiz-adv-x="1475" d="M1407 1327q-72 -18 -154 -29v-778q0 -130 -33 -230t-99.5 -168t-166.5 -103t-233 -35q-103 0 -182 18.5t-134.5 51.5t-91.5 77t-56 95.5t-28 107t-8 117.5v847q-82 11 -153 29v55h442v-55q-39 -10 -85 -17.5t-93 -11.5v-833q0 -85 17.5 -154t61.5 -122.5t123 -84 t197 -30.5q106 0 182.5 23.5t128 74.5t77.5 134t26 202v790q-47 4 -93 11.5t-85 17.5v55h440v-55zM471 1546v88h530v-88h-530z" />
<glyph unicode="&#x16b;" horiz-adv-x="1229" d="M1182 14q-29 -4 -65.5 -7t-76 -5t-78 -2.5t-71.5 0.5q0 28 1 60.5t3.5 65.5t6 64t7.5 56l-4 2q-21 -60 -56.5 -109t-83 -83.5t-106.5 -53t-127 -18.5q-85 0 -145 24.5t-95.5 69t-51 103t-15.5 130.5v617q-37 6 -85.5 11.5t-92.5 8.5v56q29 4 65 7t75 5t77 2.5t70 -0.5 v-662q0 -70 10.5 -122t35.5 -88.5t67.5 -55t105.5 -18.5q75 0 138 33.5t109 95.5t70.5 147t24.5 184v396q-37 6 -85.5 11.5t-92.5 8.5v56q29 4 65 7t75 5t77 2.5t70 -0.5v-928q38 -6 86 -11.5t92 -8.5v-56zM369 1296v86h481v-86h-481z" />
<glyph unicode="&#x16e;" horiz-adv-x="1475" d="M1407 1327q-72 -18 -154 -29v-778q0 -130 -33 -230t-99.5 -168t-166.5 -103t-233 -35q-103 0 -182 18.5t-134.5 51.5t-91.5 77t-56 95.5t-28 107t-8 117.5v847q-82 11 -153 29v55h442v-55q-39 -10 -85 -17.5t-93 -11.5v-833q0 -85 17.5 -154t61.5 -122.5t123 -84 t197 -30.5q106 0 182.5 23.5t128 74.5t77.5 134t26 202v790q-47 4 -93 11.5t-85 17.5v55h440v-55zM946 1667q0 -42 -14.5 -79t-42 -65.5t-68 -44.5t-90.5 -16q-45 0 -81.5 12.5t-62.5 37t-40 62t-14 85.5q0 41 14.5 78.5t42.5 66t68 44.5t90 16q46 0 82.5 -12.5t62.5 -37 t39.5 -62t13.5 -85.5zM850 1663q0 29 -7.5 52t-21.5 39t-34.5 24t-46.5 8q-22 0 -41.5 -7.5t-35.5 -22.5t-25 -38.5t-9 -54.5q0 -29 7.5 -52t22 -39t35 -24t46.5 -8q21 0 41 7.5t35.5 22.5t24.5 38.5t9 54.5z" />
<glyph unicode="&#x16f;" horiz-adv-x="1229" d="M1182 14q-29 -4 -65.5 -7t-76 -5t-78 -2.5t-71.5 0.5q0 28 1 60.5t3.5 65.5t6 64t7.5 56l-4 2q-21 -60 -56.5 -109t-83 -83.5t-106.5 -53t-127 -18.5q-85 0 -145 24.5t-95.5 69t-51 103t-15.5 130.5v617q-37 6 -85.5 11.5t-92.5 8.5v56q29 4 65 7t75 5t77 2.5t70 -0.5 v-662q0 -70 10.5 -122t35.5 -88.5t67.5 -55t105.5 -18.5q75 0 138 33.5t109 95.5t70.5 147t24.5 184v396q-37 6 -85.5 11.5t-92.5 8.5v56q29 4 65 7t75 5t77 2.5t70 -0.5v-928q38 -6 86 -11.5t92 -8.5v-56zM806 1343q0 -42 -14.5 -78.5t-42 -65t-68 -44.5t-90.5 -16 q-45 0 -81.5 12.5t-62.5 37t-40 61.5t-14 85q0 42 14.5 79t42 65.5t68 44.5t90.5 16q46 0 82.5 -12.5t62.5 -37t39.5 -61.5t13.5 -86zM710 1339q0 29 -7.5 52t-21.5 39t-34.5 24t-46.5 8q-22 0 -41.5 -7.5t-35.5 -22.5t-25 -38.5t-9 -54.5q0 -29 7.5 -51.5t22 -38.5t35 -24 t46.5 -8q21 0 41 7t35.5 22t24.5 38.5t9 54.5z" />
<glyph unicode="&#x170;" horiz-adv-x="1475" d="M1407 1327q-72 -18 -154 -29v-778q0 -130 -33 -230t-99.5 -168t-166.5 -103t-233 -35q-103 0 -182 18.5t-134.5 51.5t-91.5 77t-56 95.5t-28 107t-8 117.5v847q-82 11 -153 29v55h442v-55q-39 -10 -85 -17.5t-93 -11.5v-833q0 -85 17.5 -154t61.5 -122.5t123 -84 t197 -30.5q106 0 182.5 23.5t128 74.5t77.5 134t26 202v790q-47 4 -93 11.5t-85 17.5v55h440v-55zM883 1503l-60 60l242 227l76 -76zM555 1503l-59 60l207 227l75 -76z" />
<glyph unicode="&#x171;" horiz-adv-x="1229" d="M1182 14q-29 -4 -65.5 -7t-76 -5t-78 -2.5t-71.5 0.5q0 28 1 60.5t3.5 65.5t6 64t7.5 56l-4 2q-21 -60 -56.5 -109t-83 -83.5t-106.5 -53t-127 -18.5q-85 0 -145 24.5t-95.5 69t-51 103t-15.5 130.5v617q-37 6 -85.5 11.5t-92.5 8.5v56q29 4 65 7t75 5t77 2.5t70 -0.5 v-662q0 -70 10.5 -122t35.5 -88.5t67.5 -55t105.5 -18.5q75 0 138 33.5t109 95.5t70.5 147t24.5 184v396q-37 6 -85.5 11.5t-92.5 8.5v56q29 4 65 7t75 5t77 2.5t70 -0.5v-928q38 -6 86 -11.5t92 -8.5v-56zM766 1190l-62 55l234 250l80 -70zM444 1190l-61 55l219 258l80 -69 z" />
<glyph unicode="&#x172;" horiz-adv-x="1475" d="M971 -287q-34 -63 -84 -94t-107 -31q-35 0 -63 9t-47.5 26.5t-30 43.5t-10.5 61q0 63 40 132t124 128q-17 -2 -35.5 -3t-36.5 -1q-107 0 -185 19t-134 52t-91 78t-55 96.5t-27.5 108t-7.5 113.5v847q-82 11 -153 29v55h442v-55q-40 -11 -86 -18t-92 -11v-833 q0 -78 16 -149t60.5 -125t122 -85.5t200.5 -31.5q103 0 180.5 23t129.5 74t78 134t26 203v790q-47 4 -92.5 11t-85.5 18v55h440v-55q-72 -18 -154 -29v-778q0 -180 -63 -300t-191 -183q-57 -29 -103.5 -64t-79.5 -71.5t-50.5 -73.5t-17.5 -68q0 -37 18.5 -54t52.5 -17 q23 0 46.5 17.5t43.5 49.5l62 -43v0z" />
<glyph unicode="&#x173;" horiz-adv-x="1229" d="M1182 14q-23 -2 -42 -3.5t-48 -6.5q-45 -7 -88 -32t-77.5 -59.5t-55.5 -75t-21 -77.5t19 -54t53 -17q11 0 22.5 4t23 12.5t22.5 21t22 29.5l61 -43q-16 -30 -37 -53.5t-45 -39t-51.5 -24t-56.5 -8.5q-36 0 -64 9t-47.5 26.5t-30 43.5t-10.5 61q0 46 17 87t45 77 t62.5 65.5t70.5 52.5q-4 26 -7.5 55.5t-5.5 59.5t-3 58.5t1 52.5h-2q-24 -56 -60.5 -102.5t-84 -79.5t-105.5 -51.5t-127 -18.5q-88 0 -147 25.5t-94.5 69.5t-50.5 104t-15 128v617q-37 6 -85 11.5t-93 8.5v56q28 4 64.5 7t74.5 5t76.5 2.5t71.5 -0.5v-662 q0 -68 10.5 -120.5t35.5 -89t67 -55.5t106 -19q76 0 139 34t108 95.5t70 145.5t25 185v396q-37 6 -85 11.5t-93 8.5v56q28 4 64 7t74.5 5t77 2.5t71.5 -0.5v-633q0 -75 5.5 -154.5t14.5 -144.5q22 -3 41.5 -5.5t38 -4t37.5 -3.5t41 -3v-56v0z" />
<glyph unicode="&#x178;" horiz-adv-x="1184" d="M1174 1327q-28 -8 -68.5 -15.5t-71.5 -11.5l-391 -794v-422q47 -3 93 -10.5t85 -18.5v-55h-467v55q40 11 86 18.5t92 10.5v422l-382 794q-31 4 -71.5 11.5t-68.5 15.5v55h443v-55q-40 -10 -86 -17.5t-93 -11.5l205 -448q20 -42 32.5 -70t26.5 -59l28 -62t26 -61h2 q12 31 27 64.5t30 65.5t39 82t29 60l199 428q-47 4 -93 11.5t-86 17.5v55h435v-55zM885 1589q0 -17 -6 -31.5t-17 -25.5t-25.5 -17t-31.5 -6t-31.5 6t-25.5 17t-17 25.5t-6 31.5t6 31.5t17 25.5t25.5 17t31.5 6t31.5 -6t25.5 -17t17 -25.5t6 -31.5zM451 1589q0 -17 -6 -31.5 t-17 -25.5t-25.5 -17t-31.5 -6t-31.5 6t-25.5 17t-17 25.5t-6 31.5t6 31.5t17 25.5t25.5 17t31.5 6t31.5 -6t25.5 -17t17 -25.5t6 -31.5z" />
<glyph unicode="&#x179;" horiz-adv-x="1108" d="M96 0v76l660 1011q42 64 72.5 109.5t64.5 91.5q-74 -2 -163 -3t-191 -1h-324q-3 -39 -10.5 -88t-18.5 -109h-65v295h889v-75l-695 -1065q-21 -35 -42 -66t-56 -82q18 2 54 3.5t85 2t103.5 0.5h146.5h314q4 42 11.5 91.5t18.5 109.5h66v-301h-920zM501 1503l-28 70 l321 149l45 -98z" />
<glyph unicode="&#x17a;" horiz-adv-x="909" d="M100 0v76l570 850q-29 -1 -65 -1.5t-77.5 -1t-86.5 -1t-91 -0.5h-145q-5 -45 -11.5 -86.5t-17.5 -87.5h-59v270h671v-74l-565 -848q25 1 63.5 1.5t82.5 1t90 1t86 0.5h164q5 41 12 87.5t18 93.5h60v-281h-699zM467 1186l-63 53l225 277l82 -68z" />
<glyph unicode="&#x17b;" horiz-adv-x="1108" d="M96 0v76l660 1011q42 64 72.5 109.5t64.5 91.5q-74 -2 -163 -3t-191 -1h-324q-3 -39 -10.5 -88t-18.5 -109h-65v295h889v-75l-695 -1065q-21 -35 -42 -66t-56 -82q18 2 54 3.5t85 2t103.5 0.5h146.5h314q4 42 11.5 91.5t18.5 109.5h66v-301h-920zM637 1591 q0 -17 -6.5 -31.5t-18 -26t-26 -18t-31.5 -6.5t-32 6t-26 17.5t-17.5 26.5t-6.5 32t6.5 31.5t18 26t26 18t31.5 6.5t32 -6t26 -17.5t17.5 -26.5t6.5 -32z" />
<glyph unicode="&#x17c;" horiz-adv-x="909" d="M100 0v76l570 850q-29 -1 -65 -1.5t-77.5 -1t-86.5 -1t-91 -0.5h-145q-5 -45 -11.5 -86.5t-17.5 -87.5h-59v270h671v-74l-565 -848q25 1 63.5 1.5t82.5 1t90 1t86 0.5h164q5 41 12 87.5t18 93.5h60v-281h-699zM537 1352q0 -17 -6.5 -31.5t-18 -26t-26 -18t-31.5 -6.5 t-32 6t-26 17.5t-17.5 26.5t-6.5 32t6.5 31.5t18 26t26 18t31.5 6.5t32 -6t26 -17.5t17.5 -26.5t6.5 -32z" />
<glyph unicode="&#x17d;" horiz-adv-x="1108" d="M96 0v76l660 1011q42 64 72.5 109.5t64.5 91.5q-74 -2 -163 -3t-191 -1h-324q-3 -39 -10.5 -88t-18.5 -109h-65v295h889v-75l-695 -1065q-21 -35 -42 -66t-56 -82q18 2 54 3.5t85 2t103.5 0.5h146.5h314q4 42 11.5 91.5t18.5 109.5h66v-301h-920zM567 1499l-309 166 l41 76l270 -133l272 133l39 -74z" />
<glyph unicode="&#x17e;" horiz-adv-x="909" d="M100 0v76l570 850q-29 -1 -65 -1.5t-77.5 -1t-86.5 -1t-91 -0.5h-145q-5 -45 -11.5 -86.5t-17.5 -87.5h-59v270h671v-74l-565 -848q25 1 63.5 1.5t82.5 1t90 1t86 0.5h164q5 41 12 87.5t18 93.5h60v-281h-699zM450 1190l-254 256l57 57l199 -180l201 180l55 -55z" />
<glyph unicode="&#x192;" horiz-adv-x="881" d="M348 178q-17 -150 -44.5 -247t-72 -153.5t-108.5 -78t-154 -21.5q-34 0 -74 7t-75 18l24 92q34 -11 76 -18.5t80 -7.5q58 0 97.5 16.5t66 58.5t43.5 114.5t29 184.5l61 588h-266v86h276l33 316q9 84 32 153t65.5 118.5t107 77t157.5 27.5q31 0 70 -3t74 -9l-17 -92 q-18 4 -37 7t-38.5 5t-40 3t-41.5 1q-50 0 -88 -16.5t-65 -50t-43 -84t-23 -117.5l-35 -336h364v-86h-374z" />
<glyph unicode="&#x218;" horiz-adv-x="1036" d="M907 360q0 -85 -31 -154.5t-89.5 -119t-142 -76t-187.5 -26.5q-111 0 -196 13t-120 21v291h66q5 -25 14.5 -81t16.5 -119q27 -8 90.5 -20.5t144.5 -12.5q75 0 134.5 17.5t101.5 52.5t64 87t22 119q0 65 -27 114t-72 84t-91.5 58t-132 62t-140 69.5t-100 73t-72.5 102 t-27 138.5q0 78 30 142t88 109.5t141 70t186 24.5q82 0 153.5 -10t102.5 -17v-280h-66q-5 25 -14 80.5t-15 117.5q-22 5 -72 12t-106 7q-74 0 -132.5 -15.5t-100 -47t-63 -78t-21.5 -107.5q0 -63 27 -111t72 -82t89 -56t132 -61.5t142.5 -70.5t100.5 -74.5t73 -104.5 t27 -141zM366 -444q47 46 67.5 88.5t20.5 74.5q0 18 -4 29.5t-12.5 24.5t-12.5 22.5t-4 24.5q0 31 20.5 53.5t53.5 22.5q19 0 34.5 -8t27.5 -22t18 -32.5t6 -38.5q0 -26 -8 -55.5t-26.5 -64t-50.5 -75.5t-79 -87z" />
<glyph unicode="&#x219;" horiz-adv-x="891" d="M766 264q0 -63 -25.5 -115t-74 -89t-118 -56.5t-155.5 -19.5q-51 0 -98 3.5t-82.5 8.5t-55 8.5t-26.5 5.5v273h59q5 -21 15 -71t16 -112q21 -5 71.5 -12.5t113.5 -7.5q58 0 104.5 11t78.5 33.5t49 56t17 77.5q0 47 -21.5 81.5t-57.5 58.5t-67 37.5t-105.5 44t-118 53.5 t-80.5 56.5t-58.5 80.5t-21.5 110q0 57 25 104t73 80.5t117 51.5t154 18q70 0 131 -7.5t88 -12.5v-271h-60q-5 22 -14.5 73.5t-15.5 115.5q-17 4 -56.5 9t-87.5 5q-116 0 -179.5 -41t-63.5 -121q0 -46 21.5 -80.5t57.5 -58.5t66 -37t105 -43.5t119 -53.5t81 -56.5 t58.5 -80.5t21.5 -110zM303 -444q47 46 67.5 88.5t20.5 74.5q0 18 -4 29.5t-12.5 24.5t-12.5 22.5t-4 24.5q0 31 20.5 53.5t53.5 22.5q19 0 34.5 -8t27.5 -22t18 -32.5t6 -38.5q0 -26 -8 -55.5t-26.5 -64t-50.5 -75.5t-79 -87z" />
<glyph unicode="&#x21a;" horiz-adv-x="1098" d="M991 1083q-5 33 -17.5 107t-15.5 104h-354v-1210q47 -3 93 -10.5t85 -18.5v-55h-467v55q40 11 86 18.5t93 10.5v1210h-355q-3 -36 -10 -80t-23 -131h-65v299h1016v-299h-66zM411 -444q47 46 67.5 88.5t20.5 74.5q0 18 -4 29.5t-12.5 24.5t-12.5 22.5t-4 24.5 q0 31 20.5 53.5t53.5 22.5q19 0 34.5 -8t27.5 -22t18 -32.5t6 -38.5q0 -26 -8 -55.5t-26.5 -64t-50.5 -75.5t-79 -87z" />
<glyph unicode="&#x21b;" horiz-adv-x="754" d="M680 6q-40 -9 -91 -14.5t-97 -5.5q-73 0 -121 17.5t-76.5 53t-40.5 90t-12 132.5v653h-242v86h242v348l108 31v-379h322v-86h-322v-592q0 -79 8 -128t26.5 -77t50 -39.5t83.5 -11.5q38 0 75.5 5t70.5 13zM301 -444q47 46 67.5 88.5t20.5 74.5q0 18 -4 29.5t-12.5 24.5 t-12.5 22.5t-4 24.5q0 31 20.5 53.5t53.5 22.5q19 0 34.5 -8t27.5 -22t18 -32.5t6 -38.5q0 -26 -8 -55.5t-26.5 -64t-50.5 -75.5t-79 -87z" />
<glyph unicode="&#x2c6;" horiz-adv-x="922" d="M659 1190l-198 180l-201 -180l-55 55l258 258l254 -256z" />
<glyph unicode="&#x2c7;" horiz-adv-x="922" d="M459 1190l-254 256l57 57l199 -180l201 180l55 -55z" />
<glyph unicode="&#x2d8;" horiz-adv-x="874" d="M670 1464q0 -48 -14.5 -90.5t-43.5 -75.5t-74 -52t-104 -19t-102.5 19t-71.5 52t-41.5 75.5t-13.5 90.5h82q0 -30 9.5 -56.5t28.5 -47.5t47 -33t64 -12q69 0 109.5 40t40.5 109h84z" />
<glyph unicode="&#x2d9;" horiz-adv-x="573" d="M369 1352q0 -17 -6.5 -31.5t-18 -26t-26 -18t-31.5 -6.5t-32 6t-26 17.5t-17.5 26.5t-6.5 32t6.5 31.5t18 26t26 18t31.5 6.5t32 -6t26 -17.5t17.5 -26.5t6.5 -32z" />
<glyph unicode="&#x2da;" horiz-adv-x="823" d="M618 1343q0 -42 -14.5 -78.5t-42 -65t-68 -44.5t-90.5 -16q-45 0 -81.5 12.5t-62.5 37t-40 61.5t-14 85q0 42 14.5 79t42 65.5t68 44.5t90.5 16q46 0 82.5 -12.5t62.5 -37t39.5 -61.5t13.5 -86zM522 1339q0 29 -7.5 52t-21.5 39t-34.5 24t-46.5 8q-22 0 -41.5 -7.5 t-35.5 -22.5t-25 -38.5t-9 -54.5q0 -29 7.5 -51.5t22 -38.5t35 -24t46.5 -8q21 0 41 7t35.5 22t24.5 38.5t9 54.5z" />
<glyph unicode="&#x2db;" horiz-adv-x="791" d="M514 0q-58 -44 -96 -83.5t-61 -75.5t-32.5 -69t-9.5 -63q0 -46 23.5 -69t67.5 -23q34 0 67 13.5t70 41.5l43 -67q-42 -37 -91.5 -57.5t-103.5 -20.5q-93 0 -139.5 45.5t-46.5 118.5q0 75 45.5 157t150.5 162z" />
<glyph unicode="&#x2dc;" horiz-adv-x="1069" d="M864 1382q-36 -65 -86.5 -100t-111.5 -35q-44 0 -78 15.5t-75 46t-64.5 44t-53.5 13.5q-34 0 -68 -25t-63 -73l-59 49q35 65 86.5 100t111.5 35q44 0 78.5 -15.5t75 -46t64 -44t53.5 -13.5q34 0 68 25t63 74z" />
<glyph unicode="&#x2dd;" horiz-adv-x="1044" d="M588 1190l-62 55l234 250l80 -70zM266 1190l-61 55l219 258l80 -69z" />
<glyph unicode="&#x312;" horiz-adv-x="0" d="M-463 1507q-49 -49 -68.5 -91t-19.5 -73q0 -19 5 -31t11.5 -21.5t11.5 -20.5t5 -29q0 -31 -21.5 -52.5t-52.5 -21.5q-16 0 -31.5 6.5t-27.5 19.5t-19.5 32t-7.5 45q0 49 36 119.5t128 160.5z" />
<glyph unicode="&#x315;" horiz-adv-x="10" d="M-23 1180l-77 30l123 322l100 -37z" />
<glyph unicode="&#x326;" horiz-adv-x="0" d="M-717 -444q47 46 67.5 88.5t20.5 74.5q0 18 -4 29.5t-12.5 24.5t-12.5 22.5t-4 24.5q0 31 20.5 53.5t53.5 22.5q19 0 34.5 -8t27.5 -22t18 -32.5t6 -38.5q0 -26 -8 -55.5t-26.5 -64t-50.5 -75.5t-79 -87z" />
<glyph unicode="&#x394;" horiz-adv-x="1231" d="M61 0v76l490 1306h131l487 -1306v-76h-1108zM641 1190q-11 32 -18 56.5t-11 43.5h-2q-8 -30 -15.5 -53.5t-16.5 -50.5l-392 -1090h848z" />
<glyph unicode="&#x3a9;" horiz-adv-x="1411" d="M100 295h66q11 -53 19.5 -105.5t13.5 -99.5h290v127q-61 25 -129.5 69t-126 112t-95.5 162.5t-38 221.5q0 85 17.5 163.5t52 147t86.5 125t121 97t155 62.5t189 22q132 0 241.5 -44.5t188.5 -124t122.5 -190t43.5 -241.5q0 -83 -18.5 -154t-49.5 -131t-71.5 -108.5 t-83.5 -85.5t-86 -63t-80 -40v-127h289q5 42 14 95t20 110h66v-295h-479v252q60 24 125 68t118.5 109t88 152.5t34.5 198.5q0 122 -35.5 221t-100 168.5t-156 107.5t-203.5 38q-126 0 -219.5 -43.5t-155 -116t-91.5 -167t-30 -197.5q0 -119 32.5 -207t84.5 -152t118 -107 t132 -73v-252h-480v295z" />
<glyph unicode="&#x3bc;" horiz-adv-x="1212" d="M225 928q-37 6 -85.5 11.5t-92.5 8.5v56q29 4 65 7t75 5t77 2.5t70 -0.5v-682q0 -135 53 -199.5t166 -64.5q75 0 138 33.5t109 95.5t70.5 147t24.5 184v396q-37 6 -85.5 11.5t-92.5 8.5v56q29 4 65 7t75 5t77 2.5t70 -0.5v-680q0 -75 4.5 -124t15 -78.5t27.5 -42.5 t43 -13q8 0 18.5 1.5t17.5 4.5l15 -88q-14 -5 -37 -7.5t-45 -2.5q-43 0 -75 17.5t-51.5 51t-26.5 81.5t-1 108l-2 2q-22 -60 -58 -109t-83.5 -83.5t-106.5 -53t-127 -18.5q-72 0 -126 23t-82 69l14 -592h-113v1444z" />
<glyph unicode="&#x3c0;" horiz-adv-x="1296" d="M956 928v-87v-81t1 -75.5t2 -70.5q2 -58 5.5 -105.5t8 -87t9.5 -72.5t11 -62q12 -58 24 -95.5t27 -62t33.5 -35t42.5 -10.5q26 0 57 4.5t54 9.5l14 -92q-25 -8 -60.5 -13t-70.5 -5q-52 0 -88 15t-63.5 48.5t-47.5 88t-35 132.5q-6 33 -11 72t-9.5 81.5t-7 89.5t-4.5 99 q-1 36 -1.5 72t-0.5 75t0.5 75.5t1.5 91.5h-424q3 -79 3.5 -157t-7.5 -157q-14 -154 -45 -306.5t-82 -307.5h-129q28 77 51 154t41 154t31.5 153.5t21.5 152.5q5 39 7.5 78.5t3 78.5t0 78.5t-2.5 78.5h-276v90h1196v-90h-281z" />
<glyph unicode="&#x2013;" d="M0 563v92h1126v-92h-1126z" />
<glyph unicode="&#x2014;" horiz-adv-x="2048" d="M256 563v92h1536v-92h-1536z" />
<glyph unicode="&#x2018;" horiz-adv-x="453" d="M360 1479q-46 -50 -70 -93t-33 -78t-4.5 -61.5t15.5 -42.5q15 -21 15.5 -42.5t-8.5 -39t-26 -28.5t-38 -11q-27 0 -48 15.5t-31.5 44t-7.5 68t22.5 88.5t59 106t103.5 119l51 -45v0z" />
<glyph unicode="&#x2019;" horiz-adv-x="453" d="M238 1513q27 0 48 -15.5t31 -43.5t7.5 -68t-22.5 -89t-60 -105.5t-103 -118.5l-51 45q46 50 70.5 93t33 78t4.5 61.5t-16 42.5q-10 14 -13.5 28t-2 27.5t8 25t16 20.5t22 14t27.5 5z" />
<glyph unicode="&#x201a;" horiz-adv-x="453" d="M238 162q27 0 48 -15.5t31 -44t7.5 -68t-22.5 -88.5t-60 -106t-103 -119l-51 46q46 50 70.5 93t33 78t4.5 61t-16 42q-10 14 -13.5 28t-2 27.5t8 25.5t16 21t22 14t27.5 5z" />
<glyph unicode="&#x201c;" horiz-adv-x="784" d="M692 1479q-46 -50 -70.5 -93t-33 -78t-4.5 -61.5t16 -42.5q10 -14 13.5 -28t2 -27.5t-8 -25.5t-16 -21t-22 -14t-26.5 -5q-27 0 -48 15.5t-31.5 44t-7.5 68t22.5 88.5t59 106t103.5 119zM360 1479q-46 -50 -70 -93t-33 -78t-4.5 -61.5t15.5 -42.5q15 -21 15.5 -42.5 t-8.5 -39t-26 -28.5t-38 -11q-27 0 -48 15.5t-31.5 44t-7.5 68t22.5 88.5t59 106t103.5 119z" />
<glyph unicode="&#x201d;" horiz-adv-x="784" d="M569 1513q27 0 48 -15.5t31.5 -43.5t7.5 -68t-22.5 -89t-59.5 -105.5t-103 -118.5l-51 45q46 50 70.5 93t33 78t4.5 61.5t-16 42.5q-10 14 -13.5 28t-2 27.5t8 25t16 20.5t22 14t26.5 5zM238 1513q27 0 48 -15.5t31 -43.5t7.5 -68t-22.5 -89t-60 -105.5t-103 -118.5 l-51 45q46 50 70.5 93t33 78t4.5 61.5t-16 42.5q-10 14 -13.5 28t-2 27.5t8 25t16 20.5t22 14t27.5 5z" />
<glyph unicode="&#x201e;" horiz-adv-x="784" d="M569 162q27 0 48 -15.5t31.5 -44.5t7.5 -69t-23.5 -89.5t-60.5 -106t-101 -116.5l-51 46q44 47 69.5 90t34 78.5t4.5 62t-16 43.5q-9 13 -13 27.5t-2.5 28t8 25.5t16 21t22 14t26.5 5zM238 162q27 0 48 -15.5t31 -44.5t7 -69t-23.5 -89.5t-60.5 -106t-101 -116.5l-51 46 q44 47 69.5 90t34 78.5t4.5 62t-16 43.5q-9 13 -13 27.5t-2.5 28t8 25.5t16 21t22.5 14t27 5z" />
<glyph unicode="&#x2020;" horiz-adv-x="901" d="M492 1188l24 -219l-29 -506h-73l-29 506l25 219h-297v86h297l-25 282h131l-24 -282h296v-86h-296z" />
<glyph unicode="&#x2021;" horiz-adv-x="901" d="M492 623l24 -283h-131l25 283h-297v86h297l-25 239l25 240h-297v86h297l-25 282h131l-24 -282h296v-86h-296l24 -240l-24 -239h296v-86h-296z" />
<glyph unicode="&#x2022;" horiz-adv-x="856" d="M621 608q0 -40 -15 -75t-41.5 -61t-61.5 -41t-75 -15t-75 15t-61 41t-41 61t-15 75t15 75t41 61.5t61 41.5t75 15t75 -15t61.5 -41.5t41.5 -61.5t15 -75z" />
<glyph unicode="&#x2026;" horiz-adv-x="1245" d="M1100 74q0 -18 -7 -34t-19 -28t-28 -19t-34 -7t-34 7t-28 19t-19 28t-7 34t7 34t19 28t28 19t34 7t34 -7t28 -19t19 -28t7 -34zM696 74q0 -18 -7 -34t-19 -28t-28 -19t-34 -7t-34 7t-28 19t-19 28t-7 34t7 34t19 28t28 19t34 7t34 -7t28 -19t19 -28t7 -34zM293 74 q0 -18 -7 -34t-19 -28t-28 -19t-34 -7t-34 7t-28 19t-19 28t-7 34t7 34t19 28t28 19t34 7t34 -7t28 -19t19 -28t7 -34z" />
<glyph unicode="&#x2030;" horiz-adv-x="2048" d="M657 1094q0 -77 -22 -140t-62 -107.5t-93.5 -67.5t-114.5 -23t-109 16.5t-83 53t-54 95.5t-19 142q0 77 22.5 140t62.5 106.5t92 66.5t110 23q62 0 111 -16.5t85 -52.5t55 -95t19 -141zM551 1081q0 60 -9 103.5t-28.5 72.5t-53.5 43.5t-83 14.5q-40 0 -72 -17t-54.5 -49 t-34 -75t-11.5 -95q0 -57 8.5 -101t28 -74.5t52 -47t79.5 -16.5q45 0 78.5 17t55.5 48.5t33 76t11 99.5zM1257 322q0 -77 -22 -140t-62 -107.5t-93.5 -67.5t-114.5 -23t-109 16.5t-83 52.5t-54 95.5t-19 142.5q0 77 22.5 139.5t62.5 106.5t92 67t110 23q62 0 111 -16.5 t85 -52.5t55 -95t19 -141zM1151 309q0 60 -9 103.5t-28.5 72.5t-53.5 43.5t-83 14.5q-40 0 -72 -17.5t-54.5 -49t-34 -75t-11.5 -94.5q0 -57 8.5 -101t28 -74.5t52 -47t79.5 -16.5q45 0 78.5 17t55.5 48.5t33 76t11 99.5zM1915 322q0 -77 -22 -140t-62.5 -107.5t-94 -67.5 t-114.5 -23t-109 16.5t-82.5 52.5t-53.5 95.5t-19 142.5q0 77 22.5 140t62.5 106.5t92 66.5t110 23q62 0 111 -16.5t84.5 -52.5t55 -95t19.5 -141zM1808 309q0 60 -9 103.5t-28.5 72.5t-53.5 43.5t-83 14.5q-40 0 -72 -17.5t-54.5 -49t-34 -75t-11.5 -94.5q0 -57 8.5 -101 t28 -74.5t52 -47t79.5 -16.5q45 0 78.5 17t55.5 48.5t33 76t11 99.5zM246 -41l-76 53l940 1411l76 -53z" />
<glyph unicode="&#x2039;" horiz-adv-x="643" d="M389 264l-254 338l256 344l74 -55l-215 -287l215 -282z" />
<glyph unicode="&#x203a;" horiz-adv-x="643" d="M252 264l-74 55l215 287l-213 283l76 57l252 -338z" />
<glyph unicode="&#x2044;" horiz-adv-x="438" d="M-356 -270l-80 55l1284 1851l80 -55z" />
<glyph unicode="&#x2074;" horiz-adv-x="748" d="M551 954v-120q40 -4 76 -11t71 -16v-49h-409v49q35 9 76.5 16t83.5 11v120h-396l-8 70l363 563h143v-543h145v-90h-145zM449 1499l-293 -459q30 1 71 2t82.5 1.5t79 0.5h60.5v455z" />
<glyph unicode="&#x20ac;" horiz-adv-x="1278" d="M350 793q-4 -70 -4 -103q0 -30 1.5 -58.5t4.5 -53.5h559v-84h-546q20 -99 61 -176.5t102.5 -131.5t144.5 -82t185 -28q44 0 89.5 6t89.5 17t85.5 25.5t79.5 31.5l25 -84q-42 -19 -87.5 -34.5t-95 -27.5t-102.5 -19t-106 -7q-124 0 -224.5 34t-175.5 99.5t-122.5 160 t-67.5 216.5h-209v84h199q-2 24 -3.5 47t-1.5 47q0 32 1.5 62.5t5.5 58.5h-201v84h213q23 115 72 210t126 165t183 108.5t239 38.5q43 0 85.5 -3.5t83.5 -9.5t80.5 -14t78.5 -18v-260h-65q-9 45 -16.5 92.5t-10.5 87.5q-30 9 -100 23t-156 14q-105 0 -188.5 -32.5 t-143.5 -91.5t-98.5 -137.5t-57.5 -172.5h549v-84h-561z" />
<glyph unicode="&#x2122;" horiz-adv-x="1642" d="M1251 807v51q19 6 42 10.5t50 8.5l-43 284l-16 123l-29 -102l-118 -375h-109l-115 379l-26 98l-6 -78l-52 -329q28 -4 52 -8.5t45 -10.5v-51h-281v51q20 6 44.5 10.5t53.5 8.5l66 436q-27 3 -51 7.5t-45 10.5v51h239l113 -376l25 -101l20 88l123 389h231v-51 q-19 -6 -42.5 -10.5t-49.5 -7.5l66 -436q27 -4 51 -8.5t45 -10.5v-51h-283zM565 1169q-7 37 -13 76t-9 68h-127v-432q30 -3 62 -9t59 -14v-51h-336v51q28 8 58.5 14t59.5 9v432h-126q-4 -32 -10 -69.5t-13 -74.5h-57v213h510v-213h-58z" />
<glyph unicode="&#x2202;" horiz-adv-x="1311" d="M1139 856q0 -84 -8.5 -173t-28.5 -176t-52 -168t-79 -149q-31 -44 -72 -82t-90.5 -65.5t-107 -43t-121.5 -15.5q-99 0 -174 29t-125.5 83t-76.5 131t-26 174q0 102 35 189t97.5 151.5t150 101t192.5 36.5q72 0 132.5 -18.5t107 -52t80 -80t51.5 -101.5q3 57 4.5 106 t1.5 98q0 151 -37 261.5t-102.5 182.5t-154.5 106.5t-193 33.5l6 88q135 -3 244 -47t186 -126.5t118.5 -201.5t41.5 -272zM954 487q0 64 -20.5 119t-60 95.5t-98.5 63.5t-136 23t-141 -29.5t-110 -80.5t-71.5 -119.5t-25.5 -146.5q0 -86 22.5 -149t62.5 -104.5t95.5 -62 t120.5 -20.5q78 0 144.5 32t115 87.5t75.5 130.5t27 161z" />
<glyph unicode="&#x220f;" horiz-adv-x="1606" d="M1272 1399v-1915h-111v1915h-717v-1915h-110v1915h-234v96h1405v-96h-233z" />
<glyph unicode="&#x2211;" horiz-adv-x="1251" d="M74 -516v82l669 940l-628 907v82h979v-96h-840l620 -889l-665 -926h913v-100h-1048z" />
<glyph unicode="&#x2212;" d="M92 563v92h942v-92h-942z" />
<glyph unicode="&#x221a;" horiz-adv-x="1229" d="M651 0h-123l-331 932h-197v86h281l223 -653q23 -67 44.5 -134t41.5 -133h4q17 63 33 124.5t35 121.5l358 1208h115z" />
<glyph unicode="&#x221e;" horiz-adv-x="1978" d="M1835 618q0 -63 -23 -120.5t-66.5 -101t-106.5 -69.5t-142 -26q-66 0 -131 20.5t-129 55t-127 78.5t-125 92q-62 -46 -125 -90.5t-127 -79t-129 -55.5t-129 -21q-84 0 -146.5 24.5t-104 66t-61.5 96.5t-20 116q0 64 23 121.5t66.5 101t106.5 69.5t142 26q66 0 131.5 -21 t130 -55.5t127.5 -78.5t125 -91q62 47 125.5 91t127 78.5t127.5 55.5t128 21q85 0 147.5 -24.5t103.5 -66.5t61 -97t20 -116zM1718 608q0 48 -14.5 87.5t-43 68.5t-71 45t-98.5 16q-46 0 -95.5 -17t-101.5 -46t-106.5 -67.5t-110.5 -80.5q56 -42 110.5 -81t108 -69.5 t105 -48.5t102.5 -18t91 17t67.5 46.5t42 67.5t14.5 80zM903 608q-56 42 -111 81.5t-108.5 69.5t-105.5 48t-103 18t-91 -17t-67.5 -46t-42 -67.5t-14.5 -80.5q0 -48 14.5 -87.5t43 -68.5t71 -45t98.5 -16q47 0 97 17t102 46.5t106.5 67.5t110.5 80z" />
<glyph unicode="&#x222b;" horiz-adv-x="682" d="M651 1393q-21 8 -51.5 13t-58.5 5q-46 0 -78.5 -15t-53.5 -59t-30.5 -123t-9.5 -206q0 -81 1.5 -157t3.5 -151.5t5 -153.5t5 -164.5t3.5 -184.5t1.5 -213q0 -144 -17.5 -243t-53.5 -159.5t-90.5 -87t-127.5 -26.5q-26 0 -52 2.5t-48 7.5v100q20 -6 50.5 -11t58.5 -5 q46 0 78.5 14.5t53.5 56.5t30.5 118t9.5 198q0 112 -3.5 223.5t-7 234.5t-7 264.5t-3.5 313.5q0 145 17.5 244t53.5 160t90.5 87.5t127.5 26.5q26 0 52.5 -3t49.5 -9v-98v0z" />
<glyph unicode="&#x2248;" d="M1016 758q-20 -19 -45 -37.5t-55 -33t-65.5 -23.5t-76.5 -9q-52 0 -92 9.5t-72.5 23t-61.5 30t-59 30t-65 23t-80 9.5q-34 0 -63.5 -9t-54.5 -22.5t-45 -28t-34 -26.5l-36 82q20 18 45 36t55 32.5t65 23.5t76 9q48 0 87 -9.5t73 -24t64.5 -31t62 -31t66.5 -24t77 -9.5 q56 0 101.5 24t95.5 68zM1016 436q-20 -15 -45 -31.5t-55 -30t-65.5 -22t-76.5 -8.5q-52 0 -92 9.5t-72.5 23t-61.5 30t-59 30t-65 23t-80 9.5q-34 0 -63.5 -9t-54.5 -22.5t-45 -28t-34 -26.5l-36 82q20 18 45 35.5t55 32t65 23.5t76 9q48 0 87 -9.5t73 -24t64.5 -31t62 -31 t66.5 -24t77 -9.5q56 0 101.5 22t95.5 60z" />
<glyph unicode="&#x2260;" d="M526 408l-129 -320h-94l129 320h-313v94h350l86 215h-436v94h473l133 330h96l-133 -330h320v-94h-357l-88 -215h445v-94h-482z" />
<glyph unicode="&#x2264;" d="M918 223l-795 490l792 493l54 -80l-674 -411l674 -404zM133 0v92h860v-92h-860z" />
<glyph unicode="&#x2265;" d="M211 223l-53 80l673 412l-673 403l51 88l795 -489zM133 0v92h860v-92h-860z" />
<glyph unicode="&#x25ca;" horiz-adv-x="1253" d="M670 -16h-70l-508 716l496 699h63l510 -715zM616 1280l-405 -575l428 -596l405 565z" />
<glyph unicode="&#x25fc;" horiz-adv-x="1020" d="M0 1020h1020v-1020h-1020v1020z" />
<glyph unicode="&#xeeee;" horiz-adv-x="358" d="M358 2007v-2662h-358v2662h358z" />
<glyph unicode="&#xf6c9;" horiz-adv-x="776" d="M233 1503l-28 70l321 149l45 -98z" />
<glyph unicode="&#xf6ca;" horiz-adv-x="1032" d="M514 1499l-309 166l41 76l270 -133l272 133l39 -74z" />
<glyph unicode="&#xf6cb;" horiz-adv-x="1004" d="M799 1589q0 -17 -6 -31.5t-17 -25.5t-25.5 -17t-31.5 -6t-31.5 6t-25.5 17t-17 25.5t-6 31.5t6 31.5t17 25.5t25.5 17t31.5 6t31.5 -6t25.5 -17t17 -25.5t6 -31.5zM365 1589q0 -17 -6 -31.5t-17 -25.5t-25.5 -17t-31.5 -6t-31.5 6t-25.5 17t-17 25.5t-6 31.5t6 31.5 t17 25.5t25.5 17t31.5 6t31.5 -6t25.5 -17t17 -25.5t6 -31.5z" />
<glyph unicode="&#xf6ce;" horiz-adv-x="776" d="M543 1503l-338 121l45 98l321 -149z" />
<glyph unicode="&#xf6cf;" horiz-adv-x="1055" d="M592 1503l-60 60l242 227l76 -76zM264 1503l-59 60l207 227l75 -76z" />
<glyph unicode="&#xf6d0;" horiz-adv-x="940" d="M205 1546v88h530v-88h-530z" />
<glyph unicode="&#xf8ff;" horiz-adv-x="2128" d="M1628 1268q-5 5 -9.5 10l-9 10t-9.5 10l-11 11l146 153q14 -12 26 -24t23 -25zM1853 715v28.5v26.5l215 8v-35.5v-35.5zM1094 1491h-30h-28l-6 213h36h34zM539 1307q-6 -5 -11 -9.5l-10 -9t-10 -9.5t-10 -9l-154 145q12 13 23.5 25t25.5 24zM1530 741q0 -54 -11 -103 t-30.5 -91.5t-45 -77.5t-54.5 -61v-154l-33 -10l63 -150l-59 -14l59 -143l-59 -15l22 -53l-57 -129h-94q-2 -18 -16 -33t-36.5 -26.5t-51.5 -18t-62 -6.5q-34 0 -63.5 6.5t-52 18t-36 26.5t-14.5 33h-94l-94 229l61 17l-61 149l67 17l-39 96v158q-29 28 -54.5 64.5t-45 79.5 t-30.5 91.5t-11 99.5q0 97 36.5 182t99.5 148.5t148 100t183 36.5q96 0 180.5 -36.5t148 -100t100 -148.5t36.5 -182zM59 707v36v35l215 -8v-27.5v-27.5zM1087 772q5 0 5 10.5t-5 10.5q8 -11 0 -21zM1085 786q-5 0 -4.5 -1.5t1.5 -3t1.5 -2.5t-2.5 -1v-2q5 0 5.5 1t-0.5 2.5 l-2 3t1 1.5v2zM1077 782q0 3 -2.5 4t-5.5 -2q2 0 3 0.5t3 -2.5q-2 0 -4 -1.5t-2 -3t1 -1.5t5 2v-2h2v6zM1069 772q-6 10 0 21q-5 0 -5 -10.5t5 -10.5zM1462 741q0 83 -31 156t-85 127t-126.5 85.5t-154.5 31.5q-83 0 -155.5 -31.5t-126.5 -85.5t-85.5 -127t-31.5 -156 q0 -86 35 -166t106 -139h139l-31 297q-21 -5 -40.5 -10t-36.5 -10q-7 -2 -12.5 1t-9 9t-5.5 13.5t-1.5 14.5t2.5 12t7 7q59 20 121 31.5t125 11.5t125 -11.5t121 -31.5q4 -2 6.5 -7t3 -12t-1.5 -14.5t-5.5 -13.5t-9 -9t-12.5 -1q-17 5 -36.5 10t-41.5 10l-30 -297h139 q27 24 52 56t44.5 70.5t31 83.5t11.5 95zM1061 778q-3 -2 -3 3t3 3v2q-5 2 -5.5 -5t5.5 -5v2zM1053 786h-2v-6q0 -3 -1 -2.5t-1 2.5v6h-2v-6q0 -5 3 -4t3 4v6zM1044 778h-4v13h-2v-15h6v2zM1163 743q-18 4 -43.5 6.5t-54.5 2.5t-54.5 -2.5t-43.5 -6.5l28 -307h140zM1329 381 h-528v-127l35 -86l493 125v88zM1298 229l-507 -131l38 -96l510 127zM1300 63l-509 -129l57 -139h436l33 78l-17 35l-161 -41l-21 51l221 55z" />
<glyph unicode="&#xfb00;" horiz-adv-x="1327" d="M1405 1391q-42 12 -85.5 18t-86.5 6q-131 0 -190.5 -79.5t-59.5 -245.5v-72h326v-86h-326v-848q46 -3 92 -10.5t86 -18.5v-55h-465v55q41 11 86.5 18.5t91.5 10.5v848h-512v-848q47 -3 92.5 -10.5t86.5 -18.5v-55h-465v55q40 11 86 18.5t92 10.5v848h-242v86h242v53 q0 73 18 147t64.5 134t127.5 97.5t208 37.5q83 0 167.5 -16t159.5 -48q24 20 51.5 35t59 25t66.5 15t73 5q45 0 85.5 -4.5t82.5 -13.5zM932 1343q-69 31 -136 43.5t-132 12.5q-78 0 -135 -19.5t-94 -58t-55 -95.5t-18 -132v-76h512v67q0 82 15 145.5t43 112.5z" />
<glyph unicode="&#xfb01;" horiz-adv-x="1225" d="M711 0v55q39 11 85 18.5t93 10.5v848h-527v-848q47 -3 93 -10.5t86 -18.5v-55h-465v55q39 11 85 18.5t93 10.5v848h-242v86h242v53q0 103 27.5 183t82.5 135.5t139.5 84.5t196.5 29q66 0 133 -10t130 -27l-25 -92q-30 9 -62 17t-64.5 13t-64 8t-59.5 3q-85 0 -147 -21.5 t-101.5 -63t-58.5 -101t-19 -135.5v-76h635v-934q47 -3 93 -10.5t86 -18.5v-55h-465z" />
<glyph unicode="&#xfb02;" horiz-adv-x="1223" d="M711 0v55q39 11 85 18.5t93 10.5v1315q-56 9 -108.5 13.5t-102.5 4.5q-82 0 -141.5 -16.5t-98 -50.5t-57.5 -88t-19 -129v-115h326v-86h-326v-848q47 -3 93 -10.5t86 -18.5v-55h-465v55q39 11 85 18.5t93 10.5v848h-242v86h242v135q0 84 27.5 149t82 110t136.5 68t190 23 q74 0 152 -6.5t155 -17.5v-1395q47 -3 93 -10.5t86 -18.5v-55h-465z" />
<glyph unicode="&#xfb03;" horiz-adv-x="1839" d="M1327 0v55q40 11 86 18.5t92 10.5v848h-522v-848q46 -3 92 -10.5t86 -18.5v-55h-465v55q41 11 86.5 18.5t91.5 10.5v848h-512v-848q47 -3 92.5 -10.5t86.5 -18.5v-55h-465v55q40 11 86 18.5t92 10.5v848h-242v86h242v53q0 73 18 147t64.5 134t127.5 97.5t208 37.5 q50 0 95 -5t86.5 -14.5t80 -23t74.5 -31.5q50 40 124.5 65t188.5 25q66 0 134 -10.5t124 -26.5l-25 -92q-28 9 -60 17t-64 13t-63 8t-58 3q-86 0 -148 -22t-101.5 -63.5t-58 -101t-18.5 -134.5v-76h631v-934q46 -3 92 -10.5t86 -18.5v-55h-465zM942 1339q-38 17 -73 28.5 t-69.5 18.5t-68 10t-67.5 3q-78 0 -135 -19.5t-94 -58t-55 -95.5t-18 -132v-76h512v53q0 65 14 135.5t54 132.5z" />
<glyph unicode="&#xfb04;" horiz-adv-x="1839" d="M1327 0v55q40 11 86 18.5t92 10.5v1315q-27 4 -53 7.5t-52.5 6t-52.5 3.5t-51 1q-81 0 -140.5 -16.5t-97.5 -51t-56.5 -88t-18.5 -128.5v-115h326v-86h-326v-848q46 -3 92 -10.5t86 -18.5v-55h-465v55q41 11 86.5 18.5t91.5 10.5v848h-512v-848q47 -3 92.5 -10.5 t86.5 -18.5v-55h-465v55q40 11 86 18.5t92 10.5v848h-242v86h242v53q0 73 18 147t64.5 134t127.5 97.5t208 37.5q48 0 90.5 -4.5t82 -13.5t75.5 -21.5t71 -28.5q54 42 132.5 63t185.5 21q77 0 155.5 -6.5t149.5 -17.5v-1395q46 -3 92 -10.5t86 -18.5v-55h-465zM926 1348 q-36 15 -69 25t-65.5 16t-64 8t-63.5 2q-78 0 -135 -19.5t-94 -58t-55 -95.5t-18 -132v-76h512v135q0 57 13 105.5t39 89.5z" />
<glyph horiz-adv-x="1966" d="M1802 1169q0 -8 -4 -8q-22 3 -43 0.5t-43 -4.5q-35 -2 -61 -3t-47.5 -2.5t-39.5 -3.5t-36 -5q-8 -7 -10.5 -15.5t-3.5 -17t-2 -17.5t-5 -18q0 -9 3.5 -16t5.5 -15q5 -6 12.5 -9t15.5 -5q14 2 27.5 8t19.5 19q0 8 -4 13.5t-10 10.5q-5 4 -10.5 5t-11 1t-10.5 1.5t-9 7.5 q6 10 19.5 8t25.5 -2q11 -3 18.5 -12t12.5 -21q-2 -17 -12 -30.5t-25 -24.5q-11 -3 -21.5 -5t-21.5 -5q-25 6 -51 16t-41 33q-4 12 -3.5 23t2 22t4 22t3.5 23q-5 9 -13.5 7.5t-17.5 0.5l-67 -2q0 3 -2.5 4t-2.5 4q7 5 15 4.5t14 1.5q19 -3 39 -1.5t39 1.5q8 6 9 16t1 19 q6 14 7 32.5t12 29.5q5 3 9 2t7 -4t6 -7t6 -6q6 -8 6.5 -16.5t0.5 -18.5v-20t4 -19q4 -6 9.5 -7.5t11.5 -1l12 1t12 -0.5q24 1 48 1.5t52 1.5t60 3t71 7q3 -2 4.5 -2.5t3.5 -4.5zM1327 1028q-25 0 -52.5 -1t-51.5 -9q-8 3 -15 5t-12 11q5 28 7.5 57.5t-5.5 57.5 q-5 6 -13.5 0.5t-15.5 -8.5q-14 -9 -28 -19t-26 -22t-20 -26.5t-10 -31.5q-8 -8 -18.5 -11.5t-19.5 1.5q-6 7 -6.5 15t0 16t1.5 16.5t-2 16.5l-2 63q-6 6 -16 3.5t-21 0.5q-2 1 -6 1.5t-7.5 1t-6 2t-2.5 6.5q26 -2 52.5 2.5t53.5 -0.5q6 -6 6.5 -14t0 -16.5t1.5 -15.5 t11 -10q28 13 53.5 30t52.5 28q6 -4 14 -4h15t12.5 -2.5t8.5 -12.5q5 -22 3.5 -43.5t0.5 -44.5q3 -6 2.5 -12.5t5.5 -11.5q8 -2 14 -3t12 3q8 0 16 -2.5t19 -2.5q2 -2 2.5 -4.5t-2.5 -5.5zM915 1145q8 -38 -14 -64q-11 -7 -21 -15.5t-20 -16.5t-21 -14t-24 -7q-6 2 -9 -0.5 t-5 -6t-4.5 -5.5t-8.5 2q-11 8 -24.5 4t-26.5 -2q-12 0 -22 0.5t-21 5.5q-8 7 -16 14.5t-14.5 16.5t-9 20t2.5 23q7 18 18.5 34t31.5 27q21 11 44.5 22t51.5 5q16 -1 33 -2.5t32 -6t27 -12.5t20 -22zM926 1360q-11 -13 -27.5 -17.5t-32.5 0.5q-9 13 -17.5 24.5t-10.5 25.5 q-13 21 -31.5 32.5t-40 18.5t-44.5 11.5t-44 10.5l-64 4q-5 -5 -12.5 -3t-13.5 -1q-35 -11 -61.5 -20.5t-51.5 -22.5q-6 -8 -15 -14t-17 -12.5t-15 -14.5t-8 -20q-13 -31 -17 -69.5t-6 -73.5q10 -8 22 -5.5t23 0.5q44 5 87 5h89q4 -2 4.5 -7t-1.5 -8q-9 -6 -16.5 -5t-15.5 4 t-15.5 5.5t-16.5 -0.5q-20 2 -42 -1t-42 -1q-18 -3 -38 -4t-36 -10l-6 -8q-2 -19 -2 -34v-29.5t1 -30t3 -35.5q1 -7 0.5 -14.5t-0.5 -14.5t1.5 -14.5t6.5 -14.5q26 -2 41.5 -1.5t29 2t29.5 3.5t42 3q6 5 13 2t13 -5q2 -2 1 -4t1 -4l-8 -4q-24 4 -42.5 3.5t-37.5 -3t-41 -4.5 t-53 0q-22 -2 -46.5 -4t-47.5 0q-32 -2 -67 -2t-64 8l-4 6q3 3 8 6t10 5q16 -8 37 -10t43 -5q14 2 28 1t25 7q-1 26 2 49t6.5 45t8 45.5t6.5 51.5q-2 4 -6 8q-31 1 -59 -0.5t-56 10.5q-2 5 0.5 8t5.5 3q28 -8 57.5 -8.5t57.5 1.5l4 7q5 34 11.5 70.5t19.5 64.5v6 q46 54 107 86.5t136 40.5q38 5 75 -4t69 -23q9 -3 20 -3t21 -5q35 -8 69.5 -24.5t57.5 -47.5q3 -3 2.5 -8t-2.5 -10zM1571 -127q-23 1 -48.5 -1t-52 -4.5t-51.5 -4t-47 1.5q-57 2 -112.5 -1t-110.5 -7t-110 -5t-111 5q-51 -8 -99 -3.5t-98 9.5q-60 5 -122.5 3.5t-125.5 -1.5 q-21 0 -47.5 -0.5t-54.5 -2.5t-54.5 -5t-47.5 -9q-8 -2 -17 -1.5t-14 10.5q0 32 -2.5 66.5t8.5 66.5q3 40 1.5 81.5t4.5 82.5q-4 23 -3.5 45.5t2 45t2.5 45.5t-3 46q0 66 5.5 132.5t8.5 135.5q5 74 2 146.5t0 146.5q4 9 10.5 11t13.5 2t15 -0.5t15 1.5q8 -5 18 -5.5 t19.5 0.5t19.5 2.5t18 0.5q7 7 16 11.5t11 -9.5q3 -5 0.5 -12t5.5 -12q-4 -29 -3 -78.5t4 -107t7 -117t7 -109.5q32 10 61.5 25t58 31.5t57 32t60.5 26.5q11 5 20 12t23 12q3 2 8 7t13 0q10 -5 8 -15.5t-2 -19.5q-10 -28 -12.5 -61t2.5 -64q5 -9 13.5 -5.5t14.5 3.5 q17 14 35 23t35 22q20 12 41 23.5t43 19.5q25 17 48.5 33.5t49.5 25.5l41 33q3 8 12 14q7 0 12 -3.5t11 -8.5q0 -29 6 -58.5t6 -58.5q2 -6 6 -4.5t6 -3.5q8 -11 3.5 -21.5t-7.5 -19.5l4 -4q35 8 65 26.5t59.5 39t59 39t64.5 26.5q10 9 22 12.5t23 14.5q10 1 19 8.5t18 14 t19 8.5t22 -7q3 0 7.5 -1.5t6.5 -6.5q-2 -8 2 -13t7 -11q-2 -8 -1.5 -15.5t1 -14t0.5 -13.5t-4 -13q1 -13 0 -26t-1 -25.5t2.5 -24t8.5 -22.5q-2 -7 0.5 -13t4.5 -12t2.5 -11.5t-3.5 -10.5q2 -16 0.5 -29.5t7.5 -25.5q2 -10 3 -19.5t-5 -17.5q5 -23 5.5 -47.5t8.5 -47.5 q-5 -8 -2.5 -16t2.5 -16q0 -39 3.5 -76t8 -74t8.5 -74.5t5 -76.5q0 -3 2.5 -8.5t-0.5 -10.5zM870 1104q-5 22 -16 43.5t-37 26.5q-3 -11 -12.5 -8.5t-16.5 1.5q-14 7 -28.5 3t-24.5 -15q-11 -15 -11.5 -30t5 -29.5t14 -28.5t17.5 -27q3 -8 9.5 -6t14.5 0q14 -5 26.5 2.5 t25.5 12.5q6 6 13.5 11.5t13.5 11.5t8.5 13.5t-1.5 18.5zM1513 -20l-16 34t-20 31q-13 22 -27.5 42t-17.5 46q-5 9 -10.5 17.5t-2.5 17.5q14 17 34 27.5t34 25.5l-19 35q-18 -2 -33 -8.5t-30 -11.5q-4 -3 -8.5 -7t-9.5 -6.5t-10.5 -2.5t-10.5 5q2 41 3 81.5t-1 78.5l-4 6 q-16 0 -28.5 5t-26.5 10q-3 -23 -6.5 -48.5t0.5 -50.5q-3 -8 -3 -18.5t1 -21t1 -21t-4 -19.5q2 -32 0.5 -57t-3 -49t-2 -49t2.5 -56l-2 -14h49q7 2 13.5 -2t11.5 2v28t-2 29q1 8 -1.5 17t-3.5 17t1.5 14.5t13.5 9.5q11 -5 11.5 -14t7.5 -17q-1 -7 1.5 -13t6 -11.5l7 -11 t5.5 -11.5q10 -6 17 -14.5t13.5 -18t13.5 -19t16 -16.5q6 2 11.5 -2.5t14.5 -1.5q5 0 8.5 4t3.5 9zM1245 367q-3 9 -8 17t-16 13q-5 5 -11.5 6t-9.5 -6q-9 -12 -13 -30.5t5 -30.5q3 -11 15.5 -12t23.5 4q9 6 12.5 17t1.5 22zM1249 31q0 40 -2 79t-2 76q0 14 1.5 27.5 t-1.5 26.5q-7 5 -14 5.5t-14 -1t-14.5 -3.5t-14.5 -1q-7 -12 -9 -24.5t-1.5 -25.5t1 -26.5t-0.5 -26.5q-5 -11 -5 -25t-2 -28q3 -10 2.5 -21.5t-0.5 -23.5t2 -23.5t9 -21.5q15 0 31 2.5t30 7.5q3 6 3.5 13.5t0.5 13.5zM1147 252q-16 -2 -33.5 -5t-28.5 -22q-4 -4 -5.5 -10.5 t-4 -13t-7 -10t-13.5 -1.5q-5 16 -4.5 29.5t0.5 30.5q-4 2 -8 1.5t-8 -1.5t-7.5 -1.5t-7.5 1.5q-9 -5 -14.5 -12t-8.5 -15q0 -60 1 -114t8 -113l6 -8q5 -4 11.5 -4t13 1t12 2t10.5 -1q-3 11 -2.5 21.5t1.5 21t1 20.5t-4 21q5 23 11 46.5t21 43.5q13 9 27 12t27 14 q2 17 6.5 33t-0.5 33zM938 61q9 18 12 36t1.5 37t-5.5 38t-8 39q1 6 -5.5 11.5t-15.5 11t-18 9.5t-12 7t-9 3.5t-8 -5.5q-22 3 -39 -8q-11 -7 -15.5 -16.5t-12.5 -14.5q-5 -3 -10.5 -1t-8.5 7q8 37 4 75t-10 77l-4 14h-16q-9 -3 -12.5 -9t-4 -13.5t-0.5 -15t-2 -13.5 q-6 -34 -4 -69.5t-4 -70.5q3 -34 0 -67t0 -64q0 -18 -3 -35.5t-1 -37.5q14 -8 32 -2t32 12q10 4 16.5 1.5t11.5 -8t10 -12t11 -10.5h13t13 2q11 6 24 17t24 23.5t18 26t6 25.5zM682 70q-7 22 -6.5 45t1 45t-1.5 43.5t-13 40.5q-26 15 -48 24l-16 11q-9 -2 -17.5 -1.5 t-17 0.5t-17 -2t-16.5 -8q-14 -8 -14 -22.5t-2 -30.5q11 -5 24 -3.5t25.5 2.5t23.5 -1.5t19 -15.5q-1 -4 0.5 -7l3 -6t1.5 -5.5t-3 -6.5q-2 -3 -2.5 -8t4.5 -8q3 -5 1.5 -11t-7.5 -8q-14 -5 -28 -4t-29 -2q-23 -9 -34.5 -31.5t-16.5 -44.5q-3 -5 -3 -10.5t1 -11t1.5 -11 t-3.5 -10.5q0 -14 9.5 -22t20.5 -13q3 4 7.5 7t9.5 -2q8 -3 15.5 0t14.5 8.5t14 12t15 11.5q11 2 13 -2t1.5 -11t-1 -15t4.5 -13q10 -5 17 -0.5t16 4.5q8 4 16.5 5.5t14.5 7.5zM508 371q-25 5 -53 3.5t-54 -3.5q-15 -2 -29.5 -5.5t-25.5 -11.5q-2 -32 -6.5 -66.5t-7.5 -66.5 q5 -54 3 -111.5t1 -113.5q8 0 15 2.5t14 -0.5q12 3 23 -1.5t24 1.5q2 32 2 64.5t2 64.5q5 11 14 15.5l19 9.5q4 2 8 1.5l8 -1t7.5 0t6.5 5.5l-2 57q-8 9 -19 8.5t-24 -0.5q-3 -3 -6 -5.5t-8 -2.5q-8 1 -11 6.5t-4 12t-1 14t-3 12.5q-3 6 0.5 11t8.5 10q20 6 39.5 9.5 t39.5 6.5l13 8q-3 19 1.5 34t4.5 32zM881 158q14 -29 7.5 -60t-26.5 -53q-5 -8 -11.5 -9.5t-12.5 -4.5q-13 1 -19.5 8.5t-9.5 17.5t-4.5 21t-3.5 20q5 16 6 34t10 32q7 4 11.5 10l9 12t9.5 10.5t13 4.5l6 -6q-2 -7 -0.5 -12t5 -8.5t6.5 -7.5t4 -9zM604 86q0 -15 -9 -26.5 t-20 -20.5q-8 -2 -15.5 -8t-18.5 0q-7 1 -9 5.5t-1 9.5t3 11t3 11q0 6 5 11.5t13 8.5q12 0 20 8q7 -2 15.5 -1.5t13.5 -8.5z" />
<glyph horiz-adv-x="2347" d="M1898 -70q-9 -12 -22.5 -16.5t-28 -6t-28.5 -4t-25 -9.5q-17 -2 -33.5 -4.5t-31.5 -8.5t-27 -16.5t-19 -28.5q-8 -21 -19.5 -40.5t-21.5 -39.5t-15.5 -41.5t-0.5 -46.5q2 -9 8.5 -12.5t14.5 -4t16 1t14 3.5q4 0 7 3l6 6t7 4.5t9 -1.5q9 -6 1 -12.5t-11 -13.5 q-17 -11 -37.5 -15.5t-40.5 4.5q-16 16 -24.5 34t-2.5 40q1 8 5 19.5t12.5 29.5t21.5 43t33 60q-16 7 -32 6t-32.5 -4.5t-32.5 -5.5t-32 4q9 12 25 17.5t30 10.5q13 3 28 3t29 1.5t26 6.5t20 18q7 11 8.5 22.5t1.5 23t-1 24t1 24.5q-11 3 -10.5 11.5t0.5 13.5 q-12 23 -30 34.5t-40 17t-44.5 6t-43.5 1.5q-23 -2 -45 -11t-41 -23.5t-34 -33t-23 -38.5q-14 -32 -11 -65.5t17 -67.5q-4 -25 5.5 -47t20 -44.5t16 -46t-6.5 -51.5q-11 -9 -26 -8t-28 6q-14 7 -21 19t-10.5 26.5t-6 29t-7.5 27.5q9 6 11.5 15.5t3.5 19.5t2.5 19.5t7.5 17.5 q3 11 1.5 27t-15.5 22q-18 -2 -38 -2.5t-39.5 -2t-37.5 -6.5t-33 -17q2 -22 5 -45.5t2 -46t-9.5 -42t-28.5 -34.5q-12 -3 -24 -0.5t-25 8.5q-11 9 -14.5 20t-4 23.5t1 25.5t1.5 25q7 15 14.5 32t16.5 32.5t21 28t30 18.5q15 -10 33.5 -6.5t33.5 8.5l101 2q4 4 6 11t2.5 14 t1 14.5t2.5 13.5q9 29 26 56.5t39.5 48.5t50.5 35t60 16q34 3 67 1t64 -18q1 -11 8 -16.5t15 -10t15 -10t9 -16.5q9 -15 12 -32.5t2 -35.5t-5 -36.5t-7 -34.5q47 0 91.5 8t86.5 16zM1067 -111q-9 -6 -17 -3t-16.5 7.5t-17 7.5t-17.5 -3q-14 -9 -19.5 -22t-9 -26.5 t-7.5 -26.5t-13 -24q-3 -28 -9.5 -54t-6.5 -52q-6 -3 -12.5 -7t-16.5 -1q-6 7 -7 17t0.5 19.5t3.5 19t1 17.5q8 9 10 21t2 24t0.5 23.5t6.5 21.5q-7 11 -6 26.5t-3 25.5q-5 1 -8.5 -0.5t-6.5 -3.5t-7 -2.5t-8 4.5q3 12 10 20t18 16q17 0 25 -12t14 -24q8 3 15 12t15 16 t16.5 9t19.5 -9zM795 -18q-1 -51 1.5 -103t4 -103.5t-1 -101.5t-14 -97t-34 -90t-61.5 -81q-65 -40 -143.5 -49.5t-153.5 10.5q-8 5 -16 12.5t-8 16.5q5 20 12.5 40.5t32.5 28.5q-6 -17 -14 -33t-11 -34q26 -17 59.5 -23t68.5 -3.5t69 12t61 24.5q29 10 46 28.5t28 41 t18.5 47t18.5 45.5q6 36 9 75.5t4.5 79t0.5 76.5t-2 68q4 11 3.5 23.5t-2 25.5t-2.5 25.5t1 23.5q-3 11 -12 7.5t-13 -5.5q-8 -8 -13 -17t-9.5 -18t-9.5 -17.5t-13 -14.5q3 -15 -4 -24t-16 -16.5t-17 -15.5t-8 -22q-42 -47 -77.5 -95t-69.5 -98q-8 -12 -14.5 -24t-22.5 -10 q-10 13 -11.5 28.5t0.5 31t4 32t-1 32.5q10 34 18.5 72t34.5 72q19 49 52.5 97t82.5 79q14 4 26.5 2t24 -7.5t22 -13t21.5 -14.5q10 11 16 24t9 25q25 -9 25 -41q-6 -5 -6 -8.5t2 -7.5t3.5 -8.5t0.5 -9.5zM1456 428q-36 -5 -71 -16t-69.5 -21t-69.5 -16.5t-72 -3.5 q-7 -6 -10.5 -23t-1.5 -33.5t11 -26.5t27 -3q6 8 9 23t16 20q9 -19 2.5 -36.5t-19.5 -31.5q-6 -4 -21 -4.5t-29.5 8.5t-23.5 31.5t-4 64.5q-5 7 -10 13.5t0 15.5q12 9 17.5 20t7.5 23t3 25t3 26q-3 2 -4 4.5t-4 4.5q-18 -12 -30.5 -27.5t-23 -32t-21 -33.5t-24.5 -32 q0 -15 -8 -26.5t-17.5 -22.5t-16 -23.5t-3.5 -28.5q-6 -6 -6.5 -15.5t-1.5 -19.5t-5.5 -17.5t-18.5 -8.5q-18 4 -24 15t-6.5 24.5t1.5 28t0 26.5q-3 19 -1.5 36.5t3.5 34.5t3.5 33.5t-1.5 34.5q-9 -5 -14 -13t-9 -16.5t-8.5 -17.5t-11.5 -16q-10 -12 -19 -28.5t-20 -30.5 t-25.5 -22t-35.5 -3q-12 17 -13 35.5t4.5 38t15 38t19.5 35.5q9 10 19 23.5t22 24t25.5 15.5t30.5 -1q10 -5 20 0q19 43 28.5 90.5t12.5 93.5l21 16q13 -4 14.5 -10.5t-1 -14t-6 -16t-1.5 -16.5q-8 -57 -19 -113t-16 -112q-1 -15 -3.5 -30t-4 -29.5t-1.5 -29.5t5 -30 q16 21 31 45t30.5 49t33.5 49t40 45q25 36 65 62q16 -13 31 -29.5t31 -27.5q0 -19 -2.5 -41.5t2.5 -40.5q56 12 106 20.5t103 24.5q8 -5 12 -10.5t2 -16.5zM2138 1190q-2 29 -10 60t-23 59t-37 51t-53 37q12 18 25.5 16.5t25.5 -12t22.5 -25.5t18.5 -24q32 -39 46.5 -85.5 t15.5 -95.5t-10 -98t-29 -94q-15 -35 -36 -68t-48 -62t-59.5 -52.5t-69.5 -38.5q28 20 54 43.5t44 54.5q16 16 32 34t29.5 38t23.5 43t14 49q24 40 26.5 83.5t-2.5 86.5zM1954 983q-6 -15 -18.5 -30.5t-30.5 -20.5q-16 5 -24 13.5t-17 21.5l4 28q5 -2 6.5 -6t3 -9t3.5 -10 t9 -7q11 -4 19.5 6t13.5 16q8 47 1 92.5t-32 85.5l-12 -6q-25 -23 -46.5 -42t-35.5 -50l-16 -8q-28 -28 -49 -60t-45 -55q-12 -2 -18 3.5t-8.5 13.5t-3.5 17.5t-5 16.5q3 8 1.5 18.5t-7.5 16.5q-6 1 -9 -1.5t-4.5 -6t-3 -7.5t-4.5 -5q-15 -16 -29.5 -23.5t-35.5 -9.5 q-23 6 -28.5 18t-3.5 28t8 34t5 35q8 30 26.5 53.5t41.5 48.5q10 2 21.5 6.5t23 6t22 -1.5t19.5 -15l8 -12q-12 -35 -15 -73t-8 -75q2 -6 5.5 -13t11.5 -7q12 0 18 5.5t10 13t8 16t11 14.5q45 38 83.5 78.5t76.5 81.5q13 -5 17 -16t5.5 -24t2.5 -25.5t7 -21.5q11 -5 7 -16 q15 -31 15 -64t-5 -67zM1675 1384q-6 -11 -19.5 -20.5t-29.5 -7.5q-3 6 -8 13.5t-16 -1.5q-29 -23 -58.5 -47.5t-55 -51.5t-45.5 -57.5t-32 -64.5q-7 -42 -10.5 -86.5t2 -87.5t23 -80.5t53.5 -65.5q10 -8 21 -10.5t23 -2.5t25 1t25 0q12 8 21 17.5t22 17.5q1 -9 -3 -15.5 t-11 -11.5t-15 -9.5t-14 -10.5q-31 -13 -66.5 -5t-60.5 29q-22 20 -36 43.5t-19 51.5q-10 4 -10.5 9.5t1.5 12t3 12.5t-7 11q4 7 2.5 14t-4.5 14.5t-4 15.5t4 17q-2 61 17.5 114t52.5 98.5t76 85.5t88 75q7 1 18 3.5t20.5 2.5t17 -4.5t9.5 -18.5zM1300 1020q-14 -34 -45 -60 t-71 -26q-41 0 -77 15.5t-54 49.5q-16 23 -16 49t5 54q2 9 6.5 16.5t9 14t8.5 14t5 16.5q28 23 62 30t69 -5q7 -6 15.5 -9t7.5 -16q-3 -4 -6.5 -3t-7.5 3.5t-9 5t-10 2.5q-28 8 -54.5 -1.5t-47.5 -30.5q-16 -25 -24.5 -54.5t3.5 -58.5q44 -60 111 -70q9 4 19.5 5.5t20.5 3 t19.5 6t17.5 14.5q6 4 10.5 11.5t9 14t10 10t13.5 -0.5zM985 963q-11 -25 -18.5 -50.5t-26.5 -48.5q-14 -6 -25.5 1t-17.5 20q-15 35 -21 75t1 78q-3 2 -2 17t2.5 33.5t1 36t-6.5 26.5q-13 -31 -14 -63.5t-1.5 -64t-7.5 -62t-32 -56.5q-3 -3 -14 -6t-24.5 2.5t-26.5 23.5 t-19 58q6 38 8 74t9 73q1 7 -1 14.5t-3.5 15t-0.5 15t9 13.5q6 3 13.5 0.5t12.5 -8.5q1 -32 -2 -65.5t-5.5 -65t-1 -59.5t12.5 -48q15 -10 21.5 -4t10 18t5 25t6.5 18q4 21 5 43t1.5 43.5t2.5 43t8 42.5q5 6 9 15.5t9 17t12 10t19 -5.5q14 -40 15 -78.5t-0.5 -76.5t-1 -77 t13.5 -79q2 -6 9 -8t13 6q1 1 4.5 11.5t9 23t13 23t16.5 10.5zM666 901q-4 -3 -8.5 -7t-20.5 -8.5t-49 -9.5t-94 -10q-70 -6 -133 -17.5t-128 -33.5q-5 -11 -12.5 -14t-15 -2t-15.5 5l-14 7q-2 9 2.5 15t11 11t12 10t7.5 13q12 25 21.5 49.5t17.5 48.5q-3 13 4.5 27t13.5 27 q45 103 86 208.5t66 217.5q-3 12 -2.5 23.5t8.5 19.5q12 4 16 -4.5t11 -14.5q-14 -79 -41 -153.5t-57.5 -147t-60.5 -146t-50 -151.5l4 -4q76 13 148.5 27t154.5 16q25 -5 55.5 -4t54.5 10zM1405 -315q12 26 3.5 56.5t-24.5 53.5q-9 -12 -11.5 -26.5t-4.5 -28.5 q3 -17 9 -34.5t28 -20.5zM1130 -188q-5 -23 -7.5 -48t5.5 -47q6 -6 17 -5.5t20 7t13.5 18t-2.5 27.5q2 9 4.5 23t2 27t-5.5 23.5t-18 12.5zM721 -12q-3 11 -11.5 17.5t-19 8.5t-22.5 1t-21 -5q-22 -18 -43.5 -38.5t-38.5 -43.5q-10 -32 -24 -62t-26.5 -60.5t-19.5 -62.5 t-3 -67q6 -2 7.5 2t4.5 7q28 37 59.5 72t61.5 71.5t55.5 75.5t40.5 84zM1186 426q2 5 5 13t3.5 15.5t-2 13t-10.5 7.5l-11 -59q11 2 11.5 4.5t3.5 5.5zM903 471q-14 3 -26.5 -6.5t-20.5 -22.5q-11 -14 -21.5 -29.5t-17.5 -32t-9 -33.5t5 -34q11 -5 15 1.5t8 13.5 q21 23 39 47t32 55zM1655 1178q-5 4 -8.5 2.5t-6 -4l-5 -5t-5.5 -0.5q-23 -11 -38 -29.5t-23.5 -40.5t-12 -46t-2.5 -47q7 -2 13 1t12 7t12 6.5t13 1.5q5 14 17 29t21 31.5t11.5 33t-11.5 33.5q6 0 9 3t4 7.5t0.5 9t-0.5 7.5z" />
<glyph horiz-adv-x="1032" d="M786 1499l-270 133l-272 -133l-39 74l313 168l309 -166z" />
<glyph horiz-adv-x="1092" d="M887 1653q-37 -64 -89 -98.5t-114 -34.5q-46 0 -81 15t-77 45t-66.5 43t-56.5 13q-36 0 -72 -24.5t-65 -71.5l-61 47q36 64 88.5 98.5t114.5 34.5q46 0 81 -15t77 -45t66 -43t56 -13q36 0 71.5 24.5t65.5 71.5z" />
<glyph horiz-adv-x="891" d="M686 1731q0 -48 -17 -89t-49.5 -70.5t-77.5 -46t-100 -16.5q-57 0 -102 17t-75 47.5t-45 70.5t-15 87h82q0 -27 11.5 -51.5t32.5 -43t50 -29t63 -10.5q36 0 65 10.5t50 28.5t32 42.5t11 52.5h84z" />
<glyph horiz-adv-x="573" d="M369 1591q0 -17 -6.5 -31.5t-18 -26t-26 -18t-31.5 -6.5t-32 6t-26 17.5t-17.5 26.5t-6.5 32t6.5 31.5t18 26t26 18t31.5 6.5t32 -6t26 -17.5t17.5 -26.5t6.5 -32z" />
<glyph horiz-adv-x="823" d="M618 1667q0 -42 -14.5 -79t-42 -65.5t-68 -44.5t-90.5 -16q-45 0 -81.5 12.5t-62.5 37t-40 62t-14 85.5q0 41 14.5 78.5t42.5 66t68 44.5t90 16q46 0 82.5 -12.5t62.5 -37t39.5 -62t13.5 -85.5zM522 1663q0 29 -7.5 52t-21.5 39t-34.5 24t-46.5 8q-22 0 -41.5 -7.5 t-35.5 -22.5t-25 -38.5t-9 -54.5q0 -29 7.5 -52t22 -39t35 -24t46.5 -8q21 0 41 7.5t35.5 22.5t24.5 38.5t9 54.5z" />
<glyph horiz-adv-x="709" d="M268 1278l-63 51l213 268l86 -63z" />
<glyph horiz-adv-x="518" d="M508 1352q0 -17 -6 -31.5t-17 -25.5t-25.5 -17t-31.5 -6t-31.5 6t-25.5 17t-17 25.5t-6 31.5t6 31.5t17 25.5t25.5 17t31.5 6t31.5 -6t25.5 -17t17 -25.5t6 -31.5zM170 1352q0 -17 -6 -31.5t-17 -25.5t-25.5 -17t-31.5 -6t-31.5 6t-25.5 17t-17 25.5t-6 31.5t6 31.5 t17 25.5t25.5 17t31.5 6t31.5 -6t25.5 -17t17 -25.5t6 -31.5z" />
<glyph horiz-adv-x="1444" d="M1444 -340q-83 -11 -152.5 -6.5t-131 16t-117.5 27t-111.5 27.5t-114.5 17t-125 -5v98q76 10 140 5.5t122.5 -16t114 -26.5t114 -27t122.5 -16.5t139 4.5v-98zM1343 705q0 -175 -50.5 -309.5t-137 -226t-202.5 -138.5t-246 -47q-149 0 -262 50t-189 141.5t-115 219.5 t-39 283q0 175 50.5 309.5t137.5 226t202.5 138.5t246.5 47q148 0 261 -50.5t189.5 -142t115 -219t38.5 -282.5zM1229 680q0 138 -32 253t-95 198t-158 129.5t-221 46.5q-105 0 -197 -39t-160.5 -115.5t-108.5 -188.5t-40 -259q0 -138 32 -254t95 -199t158 -129.5t221 -46.5 q104 0 196 39t161 115.5t109 189.5t40 260z" />
</font>
</defs>
</svg>
